osu file format v14

[General]
AudioFilename: audio.mp3
AudioLeadIn: 0
PreviewTime: 184
Countdown: 0
SampleSet: Soft
StackLeniency: 0.7
Mode: 0
LetterboxInBreaks: 0
WidescreenStoryboard: 1

[Editor]
DistanceSpacing: 1
BeatDivisor: 8
GridSize: 8
TimelineZoom: 1

[Metadata]
Title:HesitationSnow
TitleUnicode:HesitationSnow
Artist:fripSide
ArtistUnicode:fripSide
Creator:Fushimi Rio
Version:Normal
Source:はつゆきさくら
Tags:hesitation snow saga planets eroge visual novel opening Hatsuyuki Sakura PinkHeart Fia Garden Yorita Yoshino Japanese pop jpop
BeatmapID:3320433
BeatmapSetID:1329838

[Difficulty]
HPDrainRate:4
CircleSize:3.2
OverallDifficulty:5
ApproachRate:5.4
SliderMultiplier:1.3
SliderTickRate:1

[Events]
//Background and Video events
0,0,"BG.jpg",0,0
//Break Periods
2,53717,63044
//Storyboard Layer 0 (Background)
//Storyboard Layer 1 (Fail)
//Storyboard Layer 2 (Pass)
//Storyboard Layer 3 (Foreground)
//Storyboard Layer 4 (Overlay)
//Storyboard Sound Samples

[TimingPoints]
184,444.444444444444,4,2,1,30,1,0
14406,-133.333333333333,4,2,1,40,0,0
20406,-133.333333333333,4,2,1,30,0,0
20850,-133.333333333333,4,2,1,40,0,0
26850,-133.333333333333,4,2,1,60,0,0
28405,-133.333333333333,4,2,1,5,0,0
28628,-133.333333333333,4,2,2,40,0,0
29517,-133.333333333333,4,2,2,45,0,0
30406,-133.333333333333,4,2,2,50,0,0
31295,-133.333333333333,4,2,2,55,0,0
32183,-133.333333333333,4,2,2,60,0,0
33072,-133.333333333333,4,2,2,65,0,0
33961,-133.333333333333,4,2,2,70,0,0
34850,-111.111111111111,4,2,2,70,0,0
35294,-111.111111111111,4,2,1,80,0,0
35739,-133.333333333333,4,2,2,100,0,1
36183,-133.333333333333,4,2,2,80,0,1
49517,-133.333333333333,4,2,2,100,0,1
49961,-133.333333333333,4,2,1,100,0,0
50183,-133.333333333333,4,2,1,30,0,0
53517,-133.333333333333,4,2,1,80,0,0
64183,-133.333333333333,4,2,2,50,0,0
78406,-133.333333333333,4,2,1,65,0,0
80183,-133.333333333333,4,2,2,65,0,0
82850,-133.333333333333,4,2,1,65,0,0
83739,-133.333333333333,4,2,2,65,0,0
86850,-133.333333333333,4,2,1,65,0,0
87295,-133.333333333333,4,2,2,65,0,0
89739,-133.333333333333,4,2,1,65,0,0
90405,-133.333333333333,4,2,2,65,0,0
92628,-133.333333333333,4,2,1,80,0,0
93961,-133.333333333333,4,2,1,40,0,0
94406,-133.333333333333,4,2,2,100,0,1
94850,-133.333333333333,4,2,2,80,0,1
96628,-133.333333333333,4,2,1,80,0,1
96850,-133.333333333333,4,2,2,80,0,1
100072,-133.333333333333,4,2,1,80,0,1
100405,-133.333333333333,4,2,2,80,0,1
106850,-133.333333333333,4,2,2,90,0,1
108628,-133.333333333333,4,2,2,100,0,1
109072,-133.333333333333,4,2,2,90,0,1
110406,-133.333333333333,4,2,2,80,0,1
110850,-133.333333333333,4,2,1,80,0,1
111295,-133.333333333333,4,2,2,80,0,1
114405,-133.333333333333,4,2,1,80,0,1
114628,-133.333333333333,4,2,2,80,0,1
117850,-133.333333333333,4,2,1,80,0,1
118183,-133.333333333333,4,2,2,80,0,1
122850,-133.333333333333,4,2,2,90,0,1
123739,-133.333333333333,4,2,1,90,0,1
124628,-133.333333333333,4,2,1,40,0,0
137072,468.75,4,2,1,40,1,0
137072,-133.333333333333,4,2,1,40,0,0
137775,-133.333333333333,4,2,1,5,0,0
138009,-133.333333333333,4,2,1,40,0,0
138712,-133.333333333333,4,2,1,5,0,0
138947,535.714285714286,4,2,1,30,1,0
138947,-133.333333333333,4,2,1,30,0,0
141089,-133.333333333333,4,2,1,45,0,0

[Colours]
Combo1 : 206,206,206
Combo2 : 142,173,255
Combo3 : 235,158,254
Combo4 : 155,245,255

[HitObjects]
71,310,14406,6,0,P|182:290|199:173,1,243.750009298325,4|0,0:1|0:0,0:0:0:0:
192,127,15739,1,2,0:0:0:0:
196,78,15961,2,0,B|224:36|224:36|268:19,1,97.50000371933,0|2,0:0|0:0,0:0:0:0:
358,133,17072,2,0,B|330:175|330:175|286:192,1,97.50000371933
240,206,17739,1,0,0:0:0:0:
220,250,17961,6,0,P|267:330|361:332,1,195.00000743866,8|0,0:0|0:0,0:0:0:0:
406,350,19072,2,0,L|462:350,1,48.750001859665
492,319,19517,2,0,B|499:272|499:272|476:227,1,97.50000371933,2|0,0:0|0:0,0:0:0:0:
385,193,20406,2,0,B|341:210|341:210|313:252,1,97.50000371933
267,235,21072,2,0,L|211:235,1,48.750001859665
177,208,21517,6,0,P|96:255|93:344,2,146.250005578995,8|0|2,0:0|0:0|0:0,0:0:0:0:
199,164,23072,2,0,P|171:89|133:72,1,97.50000371933
15,54,24183,2,0,P|43:129|81:146,1,97.50000371933,2|0,0:0|0:0,0:0:0:0:
102,146,24850,1,0,0:0:0:0:
148,131,25072,6,0,P|196:99|316:83,1,146.250005578995,8|0,0:0|0:0,0:0:0:0:
343,155,26183,2,0,L|343:211,2,48.750001859665,0|2|0,0:0|0:0|0:0,0:0:0:0:
389,140,26850,2,0,P|450:151|509:96,1,146.250005578995,2|0,0:0|0:0,0:0:0:0:
504,49,27739,2,0,P|456:8|378:27,1,146.250005578995,0|0,3:3|0:0,0:0:0:0:
351,66,28628,5,4,1:0:0:0:
244,18,29072,1,8,0:0:0:0:
196,125,29517,1,8,0:0:0:0:
303,173,29961,1,8,0:0:0:0:
209,242,30406,5,10,0:2:0:0:
102,194,30850,1,8,0:2:0:0:
149,87,31295,1,8,0:2:0:0:
256,135,31739,2,0,L|314:135,1,48.750001859665,8|10,0:2|0:2,0:0:0:0:
356,107,32183,6,0,P|394:119|413:132,2,48.750001859665,10|0|10,0:2|3:0|0:2,0:0:0:0:
347,223,33072,2,0,P|348:247|355:270,2,48.750001859665,2|8|2,3:2|3:2|3:2,3:0:0:0:
459,220,33961,6,0,P|480:206|497:189,1,48.750001859665,2|8,3:2|3:2,0:3:0:0:
492,130,34406,2,0,P|500:107|503:83,1,48.750001859665,2|2,3:2|3:2,0:3:0:0:
475,36,34850,6,0,P|415:31|396:90,1,116.999996429443,4|4,3:1|1:1,0:0:0:0:
306,155,35739,6,0,P|251:154|192:105,1,97.50000371933,4|0,0:2|1:0,0:0:0:0:
188,81,36406,1,0,0:0:0:0:
156,32,36628,2,0,P|113:10|64:10,1,97.50000371933,10|2,0:0|1:2,0:0:0:0:
45,126,37517,6,0,P|39:185|52:241,1,97.50000371933,4|0,0:3|1:0,0:0:0:0:
87,263,38183,1,8,0:0:0:0:
145,260,38406,1,4,0:3:0:0:
215,352,38850,2,0,L|263:352,1,48.750001859665,0|8,1:0|0:0,0:0:0:0:
314,323,39295,5,4,0:0:0:0:
352,212,39739,1,0,1:0:0:0:
463,250,40183,1,8,0:0:0:0:
425,361,40627,1,2,1:2:0:0:
314,323,41072,6,0,P|255:336|216:370,1,97.50000371933,4|0,0:0|1:0,0:0:0:0:
120,306,41961,2,0,L|65:318,2,48.750001859665,4|10|0,0:3|0:0|1:0,0:0:0:0:
93,254,42628,1,4,0:3:0:0:
100,196,42850,6,0,P|133:152|207:133,1,97.50000371933,4|0,0:0|1:0,0:0:0:0:
276,184,43739,2,0,P|283:231|267:277,1,97.50000371933,10|0,0:0|1:0,0:0:0:0:
325,277,44406,1,2,0:0:0:0:
384,277,44628,6,0,L|461:277,2,73.1250027894975,4|2|0,0:0|0:0|0:0,0:0:0:0:
389,335,45517,2,0,P|356:375|300:373,1,97.50000371933,4|0,0:3|1:0,0:3:0:0:
272,335,46183,1,10,0:0:0:0:
263,276,46406,6,0,P|270:228|299:189,1,97.50000371933,4|0,0:0|1:0,0:0:0:0:
352,164,47072,1,2,0:0:0:0:
389,119,47295,2,0,P|388:73|352:19,1,97.50000371933,10|2,0:0|1:2,0:0:0:0:
274,105,48183,5,6,0:0:0:0:
168,54,48628,2,0,L|120:54,1,48.750001859665,0|4,1:3|0:3,0:0:0:0:
67,28,49072,1,4,1:0:0:0:
35,141,49517,1,12,0:0:0:0:
148,173,49961,1,4,1:0:0:0:
256,192,50183,12,4,53517,0:0:0:0:
410,133,64183,6,0,P|427:163|425:234,1,97.50000371933,4|0,0:0|1:0,0:0:0:0:
333,293,65072,2,0,P|316:263|318:192,1,97.50000371933,8|0,0:0|1:0,0:0:0:0:
256,199,65739,1,0,0:0:0:0:
197,199,65961,2,0,L|94:199,2,97.50000371933,4|0|8,0:3|1:0|0:0,0:0:0:0:
240,89,67295,1,0,1:0:0:0:
264,35,67517,1,8,0:0:0:0:
319,15,67739,6,0,P|353:18|409:62,1,97.50000371933,0|0,0:0|1:0,0:0:0:0:
404,171,68628,2,0,P|369:167|313:123,1,97.50000371933,8|0,0:0|1:0,0:0:0:0:
210,176,69517,2,0,L|100:176,1,97.50000371933,8|0,0:0|1:0,0:0:0:0:
44,271,70406,2,0,P|41:305|44:325,2,48.750001859665,8|0|2,0:0|0:0|1:2,0:0:0:0:
102,271,71072,1,10,0:0:0:0:
143,312,71295,6,0,P|177:308|233:264,1,97.50000371933,10|0,0:0|1:0,0:0:0:0:
228,156,72184,2,0,P|193:159|137:203,1,97.50000371933,8|0,0:0|1:0,0:0:0:0:
109,147,72850,1,0,0:0:0:0:
78,97,73072,2,0,L|29:5,2,97.50000371933,4|0|8,0:3|1:0|0:0,0:0:0:0:
183,45,74406,1,0,1:0:0:0:
238,28,74628,1,8,0:0:0:0:
295,36,74850,6,0,P|320:59|339:127,1,97.50000371933,8|0,0:0|1:0,0:0:0:0:
271,212,75739,2,0,P|237:179|225:132,1,97.50000371933,8|0,0:0|1:0,0:0:0:0:
166,133,76406,1,0,0:0:0:0:
107,133,76628,2,0,L|-3:133,1,97.50000371933,8|0,0:0|1:0,0:0:0:0:
72,231,77517,2,0,L|79:286,1,48.750001859665,10|0,0:0|3:0,0:0:0:0:
126,312,77961,2,0,L|133:367,1,48.750001859665,8|8,1:2|3:2,0:0:0:0:
181,329,78406,6,0,P|225:313|286:311,1,97.50000371933,4|0,0:0|1:0,0:0:0:0:
368,239,79295,2,0,P|322:222|273:219,1,97.50000371933,2|0,0:0|1:0,0:0:0:0:
215,214,79961,1,0,0:0:0:0:
172,173,80183,2,0,P|154:124|154:107,2,48.750001859665,8|0|0,0:0|0:0|1:0,0:0:0:0:
211,62,81072,2,0,P|235:62|258:69,1,48.750001859665,2|2,0:0|0:0,0:0:0:0:
313,89,81517,2,0,P|337:88|360:81,1,48.750001859665,0|8,1:0|0:0,0:0:0:0:
417,69,81961,6,0,P|401:113|399:174,1,97.50000371933,10|0,0:0|1:0,0:0:0:0:
286,198,82850,2,0,P|302:242|304:303,1,97.50000371933,0|0,0:0|1:0,0:0:0:0:
270,339,83517,1,0,0:0:0:0:
213,351,83739,2,0,P|179:318|187:266,1,97.50000371933,10|0,0:0|1:0,0:0:0:0:
86,206,84628,2,0,L|25:206,2,48.750001859665,10|8|0,0:0|0:0|1:0,0:0:0:0:
142,189,85295,1,8,0:0:0:0:
186,151,85517,6,0,P|190:94|253:57,1,97.50000371933,4|0,0:0|1:0,0:0:0:0:
314,130,86406,2,0,P|318:73|381:36,1,97.50000371933,0|0,0:0|1:0,0:0:0:0:
402,55,87072,1,2,0:0:0:0:
423,109,87295,2,0,P|420:157|403:203,1,97.50000371933,10|0,0:0|1:0,0:0:0:0:
432,316,88183,2,0,P|386:299|337:296,1,97.50000371933,10|0,0:0|1:0,0:0:0:0:
281,314,88850,1,10,0:0:0:0:
223,321,89072,6,0,P|207:274|210:203,1,97.50000371933,8|0,0:0|1:0,0:0:0:0:
229,172,89739,1,2,0:0:0:0:
274,135,89961,2,0,P|272:86|256:40,1,97.50000371933,0|0,0:0|1:0,0:0:0:0:
210,4,90628,1,10,0:0:0:0:
151,4,90850,1,10,0:2:0:0:
256,192,91072,12,4,92628,1:0:0:0:
400,114,93961,6,0,L|351:119,1,48.750001859665,2|0,0:0|0:0,0:0:0:0:
306,155,94406,6,0,P|251:154|192:105,1,97.50000371933,4|0,0:2|1:0,0:0:0:0:
135,47,95295,2,0,P|79:11|34:20,1,97.50000371933,10|8,0:0|1:2,0:0:0:0:
26,66,95961,1,2,0:0:0:0:
12,123,96184,6,0,P|6:182|19:238,1,97.50000371933,4|0,0:0|1:0,0:0:0:0:
52,262,96850,1,0,0:0:0:0:
110,264,97073,1,4,0:3:0:0:
224,286,97517,2,0,L|272:286,1,48.750001859665,2|8,1:2|0:0,0:0:0:0:
314,323,97962,5,4,1:1:0:0:
352,212,98406,1,0,1:0:0:0:
276,122,98850,1,10,0:2:0:0:
238,233,99294,1,2,1:2:0:0:
126,269,99739,6,0,P|67:256|45:238,2,73.1250027894975,4|2|2,0:0|0:0|0:0,0:0:0:0:
155,217,100628,2,0,P|157:174|113:138,1,97.50000371933,4|0,0:3|1:0,0:0:0:0:
61,152,101295,1,4,0:3:0:0:
26,104,101517,6,0,P|59:60|133:41,1,97.50000371933,4|0,0:0|1:0,0:0:0:0:
204,89,102406,2,0,P|251:96|297:80,1,97.50000371933,8|0,0:0|1:0,0:0:0:0:
340,39,103072,1,2,0:0:0:0:
391,66,103295,6,0,L|468:66,2,73.1250027894975,4|2|0,0:0|0:0|0:0,0:0:0:0:
390,124,104184,2,0,P|357:164|301:162,1,97.50000371933,4|0,0:3|1:0,0:3:0:0:
261,141,104850,1,10,0:0:0:0:
211,109,105073,6,0,P|163:116|124:145,1,97.50000371933,4|0,0:1|1:0,0:0:0:0:
98,196,105739,1,10,0:0:0:0:
86,253,105962,2,0,L|80:354,1,97.50000371933,8|8,0:0|1:2,0:0:0:0:
185,299,106850,6,0,L|233:303,1,48.750001859665,4|8,0:0|0:0,0:0:0:0:
273,260,107295,2,0,L|321:255,2,48.750001859665,8|4|4,1:2|0:3|1:0,0:0:0:0:
365,335,108184,1,6,0:0:0:0:
410,298,108406,1,0,1:3:0:0:
416,239,108628,6,0,P|397:194|359:164,1,97.50000371933,4|0,0:2|1:0,0:0:0:0:
303,146,109295,1,0,0:0:0:0:
275,94,109517,2,0,P|285:53|336:33,1,97.50000371933,10|2,0:0|1:2,0:0:0:0:
417,113,110406,6,0,P|418:161|407:208,1,97.50000371933,4|0,0:0|1:0,0:0:0:0:
369,253,111072,1,0,0:0:0:0:
310,249,111295,2,0,P|281:256|254:273,1,48.750001859665,4|8,0:3|0:2,0:0:0:0:
252,322,111739,2,0,P|232:344|220:374,1,48.750001859665,2|8,1:2|0:0,0:0:0:0:
174,330,112184,5,4,1:0:0:0:
63,368,112628,1,0,1:0:0:0:
25,257,113072,1,10,0:0:0:0:
136,219,113516,1,2,1:2:0:0:
33,161,113961,6,0,P|5:120|-1:73,1,97.50000371933,4|0,0:0|1:0,0:0:0:0:
54,58,114628,1,0,0:3:0:0:
110,44,114850,2,0,L|165:32,2,48.750001859665,4|8|0,0:3|0:0|1:0,0:0:0:0:
137,95,115517,1,4,0:3:0:0:
174,139,115739,6,0,P|218:170|295:165,1,97.50000371933,4|0,0:0|1:0,0:0:0:0:
327,79,116628,2,0,P|305:36|265:9,1,97.50000371933,2|0,0:0|1:0,0:0:0:0:
207,23,117295,1,10,0:0:0:0:
156,51,117517,6,0,L|79:51,2,73.1250027894975,4|2|0,0:0|0:0|0:0,0:0:0:0:
159,109,118406,2,0,P|126:149|70:147,1,97.50000371933,4|4,0:3|1:0,0:3:0:0:
28,132,119072,1,4,0:3:0:0:
0,183,119295,6,0,P|0:231|22:273,1,97.50000371933,4|0,0:0|1:0,0:0:0:0:
137,255,120183,2,0,L|232:244,2,73.1250027894975,8|10|8,0:0|0:0|0:0,0:0:0:0:
110,307,121072,5,6,0:0:0:0:
225,328,121517,2,0,L|272:333,1,48.750001859665,0|4,1:3|0:3,0:0:0:0:
322,365,121961,1,4,1:0:0:0:
301,249,122406,1,6,0:0:0:0:
423,232,122850,2,0,P|450:220|474:199,1,48.750001859665,4|8,1:0|3:2,0:0:0:0:
468,150,123294,2,0,P|485:126|492:94,1,48.750001859665,0|4,1:0|0:3,0:0:0:0:
479,50,123739,1,4,1:0:0:0:
308,209,124628,6,0,P|197:189|180:72,1,243.750009298325,4|0,0:1|0:0,0:0:0:0:
208,36,125961,1,2,0:0:0:0:
253,19,126183,2,0,B|301:32|301:32|331:69,1,97.50000371933
202,138,127294,2,0,B|160:166|160:166|142:210,1,97.50000371933,2|0,0:0|0:0,0:0:0:0:
137,258,127961,1,0,0:0:0:0:
145,305,128183,6,0,P|203:376|297:363,1,195.00000743866
339,340,129294,2,0,L|395:340,1,48.750001859665,2|0,0:0|0:0,0:0:0:0:
434,353,129739,2,0,B|467:319|467:319|475:269,1,97.50000371933,2|0,0:0|0:0,0:0:0:0:
414,192,130628,2,0,B|380:225|380:225|372:275,1,97.50000371933
326,261,131294,2,0,L|270:261,1,48.750001859665
236,233,131739,6,0,P|199:146|250:73,2,146.250005578995,8|0|2,0:0|0:0|0:0,0:0:0:0:
281,251,133295,2,0,P|328:244|366:214,1,97.50000371933
376,365,134406,2,0,P|333:342|285:345,1,97.50000371933,2|0,0:0|0:0,0:0:0:0:
246,374,135072,1,0,0:0:0:0:
197,380,135295,6,0,P|181:324|203:205,1,146.250005578995,8|0,0:0|0:0,0:0:0:0:
169,139,136405,2,0,L|169:83,2,48.750001859665,0|2|0,0:0|0:0|0:0,0:0:0:0:
119,147,137072,2,0,P|58:158|-1:103,1,146.250005578995,8|0,0:0|0:0,0:0:0:0:
4,56,138009,2,0,P|52:15|130:34,1,146.250005578995,2|0,0:0|0:0,0:0:0:0:
142,68,138947,6,0,B|270:138|317:68|364:-3|512:71,1,390.00001487732,2|8,0:0|0:0,0:0:0:0:
