osu file format v14

[General]
AudioFilename: audio.mp3
AudioLeadIn: 0
PreviewTime: 184
Countdown: 0
SampleSet: Soft
StackLeniency: 0.7
Mode: 0
LetterboxInBreaks: 0
WidescreenStoryboard: 0

[Editor]
DistanceSpacing: 0.3
BeatDivisor: 4
GridSize: 4
TimelineZoom: 2.5

[Metadata]
Title:HesitationSnow
TitleUnicode:HesitationSnow
Artist:fripSide
ArtistUnicode:fripSide
Creator:Fushimi Rio
Version:Garden's Nostalgic Insane
Source:はつゆきさくら
Tags:hesitation snow saga planets eroge visual novel opening Hatsuyuki Sakura PinkHeart Fia Garden Yorita Yoshino Japanese pop jpop
BeatmapID:3307194
BeatmapSetID:1329838

[Difficulty]
HPDrainRate:6
CircleSize:5
OverallDifficulty:6
ApproachRate:6
SliderMultiplier:1.6
SliderTickRate:1

[Events]
//Background and Video events
0,0,"yande.re 207296 hatsuyuki_sakura hontani_kanae jpeg_artifacts saga_planets tamaki_sakura thighhighs valentine wallpaper.jpg",0,0
//Break Periods
//Storyboard Layer 0 (Background)
//Storyboard Layer 1 (Fail)
//Storyboard Layer 2 (Pass)
//Storyboard Layer 3 (Foreground)
//Storyboard Layer 4 (Overlay)
//Storyboard Sound Samples

[TimingPoints]
184,444.444444444444,4,2,0,40,1,0
184,-133.333333333333,4,2,0,40,0,0
14183,-133.333333333333,4,2,0,5,0,0
14406,-133.333333333333,4,2,0,50,0,0
28628,-100,4,2,0,60,0,0
35739,-100,4,2,0,80,0,0
64183,-100,4,2,0,60,0,0
78406,-100,4,2,0,70,0,0
94406,-83.3333333333333,4,2,0,80,0,0
124628,-133.333333333333,4,2,0,50,0,0
137072,468.75,4,2,1,50,1,0
138947,535.714285714286,4,2,1,30,1,0

[Colours]
Combo1 : 206,206,206
Combo2 : 142,173,255
Combo3 : 235,158,254
Combo4 : 155,245,255

[HitObjects]
72,311,184,6,0,B|145:196|292:235,1,240.000009155274,2|0,0:0|0:0,0:0:0:0:
471,291,1517,1,2,0:0:0:0:
421,230,1739,1,2,0:0:0:0:
421,230,2183,1,2,0:0:0:0:
392,352,3739,6,0,P|307:277|321:151,1,240.000009155274,2|0,0:0|0:0,0:0:0:0:
471,14,5517,2,0,P|480:129|394:206,1,240.000009155274,2|0,0:0|0:0,0:0:0:0:
72,96,7295,6,0,P|146:33|234:35,1,180.000006866455,2|2,0:0|0:0,0:0:0:0:
403,98,8628,1,2,0:0:0:0:
321,130,8850,1,2,0:0:0:0:
321,130,9295,1,2,0:0:0:0:
403,98,10850,5,2,0:0:0:0:
256,192,12628,1,2,0:0:0:0:
256,192,12739,12,0,14183,0:0:0:0:
318,361,14406,6,0,P|361:313|192:276,1,360.000013732911,4|2,0:1|0:0,0:0:0:0:
281,283,15961,1,2,0:0:0:0:
281,283,16406,1,2,0:0:0:0:
36,365,17072,2,0,L|54:260,1,90.0000034332277,2|0,0:0|0:0,0:0:0:0:
65,269,17517,2,0,L|76:203,1,60.0000022888184,2|0,0:0|0:0,0:0:0:0:
0,173,17961,6,0,P|58:181|152:-1,1,300.000011444092,2|2,0:0|0:0,0:0:0:0:
84,38,19295,1,2,0:0:0:0:
142,89,19517,2,0,L|205:80,1,60.0000022888184,2|0,0:0|0:0,0:0:0:0:
338,104,19961,6,0,P|230:98|280:44,1,240.000009155274,2|0,0:0|0:0,0:0:0:0:
357,33,21072,1,2,0:0:0:0:
357,33,21295,1,0,0:0:0:0:
414,88,21517,6,0,P|358:156|359:244,2,180.000006866455,2|2|2,0:0|0:0|0:0,0:0:0:0:
453,154,23072,2,0,P|444:182|426:222,1,60.0000022888184,2|0,0:0|0:0,0:0:0:0:
497,254,23517,6,0,P|405:256|345:323,1,180.000006866455,2|2,0:0|0:0,0:0:0:0:
347,316,24628,2,0,L|272:306,1,60.0000022888184,2|0,0:0|0:0,0:0:0:0:
123,371,25072,6,0,P|235:344|247:213,1,240.000009155274,2|0,0:0|0:0,0:0:0:0:
196,184,26183,2,0,L|121:174,2,60.0000022888184,0|2|0,0:0|0:0|0:0,0:0:0:0:
269,158,26850,5,8,0:0:0:0:
210,106,27072,1,2,3:2:0:0:
211,98,27183,1,2,3:2:0:0:
212,90,27295,1,0,3:0:0:0:
276,46,27517,1,2,3:2:0:0:
207,10,27739,5,8,0:0:0:0:
207,10,27850,1,2,3:2:0:0:
344,86,28072,1,0,3:0:0:0:
344,86,28183,2,0,P|409:82|444:39,1,120.000004577637,8|4,0:0|1:0,0:0:0:0:
370,14,29072,5,0,1:0:0:0:
373,29,29517,1,0,1:0:0:0:
375,43,29961,1,0,1:0:0:0:
480,146,30406,5,0,1:0:0:0:
458,239,30850,1,0,1:0:0:0:
433,331,31295,1,0,1:0:0:0:
316,384,31739,5,0,1:0:0:0:
341,292,31961,1,0,1:0:0:0:
363,199,32183,1,0,1:0:0:0:
288,74,32628,5,0,1:0:0:0:
266,167,33072,1,0,1:0:0:0:
241,259,33517,1,0,1:0:0:0:
122,364,33961,6,0,L|114:324,3,40,0|0|0|0,1:0|3:0|3:0|3:0,0:0:0:0:
37,301,34406,2,0,L|29:261,3,40,0|0|0|0,1:0|3:0|3:0|3:0,0:0:0:0:
90,212,34850,2,0,L|83:175,8,20,0|0|0|0|0|0|0|0|2,1:0|3:0|3:0|3:0|3:0|3:0|3:0|3:0|3:0,0:0:0:0:
11,162,35739,6,0,P|69:160|105:115,1,120,4|0,1:0|0:0,0:0:0:0:
98,95,36183,2,0,L|81:54,2,40,8|2|0,1:0|0:0|0:0,0:0:0:0:
194,131,36628,5,2,1:2:0:0:
194,131,36739,1,8,3:1:0:0:
148,8,36961,1,0,3:0:0:0:
148,8,37072,1,8,1:0:0:0:
236,51,37295,5,2,0:0:0:0:
282,174,37517,1,4,1:2:0:0:
405,121,37739,1,2,0:0:0:0:
405,121,37850,1,2,0:0:0:0:
405,121,37961,2,0,P|373:102|317:102,1,80,8|0,1:0|0:0,0:0:0:0:
445,35,38406,5,2,1:2:0:0:
445,35,38517,1,8,3:1:0:0:
491,158,38739,1,0,3:0:0:0:
491,158,38850,1,8,1:0:0:0:
444,277,39072,1,0,1:0:0:0:
325,326,39295,6,0,L|341:247,1,80,4|0,1:2|0:0,0:0:0:0:
206,375,39739,2,0,L|222:296,1,80,8|0,1:0|0:0,0:0:0:0:
123,230,40183,5,2,1:2:0:0:
123,230,40295,1,8,3:1:0:0:
244,183,40517,1,0,3:0:0:0:
244,183,40628,1,8,1:0:0:0:
140,106,40850,1,2,0:0:0:0:
21,153,41072,5,4,1:2:0:0:
12,286,41295,1,2,0:0:0:0:
12,286,41406,1,2,0:0:0:0:
12,286,41517,1,8,1:0:0:0:
113,363,41739,1,2,0:0:0:0:
229,307,41961,5,2,1:2:0:0:
229,307,42072,1,8,3:1:0:0:
123,230,42295,1,0,3:0:0:0:
123,230,42406,1,8,1:0:0:0:
244,183,42628,1,0,1:0:0:0:
343,263,42850,6,0,P|425:249|446:211,1,120,4|0,1:2|0:0,0:0:0:0:
438,209,43295,2,0,L|424:161,2,40,8|2|0,1:0|0:0|0:0,0:0:0:0:
489,117,43739,5,2,1:2:0:0:
489,117,43850,1,8,3:1:0:0:
367,93,44072,1,0,3:0:0:0:
367,93,44183,1,8,1:0:0:0:
241,66,44406,1,2,0:0:0:0:
116,37,44628,5,4,1:2:0:0:
224,149,44850,1,2,0:0:0:0:
224,149,44961,1,2,0:0:0:0:
224,149,45072,1,8,1:0:0:0:
183,288,45295,1,2,0:0:0:0:
43,317,45517,5,2,1:2:0:0:
43,317,45628,1,8,3:1:0:0:
103,258,45850,1,0,3:1:0:0:
103,258,45961,1,8,1:0:0:0:
183,288,46183,2,0,L|171:337,1,40,2|0,1:2|0:0,0:0:0:0:
253,355,46406,6,0,P|329:351|368:285,1,160,4|8,1:2|1:0,0:0:0:0:
443,249,47072,1,2,0:0:0:0:
443,249,47183,1,2,0:0:0:0:
443,249,47295,2,0,P|374:244|347:188,1,120,2|0,1:2|0:0,0:0:0:0:
344,188,47739,2,0,P|393:171|428:161,1,80,8|0,1:0|0:0,0:0:0:0:
504,102,48183,5,2,1:2:0:0:
424,14,48406,1,2,3:2:0:0:
424,14,48517,1,2,3:2:0:0:
424,14,48628,1,8,1:0:0:0:
320,85,48850,5,2,3:2:0:0:
320,85,48961,1,2,3:2:0:0:
320,85,49072,1,2,1:2:0:0:
320,85,49183,1,8,3:1:0:0:
215,17,49406,1,0,3:0:0:0:
215,17,49517,1,8,1:0:0:0:
148,125,49739,1,0,1:0:0:0:
256,192,49961,5,4,1:0:0:0:
256,192,50072,12,4,53517,1:2:0:0:
91,297,53961,5,8,1:0:0:0:
91,297,54072,2,0,P|126:269|175:275,1,80,2|0,0:0|0:0,0:0:0:0:
174,274,54406,2,0,L|182:235,2,40,0|8|2,1:0|3:1|0:0,0:0:0:0:
114,196,54850,5,8,1:0:0:0:
225,334,55072,1,2,0:0:0:0:
401,304,55295,1,4,1:2:0:0:
401,304,55739,5,8,1:0:0:0:
401,304,55850,2,0,L|420:206,1,80,2|0,0:0|0:0,0:0:0:0:
416,207,56183,2,0,L|367:218,2,40,2|8|2,1:2|3:1|0:0,0:0:0:0:
500,82,56628,1,8,1:0:0:0:
488,163,56850,1,0,1:0:0:0:
488,163,56961,1,0,1:0:0:0:
488,163,57072,1,4,1:2:0:0:
291,51,57517,5,8,1:0:0:0:
291,51,57628,2,0,P|247:54|213:89,1,80,2|0,0:0|0:0,0:0:0:0:
211,92,57961,2,0,L|161:86,2,40,2|8|2,1:2|3:1|0:0,0:0:0:0:
172,0,58406,5,8,1:0:0:0:
288,134,58628,1,2,0:0:0:0:
232,302,58850,1,4,1:2:0:0:
232,302,59295,5,8,1:0:0:0:
232,302,59406,2,0,L|142:292,1,80,2|0,0:0|0:0,0:0:0:0:
136,293,59739,2,0,L|147:344,2,40,2|8|2,1:2|3:1|0:0,0:0:0:0:
6,215,60183,1,8,1:0:0:0:
56,285,60406,1,0,1:0:0:0:
56,285,60517,1,0,1:0:0:0:
56,285,60628,1,4,1:2:0:0:
264,200,61072,5,8,1:0:0:0:
264,200,61183,1,2,0:0:0:0:
220,136,61406,1,2,0:0:0:0:
220,136,61517,1,2,1:2:0:0:
220,136,61628,1,8,3:1:0:0:
220,136,61739,1,2,0:0:0:0:
171,68,61961,5,8,1:0:0:0:
325,151,62183,1,2,0:0:0:0:
232,302,62406,1,4,1:2:0:0:
78,219,62628,2,0,L|124:207,1,40,2|0,0:0|0:0,0:0:0:0:
202,187,62850,5,8,1:0:0:0:
202,187,62961,1,2,3:2:0:0:
290,234,63183,1,2,3:2:0:0:
290,234,63295,1,8,1:0:0:0:
290,234,63406,1,2,3:2:0:0:
290,234,63517,1,2,3:2:0:0:
368,273,63739,1,8,1:0:0:0:
458,316,63961,1,0,1:0:0:0:
458,316,64072,1,0,1:0:0:0:
458,316,64183,6,0,P|470:275|454:240,1,80,4|0,1:0|0:0,0:0:0:0:
389,196,64628,1,8,1:0:0:0:
415,124,64850,1,2,0:0:0:0:
415,124,64961,1,2,0:0:0:0:
415,124,65072,1,2,1:2:0:0:
346,81,65295,5,2,0:0:0:0:
483,164,65517,1,8,1:0:0:0:
366,273,65739,1,2,0:0:0:0:
229,190,65961,6,0,P|224:124|298:149,1,160,2|8,1:2|1:0,0:0:0:0:
311,221,66628,1,2,0:0:0:0:
311,221,66739,1,2,0:0:0:0:
311,221,66850,2,0,P|237:223|159:298,1,160,2|8,1:2|1:0,0:0:0:0:
140,348,67517,5,0,1:0:0:0:
60,359,67739,1,2,1:2:0:0:
17,302,67961,1,2,0:0:0:0:
17,302,68072,1,2,0:0:0:0:
17,302,68183,1,8,1:0:0:0:
44,226,68406,1,2,0:0:0:0:
123,215,68628,2,0,P|154:193|165:145,1,80,0|0,1:0|0:0,0:0:0:0:
77,0,69072,5,8,1:0:0:0:
39,71,69295,1,2,0:0:0:0:
80,140,69517,1,2,1:2:0:0:
165,152,69739,1,2,0:0:0:0:
165,152,69850,1,2,0:0:0:0:
165,152,69961,2,0,L|262:131,1,80,8|0,1:0|0:0,0:0:0:0:
325,122,70406,5,0,1:0:0:0:
325,122,70517,1,8,3:1:0:0:
342,46,70739,1,0,3:0:0:0:
342,46,70850,1,8,1:0:0:0:
427,37,71072,1,0,1:0:0:0:
427,37,71183,1,0,1:0:0:0:
427,37,71295,6,0,L|400:135,1,80,2|0,1:2|0:0,0:0:0:0:
433,189,71739,1,8,1:0:0:0:
512,170,71961,1,2,0:0:0:0:
512,170,72072,1,2,0:0:0:0:
512,170,72183,1,2,1:2:0:0:
486,93,72406,5,2,0:0:0:0:
356,215,72628,1,8,1:0:0:0:
403,384,72850,1,2,0:0:0:0:
231,323,73072,6,0,P|231:265|310:295,1,160,2|8,1:2|1:0,0:0:0:0:
356,215,73739,1,2,0:0:0:0:
356,215,73850,1,2,0:0:0:0:
356,215,73961,2,0,P|241:182|225:149,1,160,2|8,1:2|1:0,0:0:0:0:
232,74,74628,1,0,1:0:0:0:
310,58,74850,5,2,1:2:0:0:
233,161,75072,1,2,0:0:0:0:
233,161,75183,1,2,0:0:0:0:
233,161,75295,1,8,1:0:0:0:
113,103,75517,1,2,0:0:0:0:
196,0,75739,5,2,1:2:0:0:
196,0,75850,1,8,3:1:0:0:
213,79,76072,1,0,3:0:0:0:
213,79,76183,1,8,1:0:0:0:
226,154,76406,1,2,0:0:0:0:
400,186,76628,6,0,P|380:138|311:130,1,120,2|0,1:2|0:0,0:0:0:0:
303,136,77072,2,0,L|225:154,1,80,8|0,1:0|0:0,0:0:0:0:
131,171,77517,1,0,1:0:0:0:
127,190,77628,1,2,0:0:0:0:
123,210,77739,1,2,0:0:0:0:
119,229,77850,1,2,0:0:0:0:
115,249,77961,1,8,1:0:0:0:
62,327,78183,5,0,1:0:0:0:
62,327,78295,1,0,1:0:0:0:
62,327,78406,2,0,P|105:281|224:291,1,160,4|8,1:0|1:0,0:0:0:0:
262,323,79072,1,2,0:0:0:0:
262,323,79183,1,2,0:0:0:0:
262,323,79295,1,2,1:2:0:0:
380,299,79517,1,2,0:0:0:0:
454,343,79739,5,8,1:0:0:0:
336,367,79961,1,2,0:0:0:0:
336,367,80072,1,2,0:0:0:0:
336,367,80183,1,2,1:2:0:0:
380,299,80406,1,2,0:0:0:0:
425,233,80628,1,8,1:0:0:0:
315,143,81072,5,2,1:2:0:0:
397,3,81295,1,2,0:0:0:0:
359,75,81517,1,8,1:0:0:0:
359,75,81628,1,2,0:0:0:0:
359,75,81739,1,0,1:0:0:0:
315,143,81961,6,0,P|402:140|432:58,1,160,2|8,1:2|1:0,0:0:0:0:
397,3,82628,1,2,0:0:0:0:
397,3,82739,1,2,0:0:0:0:
397,3,82850,1,2,1:2:0:0:
481,16,83072,1,2,0:0:0:0:
359,75,83295,1,8,1:0:0:0:
243,139,83517,1,2,0:0:0:0:
243,139,83628,1,2,0:0:0:0:
243,139,83739,6,0,L|157:125,1,80,2|0,1:2|0:0,0:0:0:0:
136,149,84072,1,2,0:0:0:0:
136,149,84183,2,0,L|50:135,1,80,8|0,1:0|0:0,0:0:0:0:
111,71,84628,5,2,1:2:0:0:
111,71,84739,1,8,3:1:0:0:
194,205,84961,1,0,3:0:0:0:
194,205,85072,1,8,1:0:0:0:
132,344,85295,1,0,1:0:0:0:
296,357,85517,6,0,P|294:284|224:288,1,160,2|8,1:2|1:0,0:0:0:0:
215,370,86183,1,2,0:0:0:0:
215,370,86295,1,2,0:0:0:0:
215,370,86406,1,2,1:2:0:0:
132,344,86628,1,2,0:0:0:0:
54,322,86850,1,8,1:0:0:0:
151,266,87072,1,2,0:0:0:0:
251,215,87295,5,2,1:2:0:0:
253,130,87517,1,2,0:0:0:0:
253,130,87628,1,2,0:0:0:0:
253,130,87739,2,0,L|224:297,2,160,8|0|8,1:0|1:0|1:0,0:0:0:0:
347,18,88850,5,0,1:0:0:0:
347,18,88961,1,2,0:0:0:0:
347,18,89072,2,0,L|331:111,1,80,2|0,1:2|0:0,0:0:0:0:
349,116,89406,1,2,0:0:0:0:
349,116,89517,2,0,P|390:109|424:67,1,80,8|0,1:0|0:0,0:0:0:0:
512,140,89961,2,0,P|471:147|437:189,1,80,2|0,1:2|0:0,0:0:0:0:
412,246,90406,1,8,1:0:0:0:
479,288,90628,1,2,0:0:0:0:
447,362,90850,5,2,1:2:0:0:
412,246,91072,1,2,0:0:0:0:
311,197,91295,1,8,1:0:0:0:
311,197,91406,1,2,0:0:0:0:
311,197,91517,1,2,0:0:0:0:
184,224,91739,5,0,1:0:0:0:
186,235,91850,1,2,0:0:0:0:
188,246,91961,1,2,0:0:0:0:
190,257,92072,1,2,0:0:0:0:
192,268,92183,1,8,1:0:0:0:
275,274,92406,5,2,1:2:0:0:
311,197,92628,2,0,L|302:159,3,40,2|2|2|2,1:2|0:0|0:0|0:0,0:0:0:0:
357,99,93072,2,0,L|350:68,8,20,0|0|0|0|0|0|0|0|2,1:0|3:0|3:0|3:0|3:0|3:0|3:0|3:0|3:0,0:0:0:0:
352,79,93961,6,0,P|402:81|427:112,1,80,2|0,0:0|0:0,0:0:0:0:
396,0,94406,6,0,P|346:51|274:56,1,143.999995605469,4|0,1:0|0:0,0:0:0:0:
258,48,94850,2,0,L|270:0,2,47.9999985351563,8|2|0,1:0|0:0|0:0,0:0:0:0:
242,130,95295,5,2,1:2:0:0:
242,130,95406,1,8,3:1:0:0:
156,7,95628,1,0,3:0:0:0:
156,7,95739,1,8,1:0:0:0:
82,141,95961,5,2,0:0:0:0:
166,89,96183,1,4,1:2:0:0:
258,48,96406,1,2,0:0:0:0:
258,48,96517,1,2,0:0:0:0:
258,48,96628,2,0,P|308:52|350:92,1,95.9999970703126,8|0,1:0|0:0,0:0:0:0:
371,234,97072,5,2,1:2:0:0:
371,234,97183,1,8,3:1:0:0:
503,153,97406,1,0,3:0:0:0:
503,153,97517,1,8,1:0:0:0:
475,1,97739,1,2,1:2:0:0:
503,153,97961,6,0,L|487:257,1,95.9999970703126,4|0,1:2|0:0,0:0:0:0:
356,328,98406,2,0,L|371:234,1,95.9999970703126,8|0,1:0|0:0,0:0:0:0:
253,142,98850,5,2,1:2:0:0:
253,142,98961,1,8,3:1:0:0:
230,296,99183,1,0,3:0:0:0:
230,296,99295,1,8,1:0:0:0:
371,233,99517,1,2,0:0:0:0:
406,87,99739,5,4,1:2:0:0:
292,0,99961,1,2,0:0:0:0:
292,0,100072,1,2,0:0:0:0:
292,0,100183,1,8,1:0:0:0:
145,46,100406,1,2,0:0:0:0:
108,197,100628,5,2,1:2:0:0:
108,197,100739,1,8,3:1:0:0:
253,142,100961,1,0,3:0:0:0:
253,142,101072,1,8,1:0:0:0:
230,296,101295,1,2,1:2:0:0:
199,220,101517,6,0,P|270:223|309:288,1,143.999995605469,4|0,1:2|0:0,0:0:0:0:
308,296,101961,2,0,L|297:344,2,47.9999985351563,8|2|0,1:0|0:0|0:0,0:0:0:0:
375,384,102406,5,2,1:2:0:0:
375,384,102517,1,8,3:1:0:0:
487,279,102739,1,0,3:0:0:0:
487,279,102850,1,8,1:0:0:0:
447,130,103072,1,2,0:0:0:0:
298,88,103295,5,4,1:2:0:0:
338,237,103517,1,2,0:0:0:0:
338,237,103628,1,2,0:0:0:0:
338,237,103739,1,8,1:0:0:0:
226,342,103961,1,2,0:0:0:0:
82,301,104183,5,2,1:2:0:0:
82,301,104295,1,8,3:1:0:0:
211,269,104517,1,0,3:0:0:0:
211,269,104628,1,8,1:0:0:0:
338,237,104850,2,0,L|350:189,1,47.9999985351563,2|0,1:2|1:0,0:0:0:0:
298,88,105072,6,0,P|360:170|445:175,1,191.999994140625,4|8,1:2|1:0,0:0:0:0:
446,37,105739,1,2,0:0:0:0:
446,37,105850,1,2,0:0:0:0:
446,37,105961,2,0,P|381:33|400:98,1,143.999995605469,2|0,1:2|0:0,0:0:0:0:
404,102,106406,2,0,P|455:80|443:32,1,95.9999970703126,8|0,1:0|0:0,0:0:0:0:
357,12,106850,5,4,1:2:0:0:
234,101,107072,1,2,0:0:0:0:
234,101,107183,1,2,0:0:0:0:
234,101,107295,1,8,1:0:0:0:
263,262,107517,1,2,0:0:0:0:
263,262,107628,1,2,0:0:0:0:
263,262,107739,1,2,1:2:0:0:
263,262,107850,1,8,3:1:0:0:
414,303,108072,1,0,3:0:0:0:
414,303,108183,1,8,1:0:0:0:
318,202,108406,1,2,1:2:0:0:
177,262,108628,6,0,P|78:231|69:189,1,143.999995605469,4|0,1:0|0:0,0:0:0:0:
74,185,109072,2,0,L|86:137,2,47.9999985351563,8|2|0,1:0|0:0|0:0,0:0:0:0:
15,109,109517,5,2,1:2:0:0:
15,109,109628,1,8,3:1:0:0:
143,23,109850,1,0,3:0:0:0:
143,23,109961,1,8,1:0:0:0:
296,25,110183,5,2,0:0:0:0:
169,112,110406,1,4,1:2:0:0:
322,114,110628,1,2,0:0:0:0:
322,114,110739,1,2,0:0:0:0:
322,114,110850,2,0,L|346:214,1,95.9999970703126,8|0,1:0|0:0,0:0:0:0:
475,296,111295,5,2,1:2:0:0:
475,296,111406,1,8,3:1:0:0:
326,360,111628,1,0,3:0:0:0:
326,360,111739,1,8,1:0:0:0:
344,207,111961,1,2,1:2:0:0:
326,360,112183,6,0,P|271:351|239:318,1,95.9999970703126,4|0,1:2|0:0,0:0:0:0:
180,208,112628,2,0,P|235:217|267:250,1,95.9999970703126,8|0,1:0|0:0,0:0:0:0:
111,260,113072,5,2,1:2:0:0:
111,260,113183,1,8,3:1:0:0:
190,129,113406,1,0,3:0:0:0:
190,129,113517,1,8,1:0:0:0:
91,11,113739,1,2,0:0:0:0:
104,163,113961,5,4,1:2:0:0:
259,205,114183,1,2,0:0:0:0:
259,205,114295,1,2,0:0:0:0:
259,205,114406,1,8,1:0:0:0:
332,70,114628,1,2,0:0:0:0:
190,129,114850,5,2,1:2:0:0:
190,129,114961,1,8,3:1:0:0:
223,282,115183,1,0,3:0:0:0:
223,282,115295,1,8,1:0:0:0:
369,328,115517,1,2,1:2:0:0:
494,239,115739,6,0,P|453:187|366:190,1,143.999995605469,4|0,1:2|0:0,0:0:0:0:
365,194,116183,2,0,L|376:244,2,47.9999985351563,8|2|0,1:0|0:0|0:0,0:0:0:0:
481,92,116628,5,2,1:2:0:0:
481,92,116739,1,8,3:1:0:0:
343,33,116961,1,0,3:0:0:0:
343,33,117072,1,8,1:0:0:0:
213,117,117295,1,2,0:0:0:0:
75,58,117517,5,4,1:2:0:0:
196,205,117739,1,2,0:0:0:0:
196,205,117850,1,2,0:0:0:0:
196,205,117961,1,8,1:0:0:0:
379,182,118183,1,2,0:0:0:0:
500,329,118406,5,2,1:2:0:0:
500,329,118517,1,8,3:1:0:0:
352,262,118739,1,0,3:0:0:0:
352,262,118850,1,8,1:0:0:0:
196,205,119072,2,0,L|205:258,1,47.9999985351563,2|0,1:2|1:0,0:0:0:0:
270,369,119295,6,0,P|208:287|119:282,1,191.999994140625,4|8,1:2|1:0,0:0:0:0:
13,164,119961,1,2,0:0:0:0:
13,164,120072,1,2,0:0:0:0:
13,164,120183,2,0,P|78:160|59:225,1,143.999995605469,2|0,1:2|0:0,0:0:0:0:
54,229,120628,2,0,P|9:219|3:173,1,95.9999970703126,8|0,1:0|0:0,0:0:0:0:
95,135,121072,5,4,1:2:0:0:
254,160,121295,1,2,3:2:0:0:
254,160,121406,1,2,3:2:0:0:
254,160,121517,1,8,1:0:0:0:
366,55,121739,5,2,3:2:0:0:
363,40,121850,1,2,3:2:0:0:
361,25,121961,1,2,1:2:0:0:
358,10,122072,1,8,3:1:0:0:
302,82,122295,1,0,3:0:0:0:
302,82,122406,1,8,1:0:0:0:
254,160,122628,1,2,0:0:0:0:
425,264,122850,6,0,P|419:192|354:159,1,143.999995605469,4|0,1:2|0:0,0:0:0:0:
344,165,123295,2,0,L|339:196,8,23.9999992675781,2|0|0|0|0|0|0|0|4,1:2|1:0|1:0|1:0|1:0|1:0|1:0|1:0|1:0,0:0:0:0:
74,371,124628,6,0,P|31:323|200:286,1,360.000013732911,4|0,0:1|0:0,0:0:0:0:
115,293,126183,1,2,0:0:0:0:
115,293,126628,1,2,0:0:0:0:
241,85,127295,2,0,L|332:98,1,90.0000034332277,2|0,0:0|0:0,0:0:0:0:
343,90,127739,2,0,L|431:103,1,60.0000022888184,2|0,0:0|0:0,0:0:0:0:
329,11,128183,6,0,P|345:151|482:184,1,300.000011444092,2|2,0:0|0:0,0:0:0:0:
470,106,129517,1,2,0:0:0:0:
408,154,129739,2,0,L|397:222,1,60.0000022888184,2|0,0:0|0:0,0:0:0:0:
436,285,130183,6,0,B|368:314|312:263|343:256|293:198|203:245,1,240.000009155274,2|0,0:0|0:0,0:0:0:0:
154,284,131295,1,2,0:0:0:0:
154,284,131517,1,0,0:0:0:0:
80,257,131739,6,0,P|24:189|32:101,2,180.000006866455,2|2|2,0:0|0:0|0:0,0:0:0:0:
119,189,133295,2,0,P|114:158|102:129,1,60.0000022888184,2|0,0:0|0:0,0:0:0:0:
31,101,133739,6,0,P|127:94|176:22,1,180.000006866455,2|2,0:0|0:0,0:0:0:0:
173,31,134850,2,0,L|232:38,1,60.0000022888184,2|0,0:0|0:0,0:0:0:0:
404,0,135295,6,0,P|287:15|238:123,1,240.000009155274,2|0,0:0|0:0,0:0:0:0:
314,128,136406,2,0,L|373:135,2,60.0000022888184,0|2|0,0:0|0:0|0:0,0:0:0:0:
237,115,137072,5,2,0:0:0:0:
275,269,138009,1,2,0:0:0:0:
256,192,138947,5,2,0:0:0:0:
256,192,139080,12,2,141089,0:0:0:0:
