osu file format v14

[General]
AudioFilename: audio.mp3
AudioLeadIn: 0
PreviewTime: 184
Countdown: 0
SampleSet: Soft
StackLeniency: 0.7
Mode: 0
LetterboxInBreaks: 0
WidescreenStoryboard: 0

[Editor]
Bookmarks: 45517,45739
DistanceSpacing: 1
BeatDivisor: 8
GridSize: 4
TimelineZoom: 1

[Metadata]
Title:HesitationSnow
TitleUnicode:HesitationSnow
Artist:fripSide
ArtistUnicode:fripSide
Creator:Fushimi Rio
Version:Extra
Source:はつゆきさくら
Tags:hesitation snow saga planets eroge visual novel opening Hatsuyuki Sakura PinkHeart Fia Garden Yorita Yoshino Japanese pop jpop
BeatmapID:2755377
BeatmapSetID:1329838

[Difficulty]
HPDrainRate:8
CircleSize:4
OverallDifficulty:8
ApproachRate:9.4
SliderMultiplier:2.8
SliderTickRate:1

[Events]
//Background and Video events
0,0,"BG.jpg",0,0
//Break Periods
//Storyboard Layer 0 (Background)
//Storyboard Layer 1 (Fail)
//Storyboard Layer 2 (Pass)
//Storyboard Layer 3 (Foreground)
//Storyboard Layer 4 (Overlay)
//Storyboard Sound Samples

[TimingPoints]
184,444.444444444444,4,2,1,40,1,0
184,-333.333333333333,4,2,1,40,0,0
14406,-125,4,2,1,40,0,0
15961,-285.714285714286,4,2,1,40,0,0
17072,-400,4,2,1,40,0,0
21517,-285.714285714286,4,2,1,40,0,0
26850,-133.333333333333,4,2,1,60,0,0
28628,-100,4,2,2,40,0,0
29517,-100,4,2,2,45,0,0
30406,-100,4,2,2,50,0,0
31295,-100,4,2,2,55,0,0
32183,-100,4,2,2,60,0,0
33072,-100,4,2,2,65,0,0
33961,-66.6666666666667,4,2,2,70,0,0
34628,-80,4,2,2,70,0,0
35072,-100,4,2,2,70,0,0
35295,-100,4,2,1,80,0,0
35739,-100,4,2,2,100,0,1
35850,-100,4,2,2,80,0,1
36628,-100,4,2,2,80,0,1
36739,-100,4,2,2,80,0,1
37517,-100,4,2,2,80,0,1
37628,-100,4,2,2,80,0,1
38406,-100,4,2,2,80,0,1
39739,-66.6666666666667,4,2,2,80,0,1
40183,-100,4,2,2,80,0,1
40295,-100,4,2,2,80,0,1
41961,-100,4,2,2,80,0,1
42072,-100,4,2,2,80,0,1
42850,-80,4,2,2,80,0,1
42961,-100,4,2,2,80,0,1
43739,-100,4,2,2,80,0,1
43850,-100,4,2,2,80,0,1
44628,-100,4,2,2,80,0,1
44961,-100,4,2,2,80,0,1
45295,-100,4,2,2,80,0,1
45517,-100,4,2,2,80,0,1
45739,-100,4,2,2,80,0,1
47295,-100,4,2,2,80,0,1
47406,-100,4,2,2,80,0,1
48406,-100,4,2,2,80,0,1
48628,-100,4,2,2,80,0,1
49072,-100,4,2,2,80,0,1
49183,-100,4,2,2,80,0,1
49295,-66.6666666666667,4,2,2,80,0,1
49517,-66.6666666666667,4,2,2,100,0,1
49961,-133.333333333333,4,2,1,100,0,0
50406,-100,4,2,1,100,0,0
51739,-100,4,2,1,80,0,0
62406,-100,4,2,2,80,0,0
64183,-100,4,2,2,50,0,0
65961,-133.333333333333,4,2,2,50,0,0
66295,-100,4,2,2,50,0,0
70183,-100,4,2,2,50,0,0
70406,-100,4,2,2,50,0,0
73072,-133.333333333333,4,2,2,50,0,0
73517,-100,4,2,2,50,0,0
78406,-80,4,2,1,65,0,0
78850,-117.647058823529,4,2,1,65,0,0
79183,-100,4,2,1,65,0,0
80183,-100,4,2,2,65,0,0
82739,-100,4,2,1,65,0,0
83739,-100,4,2,2,65,0,0
86295,-100,4,2,1,65,0,0
87295,-100,4,2,2,65,0,0
88739,-100,4,2,2,65,0,0
89739,-100,4,2,1,65,0,0
90072,-100,4,2,2,65,0,0
90517,-100,4,2,1,65,0,0
90628,-100,4,2,2,65,0,0
91739,-100,4,2,2,65,0,0
92628,-66.6666666666667,4,2,1,80,0,0
93072,-66.6666666666667,4,2,1,80,0,0
93517,-66.6666666666667,4,2,1,100,0,0
93628,-117.647058823529,4,2,1,40,0,0
94406,-83.3333333333333,4,2,2,100,0,1
94517,-100,4,2,2,80,0,1
96406,-100,4,2,1,80,0,1
96850,-100,4,2,2,80,0,1
97517,-100,4,2,2,80,0,1
98406,-66.6666666666667,4,2,2,80,0,1
98850,-100,4,2,2,80,0,1
100072,-100,4,2,1,80,0,1
100406,-100,4,2,2,80,0,1
101517,-80,4,2,2,80,0,1
101961,-100,4,2,2,80,0,1
106850,-100,4,2,2,90,0,1
107295,-66.6666666666667,4,2,2,90,0,1
107517,-80,4,2,2,90,0,1
107739,-100,4,2,2,90,0,1
108628,-83.3333333333333,4,2,2,100,0,1
108739,-100,4,2,2,90,0,1
110406,-100,4,2,2,80,0,1
110628,-100,4,2,1,80,0,1
111183,-100,4,2,2,80,0,1
112628,-66.6666666666667,4,2,2,80,0,1
112961,-100,4,2,2,80,0,1
114295,-100,4,2,1,80,0,1
114628,-100,4,2,2,80,0,1
115739,-83.3333333333333,4,2,2,80,0,1
115850,-100,4,2,2,80,0,1
117850,-100,4,2,1,80,0,1
118183,-100,4,2,2,80,0,1
118628,-83.3333333333333,4,2,2,80,0,1
118850,-66.6666666666667,4,2,2,80,0,1
119072,-83.3333333333333,4,2,2,80,0,1
119406,-100,4,2,2,80,0,1
121072,-100,4,2,2,80,0,1
122850,-100,4,2,2,90,0,1
123739,-100,4,2,1,90,0,0
124628,-200,4,2,1,40,0,0
126183,-285.714285714286,4,2,1,40,0,0
127295,-400,4,2,1,40,0,0
131739,-285.714285714286,4,2,1,40,0,0
137072,468.75,4,2,1,50,1,0
137072,-166.666666666667,4,2,1,50,0,0
137189,-100,4,2,1,5,0,0
138009,-181.818181818182,4,2,1,30,0,0
138126,-100,4,2,1,8,0,0
138947,535.714285714286,4,2,1,30,1,0
138947,-300,4,2,1,30,0,0
139214,-100,4,2,2,20,0,0
139482,-100,4,2,2,30,0,0
139750,-100,4,2,2,40,0,0
140018,-100,4,2,2,50,0,0
140286,-100,4,2,2,60,0,0
140554,-100,4,2,2,70,0,0
140822,-100,4,2,2,80,0,0
141089,-100,4,2,1,45,0,0

[Colours]
Combo1 : 206,206,206
Combo2 : 142,173,255
Combo3 : 235,158,254
Combo4 : 155,245,255

[HitObjects]
85,284,184,5,2,0:0:0:0:
57,275,406,2,0,L|27:297,2,20.9999993591309
58,247,850,1,0,0:0:0:0:
85,238,1072,1,0,0:0:0:0:
101,261,1295,1,0,0:0:0:0:
170,293,1517,1,2,0:0:0:0:
245,286,1739,1,0,0:0:0:0:
307,242,1961,5,8,0:0:0:0:
338,173,2183,1,0,0:0:0:0:
281,122,2406,1,0,0:0:0:0:
215,159,2628,1,0,0:0:0:0:
231,234,2850,1,0,0:0:0:0:
437,201,3739,5,2,0:0:0:0:
464,192,3961,2,0,L|492:212,2,20.9999993591309
464,164,4406,1,0,0:0:0:0:
437,155,4628,1,0,0:0:0:0:
421,178,4850,1,0,0:0:0:0:
352,210,5072,1,0,0:0:0:0:
277,203,5295,1,0,0:0:0:0:
215,159,5517,5,8,0:0:0:0:
184,90,5739,1,0,0:0:0:0:
241,39,5961,1,0,0:0:0:0:
307,76,6183,1,0,0:0:0:0:
291,150,6406,2,0,L|239:156,1,41.9999987182618,2|0,0:0|0:0,0:0:0:0:
180,203,6850,2,0,L|138:208,1,41.9999987182618,0|0,0:0|0:0,0:0:0:0:
65,249,7295,5,2,0:0:0:0:
106,323,7517,2,0,L|96:356,2,20.9999993591309
180,282,7961,1,0,0:0:0:0:
138,208,8183,1,0,0:0:0:0:
312,364,8628,1,2,0:0:0:0:
270,290,8850,1,0,0:0:0:0:
344,248,9072,5,8,0:0:0:0:
386,322,9295,1,0,0:0:0:0:
469,304,9517,1,0,0:0:0:0:
478,219,9739,1,0,0:0:0:0:
400,185,9961,1,0,0:0:0:0:
357,42,10850,5,2,0:0:0:0:
315,116,11072,1,0,0:0:0:0:
241,74,11295,1,0,0:0:0:0:
283,0,11517,1,0,0:0:0:0:
229,384,12628,5,2,0:0:0:0:
271,310,12850,1,0,0:0:0:0:
197,268,13072,1,0,0:0:0:0:
155,342,13295,1,0,0:0:0:0:
375,248,14406,6,0,B|348:164|398:126|449:138|475:70|475:70|493:101|480:133|480:133|500:145|525:145|525:145|506:170|480:176|480:176|493:196|518:202|518:202|487:221|437:196|398:253,1,560,4|0,0:1|0:0,0:0:0:0:
340,238,15739,1,2,0:0:0:0:
311,219,15961,2,0,P|291:198|277:167,1,48.9999985046387,0|0,0:0|0:0,0:0:0:0:
353,96,16406,2,0,B|364:76|364:76|376:150,1,97.9999970092774,2|0,0:0|0:0,0:0:0:0:
269,147,17072,2,0,L|257:65,1,70
178,147,17739,1,0,0:0:0:0:
178,147,17961,6,0,P|142:191|53:196,1,140,8|0,0:0|0:0,0:0:0:0:
100,293,19072,1,0,0:0:0:0:
130,307,19295,1,0,0:0:0:0:
164,304,19517,2,0,P|237:288|237:288,1,70,2|0,0:0|0:0,0:0:0:0:
318,301,20183,2,0,L|249:315,1,70,0|2,0:0|0:0,0:0:0:0:
250,207,20850,2,0,L|250:163,2,35,0|0|0,0:0|0:0|0:0,0:0:0:0:
354,194,21517,6,0,P|412:184|441:142,1,97.9999970092774,8|0,0:0|0:0,0:0:0:0:
398,75,22183,2,0,P|339:85|311:127,1,97.9999970092774
333,205,22850,1,2,0:0:0:0:
333,205,23072,2,0,B|292:229|292:229|242:223,1,97.9999970092774,0|0,0:0|0:0,0:0:0:0:
134,212,23739,1,0,0:0:0:0:
134,212,24183,2,0,B|175:188|175:188|224:193,1,97.9999970092774,2|0,0:0|0:0,0:0:0:0:
194,272,24850,1,0,0:0:0:0:
116,304,25072,6,0,P|57:268|39:195,1,146.999995513916,8|0,0:0|0:0,0:0:0:0:
38,197,26183,1,0,0:0:0:0:
134,212,26406,1,2,0:0:0:0:
211,154,26628,1,0,0:0:0:0:
224,58,26850,5,2,0:0:0:0:
298,202,27072,1,0,0:0:0:0:
298,202,27183,1,0,0:0:0:0:
298,202,27295,2,0,P|320:215|348:221,1,52.5000020027161,0|0,3:0|0:0,0:0:0:0:
221,143,27517,2,0,P|207:165|202:193,1,52.5000020027161
189,11,27739,5,0,3:3:0:0:
189,11,27850,1,0,0:0:0:0:
189,11,27961,2,0,P|196:36|196:62,1,52.5000020027161
33,100,28183,2,0,P|24:29|94:22,1,157.500006008148,4|0,0:1|0:0,0:0:0:0:
171,74,28628,5,4,1:0:0:0:
100,28,28739,1,0,0:0:0:0:
171,74,28850,2,0,L|239:55,1,70
151,157,29072,5,8,0:0:0:0:
76,109,29183,1,0,0:0:0:0:
151,157,29295,2,0,L|221:157,1,70,0|0,0:0|0:0,0:0:0:0:
131,241,29517,5,8,0:0:0:0:
52,190,29628,1,0,0:0:0:0:
131,241,29739,2,0,L|198:259,1,70,0|0,0:0|0:0,0:0:0:0:
111,324,29961,5,8,0:0:0:0:
28,271,30072,1,0,0:0:0:0:
111,324,30183,2,0,L|171:358,1,70,0|0,0:0|0:0,0:0:0:0:
271,197,30406,5,10,0:2:0:0:
311,174,30517,1,0,0:0:0:0:
392,262,30628,2,0,P|357:262|325:250,1,70,0|0,0:0|0:0,0:3:0:0:
254,183,30850,5,8,0:2:0:0:
308,152,30961,1,0,0:0:0:0:
358,283,31072,2,0,P|324:273|296:254,1,70,0|0,0:0|0:0,0:3:0:0:
236,169,31295,5,8,0:2:0:0:
303,131,31406,1,0,0:0:0:0:
319,289,31517,2,0,P|288:271|266:245,1,70,0|0,0:0|0:0,0:3:0:0:
354,24,31739,6,0,P|371:54|377:88,1,70,8|0,0:2|0:0,0:3:0:0:
218,57,31961,2,0,P|251:66|279:85,1,70,10|0,0:2|0:0,0:3:0:0:
135,116,32183,5,10,0:2:0:0:
124,95,32295,1,0,3:0:0:0:
118,73,32406,1,0,3:0:0:0:
117,50,32517,1,0,3:0:0:0:
161,169,32628,5,10,0:2:0:0:
137,154,32739,1,0,3:0:0:0:
117,134,32850,1,0,3:0:0:0:
102,111,32961,1,0,3:0:0:0:
220,204,33072,5,2,3:2:0:0:
186,202,33183,1,8,3:2:0:0:
155,194,33295,1,8,3:2:0:0:
126,178,33406,1,8,3:2:0:0:
299,207,33517,6,0,P|269:223|236:230,1,70,2|0,3:2|3:2,0:3:0:0:
91,324,33739,2,0,P|108:295|136:273,1,70,2|0,3:2|3:2,0:3:0:0:
174,350,33906,1,0,3:2:0:0:
174,350,33961,6,0,P|176:315|148:253,1,105.000004005432,2|0,3:2|3:2,0:3:0:0:
50,125,34183,1,8,3:2:0:0:
50,125,34295,1,8,3:2:0:0:
50,125,34406,2,0,P|38:171|82:192,1,105.000004005432,2|0,3:2|3:2,0:3:0:0:
191,56,34628,2,0,P|173:95|177:138,1,87.5,2|0,3:2|3:2,0:3:0:0:
269,254,34850,5,4,3:1:0:0:
288,244,34906,1,8,3:2:0:0:
309,239,34961,1,8,3:2:0:0:
331,239,35017,1,8,3:2:0:0:
352,243,35072,2,0,P|386:264|413:292,1,70,8|0,0:2|0:2,0:0:0:0:
461,154,35295,5,4,1:1:0:0:
465,158,35739,6,0,P|376:154|341:44,1,210,4|0,0:2|0:0,0:0:0:0:
262,174,36183,1,0,1:0:0:0:
262,174,36295,2,0,P|227:111|189:90,1,70,0|0,0:0|0:0,0:0:0:0:
19,197,36517,1,0,0:3:0:0:
53,47,36628,5,10,0:0:0:0:
107,176,36739,2,0,L|192:185,1,70,0|0,1:2|0:0,0:0:0:0:
39,81,36961,5,0,0:0:0:0:
121,153,37072,2,0,L|206:162,1,70,2|0,1:2|0:0,0:0:0:0:
91,314,37295,2,0,P|76:281|74:246,1,70,2|0,0:0|0:0,0:0:0:0:
210,340,37517,6,0,P|231:312|260:293,1,70,4|0,0:3|0:0,0:0:0:0:
372,250,37739,1,0,0:0:0:0:
372,249,37850,2,0,P|384:280|387:315,1,70,0|0,0:0|1:0,0:0:0:0:
264,128,38072,1,0,0:0:0:0:
345,156,38183,2,0,L|415:176,1,70,8|0,0:0|0:0,0:0:0:0:
171,43,38406,5,4,0:3:0:0:
237,115,38517,1,10,0:0:0:0:
320,7,38628,1,10,0:2:0:0:
209,248,38850,6,0,P|195:215|193:181,1,70,0|0,1:0|0:0,0:0:0:0:
303,36,39072,2,0,P|316:68|318:102,1,70,8|0,0:0|0:0,0:0:0:0:
213,253,39295,6,0,P|161:210|72:213,1,140,4|0,0:0|0:0,0:0:0:0:
72,215,39628,1,0,0:0:0:0:
216,257,39739,6,0,P|227:162|140:172,1,210.000008010865,0|0,1:0|0:0,0:0:0:0:
220,261,40072,1,0,0:0:0:0:
261,63,40183,5,8,0:0:0:0:
335,174,40295,2,0,L|342:244,1,70,0|0,1:0|0:0,0:0:0:0:
398,43,40517,5,10,0:0:0:0:
363,146,40628,2,0,L|370:216,1,70,2|0,1:2|0:0,0:0:0:0:
398,43,40850,2,0,P|366:27|332:23,1,70,2|0,0:0|0:0,0:0:0:0:
471,199,41072,6,0,P|439:215|405:219,1,70,4|0,0:0|0:0,0:0:0:0:
183,110,41295,1,0,0:0:0:0:
107,102,41406,1,2,0:0:0:0:
46,149,41517,2,0,P|47:183|61:215,1,70,0|0,1:0|0:0,0:0:0:0:
195,78,41739,2,0,P|193:43|179:12,1,70,2|0,0:0|0:3,0:0:0:0:
63,299,41961,5,4,0:3:0:0:
137,258,42072,1,10,0:0:0:0:
217,280,42183,1,10,0:0:0:0:
258,353,42295,1,8,3:2:0:0:
364,244,42406,6,0,L|343:328,1,70,0|0,1:0|0:0,0:0:0:0:
456,299,42628,2,0,L|439:366,1,70,4|0,0:3|0:0,0:0:0:0:
369,153,42850,6,0,P|361:83|486:131,1,262.5,4|0,0:0|0:0,0:0:0:0:
364,244,43295,1,0,1:0:0:0:
364,244,43406,2,0,P|330:235|302:214,1,70,0|0,0:0|0:0,0:0:0:0:
175,249,43628,1,0,0:0:0:0:
137,69,43739,5,10,0:0:0:0:
83,198,43850,2,0,L|-2:207,1,70,0|0,1:0|0:0,0:0:0:0:
123,40,44072,5,8,0:0:0:0:
69,169,44183,2,0,L|-16:178,1,70,0|0,1:0|0:0,0:0:0:0:
213,100,44406,2,0,L|282:92,1,70,2|0,0:0|0:0,0:0:0:0:
180,277,44628,6,0,P|165:245|164:210,1,70,4|0,0:0|0:0,0:0:0:0:
323,215,44850,1,0,0:0:0:0:
323,215,44961,2,0,L|254:223,1,70,2|0,0:0|1:0,0:0:0:0:
16,306,45183,2,0,L|86:299,1,70,0|0,0:0|0:0,0:0:0:0:
150,360,45406,1,2,0:0:0:0:
306,191,45517,5,4,0:3:0:0:
347,287,45628,1,10,0:0:0:0:
389,384,45739,1,10,0:0:0:0:
435,0,45961,6,0,P|440:34|432:68,1,70,0|0,1:0|0:0,0:0:0:0:
242,127,46183,2,0,P|269:105|302:94,1,70,10|0,0:0|0:0,0:0:0:0:
497,232,46406,6,0,P|445:189|356:192,1,140,4|0,0:0|0:0,0:0:0:0:
300,215,46739,1,0,0:0:0:0:
277,233,46850,2,0,P|242:238|208:230,1,70,0|0,1:0|0:0,0:0:0:0:
140,72,47072,5,2,0:0:0:0:
84,155,47183,1,2,0:0:0:0:
41,65,47295,5,10,0:0:0:0:
65,183,47406,2,0,L|58:253,1,70,0|0,1:0|0:0,0:0:0:0:
135,42,47628,5,10,0:0:0:0:
159,160,47739,2,0,L|152:230,1,70,2|0,1:2|0:0,0:0:0:0:
247,76,47961,2,0,P|281:71|315:78,1,70,0|0,0:0|0:0,0:0:0:0:
410,247,48183,5,6,0:0:0:0:
410,247,48406,1,8,0:0:0:0:
330,279,48517,1,8,0:0:0:0:
262,227,48628,1,0,1:3:0:0:
274,143,48739,1,0,0:0:0:0:
198,105,48850,1,4,0:3:0:0:
140,167,48961,1,0,0:0:0:0:
179,241,49072,5,4,1:0:0:0:
59,192,49183,1,10,0:0:0:0:
183,245,49295,2,0,P|237:233|245:179,1,105.000004005432,10|0,0:0|0:0,0:0:0:0:
103,282,49517,6,0,L|75:383,1,105.000004005432,12|0,0:0|0:0,0:0:0:0:
152,101,49739,2,0,L|179:0,1,105.000004005432,8|0,0:0|0:0,0:0:0:0:
275,318,49961,6,0,B|309:354|309:354|348:316|408:325,1,157.500006008148,4|0,1:0|0:0,0:0:0:0:
494,208,50406,2,0,P|498:243|489:277,1,70,0|0,1:0|0:0,0:0:0:0:
427,146,50628,1,2,0:0:0:0:
427,146,50739,2,0,P|454:125|488:116,2,70,0|0|0,0:0|0:0|0:0,0:0:0:0:
334,141,51072,2,0,P|313:112|303:78,1,70,2|0,0:0|0:0,0:0:0:0:
376,227,51295,2,0,P|286:273|211:253,1,140,0|0,1:0|0:0,0:0:0:0:
179,226,51628,1,0,0:0:0:0:
135,155,51739,6,0,P|52:179|79:262,1,140,4|0,0:3|0:0,0:0:0:0:
54,240,52072,1,0,0:0:0:0:
60,121,52183,1,0,1:0:0:0:
55,99,52295,2,0,P|30:74|-1:60,1,70,0|0,0:0|0:0,0:0:0:0:
46,221,52517,1,2,0:0:0:0:
66,228,52628,1,0,0:0:0:0:
86,229,52739,1,0,1:3:0:0:
106,223,52850,2,0,P|140:218|174:227,1,70,2|0,0:0|0:0,0:0:0:0:
254,309,53072,2,0,L|289:120,1,140,0|0,1:0|0:0,0:0:0:0:
477,57,53517,6,0,P|452:93|356:105,1,140,4|0,0:0|0:0,0:0:0:0:
345,95,53850,1,0,0:0:0:0:
233,57,53961,1,0,1:0:0:0:
233,57,54072,2,0,P|215:86|210:121,1,70,2|0,0:0|0:0,0:0:0:0:
288,232,54295,1,2,0:0:0:0:
339,165,54406,2,0,P|339:130|325:98,1,70,0|0,0:3|0:0,0:0:0:0:
288,232,54628,2,0,P|258:214|223:209,1,70,2|0,0:0|0:0,0:0:0:0:
85,226,54850,2,0,P|114:243|149:248,1,70,0|0,1:0|0:0,0:0:0:0:
34,293,55072,2,0,P|33:327|47:359,1,70,0|0,0:0|0:0,0:0:0:0:
143,159,55295,6,0,P|124:82|35:47,1,140,4|0,0:0|0:0,0:0:0:0:
144,338,55739,1,0,1:0:0:0:
144,338,55850,2,0,L|215:330,1,70,0|0,0:0|0:0,0:0:0:0:
283,256,56072,1,2,0:0:0:0:
211,207,56183,5,4,0:3:0:0:
244,342,56295,2,0,L|315:334,1,70,0|2,1:0|0:0,0:0:0:0:
246,181,56517,5,0,0:0:0:0:
284,355,56628,2,0,L|215:363,1,70,2|0,1:2|0:0,0:0:0:0:
321,252,56850,1,2,0:0:0:0:
368,269,56961,1,0,0:0:0:0:
392,313,57072,6,0,P|458:296|487:234,1,140,4|0,0:0|0:0,0:0:0:0:
486,235,57406,1,0,0:0:0:0:
459,138,57517,1,0,1:0:0:0:
453,117,57628,2,0,P|457:82|474:52,2,70,0|2|0,0:0|0:0|0:0,0:0:0:0:
375,154,57961,1,0,0:0:0:0:
356,147,58072,1,0,0:0:0:0:
336,145,58183,2,0,P|301:149|271:167,1,70,2|0,0:0|0:0,0:0:0:0:
305,322,58406,2,0,L|291:254,1,70,0|0,1:0|0:0,0:0:0:0:
199,355,58628,2,0,L|202:285,1,70,0|0,0:0|0:0,0:0:0:0:
136,198,58850,6,0,P|53:174|80:91,1,140,4|0,0:3|0:0,0:0:0:0:
55,113,59183,1,0,0:0:0:0:
61,232,59295,1,0,1:0:0:0:
56,254,59406,2,0,P|31:279|0:293,1,70,0|0,0:0|0:0,0:0:0:0:
151,185,59628,1,2,0:0:0:0:
170,178,59739,1,0,0:0:0:0:
190,177,59850,1,0,1:0:0:0:
210,183,59961,2,0,P|244:188|278:179,1,70,2|0,0:0|0:0,0:0:0:0:
410,106,60183,2,0,P|363:154|377:220,1,140,0|2,1:0|0:0,0:0:0:0:
467,209,60517,1,0,0:0:0:0:
487,296,60628,6,0,L|348:314,1,140,4|0,0:0|0:0,0:0:0:0:
125,289,61072,1,0,1:0:0:0:
125,289,61183,2,0,P|150:314|164:345,1,70,2|0,0:0|0:0,0:0:0:0:
147,199,61406,1,2,0:0:0:0:
66,219,61517,2,0,P|31:209|4:190,1,70,0|0,0:0|0:0,0:0:0:0:
48,61,61739,2,0,P|66:91|72:126,1,70,2|0,0:0|0:0,0:0:0:0:
162,0,61961,2,0,P|162:34|149:67,1,70,0|0,1:0|0:0,0:0:0:0:
225,113,62183,2,0,P|249:88|281:73,1,70,2|0,0:0|0:0,0:0:0:0:
430,205,62406,5,6,0:0:0:0:
430,205,62628,1,8,0:0:0:0:
380,136,62739,1,8,0:0:0:0:
299,163,62850,1,0,1:0:0:0:
299,247,62961,2,0,P|274:271|242:286,1,70,0|10,0:0|0:0,0:0:0:0:
174,79,63183,1,8,0:0:0:0:
68,235,63295,5,4,0:3:0:0:
152,243,63406,1,10,0:0:0:0:
224,199,63517,2,0,P|241:168|247:134,1,70,10|8,0:0|0:0,0:0:0:0:
150,343,63739,2,0,P|140:309|144:274,1,70,0|0,1:0|0:0,0:0:0:0:
375,339,63961,1,10,0:0:0:0:
375,339,64072,1,8,0:0:0:0:
375,339,64183,6,0,P|446:297|451:237,1,140,4|0,0:0|0:0,0:0:0:0:
395,121,64628,2,0,P|329:135|249:131,1,140,0|0,1:0|0:0,0:0:0:0:
184,104,64961,1,0,0:0:0:0:
169,89,65072,1,8,0:0:0:0:
164,203,65295,1,0,0:0:0:0:
160,69,65517,2,0,P|121:80|92:109,1,70,0|0,1:0|0:0,0:0:0:0:
168,207,65739,2,0,P|203:189|227:155,1,70
79,242,65961,6,0,P|132:228|187:327,1,157.500006008148,4|0,0:3|0:0,0:0:0:0:
66,325,66406,6,0,P|76:259|140:239,1,140,0|0,1:0|0:0,0:0:0:0:
196,301,66739,1,0,0:0:0:0:
214,311,66850,2,0,P|253:318|301:301,2,70,8|0|0,0:0|0:0|0:0,0:0:0:0:
327,165,67295,2,0,L|339:261,1,70,0|0,1:0|0:0,0:0:0:0:
276,86,67517,2,0,L|372:74,1,70,8|0,0:0|0:0,0:0:0:0:
495,143,67739,6,0,L|356:160,1,140
279,171,68072,1,0,0:0:0:0:
258,174,68183,1,0,1:0:0:0:
183,39,68406,2,0,P|192:73|191:108,1,70
239,184,68628,2,0,P|192:232|122:237,1,140,8|0,0:0|0:0,0:0:0:0:
326,237,69072,2,0,P|355:256|395:263,1,70,0|0,1:0|0:0,0:0:0:0:
342,139,69295,2,0,L|353:63,1,70
486,154,69517,5,8,0:0:0:0:
316,217,69739,1,0,0:0:0:0:
390,200,69850,1,0,0:0:0:0:
339,144,69961,1,0,1:0:0:0:
302,331,70183,1,0,0:0:0:0:
246,81,70406,5,8,0:0:0:0:
250,85,70517,2,0,B|209:75|209:75|183:122|213:168,1,140,0|0,1:2|0:0,0:0:0:0:
216,171,70850,2,0,L|100:139,1,70,2|0,1:2|0:0,0:0:0:0:
157,272,71072,1,10,0:0:0:0:
157,272,71183,1,0,0:0:0:0:
157,272,71295,6,0,L|17:234,1,140,10|0,0:0|0:0,0:0:0:0:
195,358,71739,2,0,B|241:338|241:338|249:207,1,140,0|0,1:0|0:0,0:0:0:0:
250,172,72072,1,0,0:0:0:0:
251,151,72183,1,8,0:0:0:0:
263,0,72406,2,0,P|224:10|193:37,1,70
253,130,72628,2,0,P|291:117|319:87,1,70,0|0,1:0|0:0,0:0:0:0:
378,57,72850,1,0,0:0:0:0:
449,85,72961,1,0,0:0:0:0:
468,160,73072,6,0,P|453:212|340:211,1,157.500006008148,4|0,0:3|0:0,0:0:0:0:
342,213,73517,6,0,P|276:199|235:251,1,140,0|0,1:0|0:0,0:0:0:0:
349,304,73850,1,0,0:0:0:0:
362,288,73961,2,0,P|370:254|367:219,1,70,8|0,0:0|0:0,0:0:0:0:
264,331,74183,1,0,0:0:0:0:
159,144,74406,2,0,L|255:132,1,70,0|0,1:0|0:0,0:0:0:0:
69,238,74628,2,0,L|-27:250,1,70,8|0,0:0|0:0,0:0:0:0:
75,113,74850,6,0,L|92:251,1,140,8|0,0:0|0:0,0:0:0:0:
105,327,75183,1,0,0:0:0:0:
108,347,75295,1,0,1:0:0:0:
180,178,75517,2,0,P|210:160|244:152,1,70
278,250,75739,2,0,P|325:298|395:303,1,140,8|0,0:0|0:0,0:0:0:0:
346,69,76183,2,0,L|277:43,1,70,0|0,1:0|0:0,0:0:0:0:
485,119,76406,2,0,P|502:88|506:54,1,70
399,141,76628,5,8,0:0:0:0:
173,54,76850,1,0,0:0:0:0:
186,129,76961,1,0,0:0:0:0:
199,204,77072,2,0,L|212:281,1,70,0|0,1:0|0:0,0:0:0:0:
33,269,77295,2,0,L|110:256,1,70,2|8,0:0|0:0,0:0:0:0:
303,185,77517,5,10,0:0:0:0:
331,106,77628,1,10,0:0:0:0:
277,42,77739,1,0,3:0:0:0:
194,56,77850,1,0,3:0:0:0:
165,134,77961,5,8,1:2:0:0:
219,198,78072,5,8,0:2:0:0:
174,268,78183,5,8,3:2:0:0:
92,247,78295,5,8,3:2:0:0:
88,163,78406,6,0,P|155:153|149:263,1,175,4|0,0:0|0:0,0:0:0:0:
116,333,78739,1,0,0:0:0:0:
116,333,78850,2,0,P|175:325|234:333,1,119.000002269745,0|0,1:0|0:0,0:0:0:0:
400,329,79183,2,0,P|447:271|443:208,1,140,2|0,0:0|0:0,0:0:0:0:
325,289,79517,2,0,P|316:322|317:359,1,70,2|0,0:0|0:0,0:0:0:0:
295,204,79739,2,0,B|267:172|267:172|165:154,1,140,0|0,1:0|0:0,0:0:0:0:
208,257,80072,1,0,0:0:0:0:
208,257,80183,6,0,L|132:242,2,70,8|0|0,0:0|0:0|0:0,0:0:0:0:
176,336,80517,1,0,0:0:0:0:
188,352,80628,6,0,P|242:343|316:328,2,70,0|0|0,1:0|0:0|0:0,0:0:0:0:
96,320,80961,1,0,0:0:0:0:
14,359,81072,6,0,P|8:308|14:282,1,70,2|0,0:0|0:0,0:0:0:0:
148,171,81295,2,0,B|144:241,1,70,2|0,0:0|0:0,0:0:0:0:
71,73,81517,2,0,B|172:82|172:82|206:100,1,140,0|8,1:0|0:0,0:0:0:0:
274,153,81850,1,8,0:0:0:0:
334,69,81961,6,0,P|398:50|450:93,1,140,10|0,0:0|0:0,0:0:0:0:
287,137,82295,1,0,0:0:0:0:
343,281,82406,2,0,B|361:247|361:247|370:145,1,140,0|0,1:0|0:0,0:0:0:0:
261,216,82739,2,0,L|253:300,2,70,2|0|0,0:0|0:0|0:0,0:0:0:0:
221,88,83072,2,0,P|193:67|160:55,1,70,2|0,0:0|0:0,0:0:0:0:
88,191,83295,2,0,P|120:177|146:154,1,70,0|0,1:0|0:0,0:0:0:0:
60,28,83517,1,0,0:0:0:0:
42,110,83628,1,0,0:0:0:0:
62,192,83739,6,0,B|81:237|81:237|191:266,1,140,10|0,0:0|0:0,0:0:0:0:
150,158,84072,1,0,0:0:0:0:
104,321,84183,2,0,B|144:290|144:290|231:311,1,140,0|10,1:0|0:0,0:0:0:0:
312,331,84517,1,8,0:0:0:0:
370,245,84628,5,10,0:0:0:0:
392,326,84739,1,0,0:0:0:0:
311,348,84850,1,8,0:0:0:0:
289,266,84961,1,8,0:0:0:0:
370,245,85072,6,0,L|386:312,1,70,0|0,1:0|0:0,0:0:0:0:
349,159,85295,2,0,L|416:142,1,70,8|0,0:0|0:0,0:0:0:0:
265,178,85517,6,0,P|200:157|172:95,1,140,4|0,0:0|0:0,0:0:0:0:
172,95,85850,1,0,0:0:0:0:
137,226,85961,2,0,L|-2:202,1,140,0|0,1:0|0:0,0:0:0:0:
141,320,86295,2,0,B|193:314|219:272|219:272|250:320,1,140,2|0,0:0|0:0,0:0:0:0:
346,360,86628,2,0,P|380:364|414:357,1,70,2|0,0:0|0:0,0:0:0:0:
373,262,86850,2,0,P|325:311|323:380,1,140,0|2,1:0|0:0,0:0:0:0:
416,350,87183,1,0,0:0:0:0:
296,303,87295,6,0,B|258:293|258:293|158:310,1,140,10|0,0:0|0:0,0:0:0:0:
41,217,87628,1,0,0:0:0:0:
118,238,87739,2,0,L|206:224,1,70,0|0,1:0|0:0,0:0:0:0:
286,77,87961,5,10,0:0:0:0:
317,147,88073,1,10,0:0:0:0:
273,210,88184,2,0,L|203:199,1,70,10|0,0:0|0:0,0:0:0:0:
308,55,88406,5,8,0:0:0:0:
343,132,88518,1,0,0:0:0:0:
378,209,88628,2,0,L|447:219,1,70,0|0,1:0|0:0,0:0:0:0:
317,147,88850,5,10,0:0:0:0:
273,210,88961,1,8,0:0:0:0:
229,273,89072,2,0,P|154:242|152:162,1,140,8|0,0:0|0:0,0:0:0:0:
142,190,89406,1,0,0:0:0:0:
148,278,89517,2,0,L|137:347,1,70,0|0,1:0|0:0,0:0:0:0:
255,265,89739,1,2,0:0:0:0:
337,253,89850,1,0,0:0:0:0:
397,311,89961,6,0,P|461:302|497:237,1,140
380,83,90295,1,0,0:0:0:0:
390,165,90406,2,0,P|378:198|356:225,1,70,0|0,1:0|0:0,0:0:0:0:
197,211,90628,2,0,L|267:216,1,70,10|0,0:0|0:0,0:0:0:0:
223,308,90850,5,10,0:2:0:0:
167,302,90961,1,0,3:0:0:0:
111,296,91072,1,0,3:0:0:0:
55,290,91183,1,0,3:0:0:0:
28,313,91295,5,8,1:2:0:0:
38,279,91406,1,0,3:0:0:0:
48,245,91517,1,0,3:0:0:0:
59,211,91628,1,0,3:0:0:0:
148,190,91739,5,8,3:2:0:0:
139,217,91850,1,8,3:2:0:0:
36,133,91961,5,8,3:2:0:0:
30,105,92072,1,8,3:2:0:0:
155,125,92183,5,8,1:2:0:0:
146,152,92294,1,8,3:2:0:0:
59,75,92406,5,8,3:2:0:0:
53,47,92517,1,8,3:2:0:0:
139,175,92628,6,0,P|175:212|227:224,1,105.000004005432,4|0,1:0|0:0,0:0:0:0:
370,160,92850,5,0,3:0:0:0:
359,130,92961,1,0,3:0:0:0:
300,283,93072,6,0,L|272:384,1,105.000004005432,4|0,1:2|0:0,0:0:0:0:
349,102,93295,2,0,L|376:1,1,105.000004005432,4|0,3:3|0:0,0:0:0:0:
483,320,93517,1,0,1:0:0:0:
157,91,93961,6,2,P|99:94|51:128,1,119.000002269745,2|0,0:0|0:0,0:0:0:0:
15,212,94406,6,0,P|126:178|112:62,1,251.999992309571,4|0,0:2|0:0,0:0:0:0:
237,24,94850,1,0,1:0:0:0:
237,24,94962,2,0,P|223:94|238:135,1,70,0|0,0:0|0:0,0:0:0:0:
372,103,95183,1,0,0:3:0:0:
243,171,95294,5,10,0:0:0:0:
372,103,95406,2,0,L|457:112,1,70,0|0,1:2|0:0,0:0:0:0:
334,12,95627,5,8,0:0:0:0:
399,134,95738,2,0,L|484:143,1,70,8|0,1:2|0:0,0:0:0:0:
330,233,95961,2,0,P|317:264|315:300,1,70,2|0,0:0|0:0,0:0:0:0:
264,143,96183,6,0,P|243:115|214:96,1,70,4|0,0:0|0:0,0:0:0:0:
156,236,96406,1,0,0:0:0:0:
116,90,96516,2,0,P|121:124|136:155,1,70,2|0,0:0|1:0,0:0:0:0:
105,12,96739,2,0,P|92:43|89:78,1,70,2|0,0:0|0:0,0:0:0:0:
213,95,96961,1,8,0:0:0:0:
42,158,97072,5,4,0:3:0:0:
213,95,97183,1,8,0:0:0:0:
192,225,97295,1,8,0:2:0:0:
307,70,97517,6,0,P|272:65|239:73,1,70,2|0,1:2|0:0,0:0:0:0:
410,211,97739,2,0,P|414:176|406:143,1,70,8|0,0:0|0:0,0:0:0:0:
237,215,97961,2,0,P|225:281|272:357,1,140,4|0,1:1|0:0,0:0:0:0:
274,356,98294,1,0,0:0:0:0:
214,222,98406,6,0,P|284:163|325:244,1,210.000008010865,0|0,1:0|0:0,0:0:0:0:
322,265,98739,1,0,0:0:0:0:
140,123,98849,5,10,0:2:0:0:
75,221,98961,2,0,L|68:291,1,70,0|0,1:0|0:0,0:0:0:0:
47,90,99183,5,8,0:0:0:0:
107,200,99294,2,0,L|100:270,1,70,2|0,1:2|0:0,0:0:0:0:
265,151,99516,2,0,P|233:135|199:131,1,70,10|0,0:0|0:0,0:0:0:0:
232,309,99739,6,0,P|261:289|282:261,1,70,4|0,0:0|0:0,0:0:0:0:
121,310,99961,5,0,0:0:0:0:
202,331,100072,2,0,P|237:328|269:315,1,70,2|0,0:0|1:0,0:0:0:0:
117,341,100295,5,2,0:0:0:0:
205,362,100406,1,2,0:0:0:0:
291,336,100517,1,2,0:0:0:0:
378,226,100628,1,4,0:3:0:0:
378,226,100739,1,10,0:0:0:0:
378,226,100850,2,0,L|385:308,1,70,10|0,0:0|3:0,0:0:0:0:
264,126,101072,6,0,L|271:208,1,70,0|0,1:0|0:0,0:0:0:0:
446,60,101295,2,0,L|453:142,1,70,4|0,0:3|0:0,0:0:0:0:
365,328,101517,6,0,P|399:222|484:293,1,262.5,4|0,0:0|0:0,0:0:0:0:
264,352,101961,1,0,1:0:0:0:
264,352,102072,2,0,P|264:316|251:284,1,70,0|0,0:0|0:0,0:0:0:0:
128,297,102294,1,2,0:0:0:0:
136,165,102405,5,8,0:0:0:0:
46,226,102517,1,2,1:2:0:0:
136,165,102628,2,0,L|221:156,1,70,8|0,0:0|0:0,0:0:0:0:
5,96,102850,2,0,L|90:87,1,70,0|0,1:0|0:0,0:0:0:0:
202,260,103072,2,0,P|187:228|186:193,1,70,2|0,0:0|0:0,0:0:0:0:
308,47,103294,6,0,P|323:79|324:114,1,70,4|0,0:0|0:0,0:0:0:0:
169,108,103516,1,0,0:0:0:0:
169,108,103627,2,0,L|238:100,1,70,2|0,0:0|1:0,0:0:0:0:
465,23,103849,2,0,L|395:30,1,70,2|0,0:0|0:0,0:0:0:0:
283,183,104072,1,8,0:0:0:0:
411,140,104183,5,4,0:3:0:0:
238,99,104294,1,10,0:0:0:0:
328,267,104406,1,8,0:0:0:0:
268,6,104627,6,0,P|273:40|265:74,1,70,0|0,1:0|0:0,0:0:0:0:
84,148,104849,2,0,P|111:126|144:115,1,70,10|0,0:0|0:0,0:0:0:0:
189,309,105072,6,0,P|232:257|229:168,1,140,4|0,0:1|0:0,0:0:0:0:
226,168,105405,1,0,0:0:0:0:
354,275,105516,2,0,P|389:280|423:272,1,70,0|0,1:0|0:0,0:0:0:0:
345,184,105739,5,10,0:0:0:0:
320,267,105850,1,10,0:0:0:0:
288,119,105961,1,8,0:0:0:0:
500,157,106072,6,0,L|430:164,1,70,0|0,1:0|0:0,0:0:0:0:
253,208,106294,5,10,0:0:0:0:
490,185,106406,2,0,L|420:192,1,70,8|0,1:2|0:0,0:0:0:0:
385,31,106627,2,0,P|410:53|426:84,1,70,10|0,0:0|0:0,0:0:0:0:
316,267,106850,5,4,0:0:0:0:
251,61,107072,1,8,0:0:0:0:
251,61,107184,1,8,0:0:0:0:
251,61,107295,2,0,P|239:107|283:128,1,105.000004005432,8|0,1:2|0:0,0:0:0:0:
420,184,107517,2,0,P|438:145|434:102,1,87.5,4|0,0:3|0:0,0:0:0:0:
271,296,107739,5,4,1:0:0:0:
290,286,107795,1,0,3:0:0:0:
311,281,107850,1,0,3:0:0:0:
333,281,107906,1,0,3:0:0:0:
354,285,107961,2,8,P|388:306|415:334,1,70,0|0,3:2|0:0,0:0:0:0:
283,127,108183,2,0,P|281:166|271:204,1,70,6|0,0:0|0:0,0:0:0:0:
123,331,108406,1,0,1:3:0:0:
87,241,108517,1,4,0:3:0:0:
123,331,108628,6,0,P|28:316|16:176,1,251.999992309571,4|0,0:2|0:0,0:0:0:0:
200,278,109072,1,0,1:0:0:0:
200,278,109183,2,0,P|185:245|183:210,1,70,0|0,0:0|0:0,0:0:0:0:
286,301,109406,1,0,0:3:0:0:
348,133,109517,5,10,0:0:0:0:
403,270,109628,2,0,L|488:279,1,70,0|0,1:2|0:0,0:0:0:0:
359,100,109850,5,0,0:0:0:0:
338,216,109961,2,0,L|253:225,1,70,2|0,1:2|0:0,0:0:0:0:
448,85,110183,2,0,P|447:120|434:153,1,70,2|0,0:0|0:0,0:0:0:0:
264,71,110406,6,0,P|248:40|243:5,1,70,4|0,0:0|0:0,0:0:0:0:
145,222,110628,1,0,0:0:0:0:
169,78,110738,2,0,P|148:105|137:138,1,70,2|0,0:0|1:0,0:0:0:0:
236,251,110961,2,0,P|240:216|233:181,1,70,2|0,0:0|0:0,0:0:0:0:
164,331,111183,1,8,0:0:0:0:
322,183,111295,5,4,0:3:0:0:
224,272,111405,1,8,0:0:0:0:
175,119,111517,1,8,0:2:0:0:
367,287,111739,6,0,P|366:321|352:353,1,70,2|0,1:2|0:0,0:0:0:0:
326,187,111961,2,0,P|356:170|391:165,1,70,8|0,0:0|0:0,0:0:0:0:
255,290,112183,6,0,P|188:284|126:219,1,140,4|0,1:0|0:0,0:0:0:0:
128,217,112516,1,0,0:0:0:0:
366,268,112628,6,0,P|296:209|255:290,1,210.000008010865,0|0,1:0|0:0,0:0:0:0:
268,306,112961,1,0,0:0:0:0:
210,104,113071,5,10,0:0:0:0:
144,215,113183,2,0,L|137:285,1,70,0|0,1:0|0:0,0:0:0:0:
100,134,113405,5,8,0:0:0:0:
168,289,113517,2,0,L|175:359,1,70,2|0,1:2|0:0,0:0:0:0:
0,269,113738,2,0,P|27:247|60:236,1,70,8|0,0:0|0:0,0:0:0:0:
269,314,113961,6,0,P|298:294|319:267,1,70,4|0,0:0|0:0,0:0:0:0:
512,182,114183,1,10,0:0:0:0:
436,213,114294,2,0,P|401:210|368:196,1,70,2|0,0:0|1:0,0:0:0:0:
449,42,114517,2,0,P|477:61|499:89,1,70,2|0,0:0|0:3,0:0:0:0:
365,50,114739,1,10,0:0:0:0:
356,69,114850,5,4,0:3:0:0:
286,117,114961,1,8,0:0:0:0:
202,101,115072,1,8,0:0:0:0:
154,33,115183,1,0,3:0:0:0:
117,189,115294,6,0,L|111:119,1,70,0|0,1:0|0:0,0:0:0:0:
18,232,115517,2,0,L|12:162,1,70,4|0,0:3|0:0,0:0:0:0:
148,328,115739,6,0,P|243:322|268:183,1,251.999992309571,4|0,0:0|0:0,0:0:0:0:
56,311,116183,1,0,1:0:0:0:
56,311,116295,2,0,P|56:347|69:379,1,70,0|0,0:0|0:0,0:0:0:0:
169,153,116517,1,0,0:0:0:0:
190,240,116627,5,2,0:0:0:0:
69,199,116739,2,0,L|-16:190,1,70,0|0,1:0|0:0,0:0:0:0:
154,35,116961,5,8,0:0:0:0:
90,174,117072,2,0,L|20:166,1,70,0|0,1:0|0:0,0:0:0:0:
240,114,117295,2,0,L|310:122,1,70,10|0,0:0|0:0,0:0:0:0:
202,268,117517,6,0,P|189:235|189:200,1,70,4|0,0:0|0:0,0:0:0:0:
361,272,117739,1,0,0:0:0:0:
361,272,117850,2,0,P|330:254|296:249,1,70,2|0,0:0|1:0,0:0:0:0:
214,384,118072,2,0,P|244:366|265:339,1,70,2|0,0:0|0:0,0:0:0:0:
363,155,118294,1,10,0:0:0:0:
353,172,118406,5,4,0:3:0:0:
311,87,118516,1,8,0:0:0:0:
353,3,118628,2,0,P|384:30|402:68,1,83.9999974365235,8|0,0:0|0:0,0:0:0:0:
191,172,118850,6,0,P|179:126|223:105,1,105.000004005432,4|0,1:0|0:0,0:0:0:0:
321,323,119072,5,4,0:3:0:0:
275,223,119183,1,10,0:0:0:0:
180,340,119295,6,0,P|60:303|74:178,1,251.999992309571,4|0,0:0|0:0,0:0:0:0:
97,60,119739,2,0,P|109:92|109:127,1,70,0|0,1:0|0:0,0:0:0:0:
23,107,119961,5,10,0:0:0:0:
132,85,120072,1,10,0:0:0:0:
241,63,120183,5,8,0:0:0:0:
237,215,120295,2,0,P|215:189|203:156,1,70,0|0,1:0|0:0,0:0:0:0:
264,83,120517,5,10,0:0:0:0:
117,118,120628,2,0,L|48:132,1,70,2|0,1:2|0:0,0:0:0:0:
317,13,120850,2,0,P|339:39|351:72,1,70,8|0,0:0|0:0,0:0:0:0:
225,254,121072,5,6,0:0:0:0:
225,12,121295,1,10,0:0:0:0:
209,94,121406,1,8,0:0:0:0:
261,159,121517,2,0,P|292:174|326:177,1,70,0|0,1:3|0:0,0:0:0:0:
396,35,121739,2,0,P|389:69|394:103,1,70,4|0,0:3|0:0,0:0:0:0:
423,273,121961,5,4,1:0:0:0:
415,135,122072,1,10,0:0:0:0:
300,211,122183,2,8,L|222:218,1,70,10|0,0:0|0:0,0:0:0:0:
415,135,122406,6,0,P|450:148|478:173,1,70,6|0,0:0|0:0,0:0:0:0:
277,236,122628,2,0,L|199:243,1,70,8|0,0:0|0:0,0:0:0:0:
320,31,122850,5,4,1:0:0:0:
293,111,122961,1,8,0:0:0:0:
211,127,123072,1,8,3:2:0:0:
156,65,123183,1,8,0:0:0:0:
74,191,123295,5,0,1:0:0:0:
160,47,123406,1,8,0:2:0:0:
175,215,123517,1,4,0:3:0:0:
65,88,123628,1,8,0:0:0:0:
228,125,123739,1,4,1:0:0:0:
146,225,124628,6,0,B|163:170|131:146|98:154|81:110|81:110|70:130|78:151|78:151|65:158|49:158|49:158|61:174|78:178|78:178|70:191|54:195|54:195|73:207|106:191|131:228,1,350,4|0,0:1|0:0,0:0:0:0:
146,225,125961,1,2,0:0:0:0:
179,215,126183,2,0,P|198:207|225:183,1,48.9999985046387
281,123,126628,2,0,B|292:103|292:103|304:177,1,97.9999970092774,0|0,0:0|0:0,0:0:0:0:
399,204,127295,2,0,L|386:121,1,70,2|0,0:0|0:0,0:0:0:0:
388,134,127961,1,0,0:0:0:0:
475,104,128183,6,0,P|439:60|350:55,1,140,0|0,0:0|0:0,0:0:0:0:
301,121,129295,1,2,0:0:0:0:
271,135,129517,1,0,0:0:0:0:
237,132,129739,2,0,P|164:116|164:116,1,70,2|0,0:0|0:0,0:0:0:0:
83,129,130406,2,0,L|152:143,1,70,0|2,0:0|0:0,0:0:0:0:
150,234,131072,2,0,L|149:278,2,35,0|0|0,0:0|0:0|0:0,0:0:0:0:
226,299,131739,6,0,P|284:289|313:247,1,97.9999970092774,8|0,0:0|0:0,0:0:0:0:
270,180,132406,2,0,P|211:190|183:232,1,97.9999970092774,0|0,0:0|0:0,0:0:0:0:
234,305,133072,1,2,0:0:0:0:
234,305,133295,2,0,B|275:329|275:329|325:323,1,97.9999970092774,0|0,0:0|0:0,0:0:0:0:
433,312,133961,1,0,0:0:0:0:
433,312,134406,2,0,B|392:288|392:288|342:293,1,97.9999970092774,2|0,0:0|0:0,0:0:0:0:
261,330,135072,1,0,0:0:0:0:
173,331,135295,6,0,P|114:295|96:222,1,146.999995513916,8|0,0:0|0:0,0:0:0:0:
95,223,136406,1,0,0:0:0:0:
191,238,136628,1,2,0:0:0:0:
268,180,136850,1,0,0:0:0:0:
282,84,137072,6,0,B|241:33|185:26|185:26|201:67|182:103|182:103|232:75|282:84,1,293.999991027832,8|0,0:0|0:0,0:0:0:0:
286,87,138009,2,0,B|339:76|381:94|381:94|352:120|340:164|340:164|324:118|289:90,1,269.500008224488,2|0,0:0|0:0,0:0:0:0:
289,90,138947,1,2,0:0:0:0:
256,192,139080,12,8,141089,0:0:0:0:
