osu file format v14

[General]
AudioFilename: audio.ogg
AudioLeadIn: 0
PreviewTime: 94096
Countdown: 0
SampleSet: Soft
StackLeniency: 0.7
Mode: 3
LetterboxInBreaks: 0
SpecialStyle: 0
WidescreenStoryboard: 0

[Editor]
Bookmarks: 14707,28929,36040,50262,64484,78707,94707,124929,139151,155623,159442
DistanceSpacing: 1.3
BeatDivisor: 4
GridSize: 4
TimelineZoom: 1.8

[Metadata]
Title:HesitationSnow (Cut Ver.)
TitleUnicode:HesitationSnow (Cut Ver.)
Artist:fripSide
ArtistUnicode:fripSide
Creator:Noch Einen
Version:Post Graduation
Source:はつゆきさくら
Tags:hesitation snow はつさく hatsusaku hatsuyuki sakura eroge white graduation japanese pop jpop
BeatmapID:3932889
BeatmapSetID:1907219

[Difficulty]
HPDrainRate:8
CircleSize:7
OverallDifficulty:8
ApproachRate:5
SliderMultiplier:1.4
SliderTickRate:1

[Events]
//Background and Video events
0,0,"bg.jpg",0,0
//Break Periods
//Storyboard Layer 0 (Background)
//Storyboard Layer 1 (Fail)
//Storyboard Layer 2 (Pass)
//Storyboard Layer 3 (Foreground)
//Storyboard Layer 4 (Overlay)
//Storyboard Sound Samples

[TimingPoints]
485,444.444444444444,4,2,1,40,1,0
485,-111.111111111111,4,2,1,40,0,0
27151,-105.263157894737,4,2,1,50,0,0
28929,-100,4,2,1,60,0,0
64484,-100,4,2,1,50,0,0
94707,-100,4,2,1,60,0,1
108707,-100,4,2,1,60,0,0
108929,-100,4,2,1,60,0,1
124040,-100,4,2,1,60,0,0
124929,-111.111111111111,4,2,1,50,0,0
151596,461.538461538462,4,2,1,40,1,0
151596,-117.647058823529,4,2,1,40,0,0
153442,545.454545454546,4,2,1,60,1,0
153442,-95.2380952380952,4,2,1,60,0,0
155623,-105.263157894737,4,2,1,60,0,0

[HitObjects]
36,192,485,5,0,0:0:0:0:
475,192,485,128,0,1818:0:0:0:0:
109,192,707,1,0,0:0:0:0:
329,192,818,1,0,0:0:0:0:
182,192,929,1,0,0:0:0:0:
256,192,1151,1,0,0:0:0:0:
329,192,1373,1,0,0:0:0:0:
182,192,1484,1,0,0:0:0:0:
36,192,1596,1,0,0:0:0:0:
182,192,1818,128,0,2040:0:0:0:0:
109,192,1818,1,0,0:0:0:0:
329,192,2040,128,0,2484:0:0:0:0:
402,192,2040,1,0,0:0:0:0:
36,192,2262,1,0,0:0:0:0:
182,192,2262,1,0,0:0:0:0:
109,192,2484,128,0,4040:0:0:0:0:
475,192,2484,1,0,0:0:0:0:
256,192,2596,1,0,0:0:0:0:
402,192,2707,1,0,0:0:0:0:
329,192,2929,1,0,0:0:0:0:
475,192,3151,1,0,0:0:0:0:
256,192,4040,128,0,5818:0:0:0:0:
475,192,4040,1,0,0:0:0:0:
402,192,4262,1,0,0:0:0:0:
109,192,4373,1,0,0:0:0:0:
329,192,4484,1,0,0:0:0:0:
182,192,4707,1,0,0:0:0:0:
109,192,4929,1,0,0:0:0:0:
36,192,5151,1,0,0:0:0:0:
182,192,5262,1,0,0:0:0:0:
475,192,5373,1,0,0:0:0:0:
329,192,5596,1,0,0:0:0:0:
36,192,5818,128,0,7596:0:0:0:0:
182,192,5818,1,0,0:0:0:0:
402,192,6040,1,0,0:0:0:0:
182,192,6151,1,0,0:0:0:0:
329,192,6262,1,0,0:0:0:0:
256,192,6484,1,0,0:0:0:0:
182,192,6707,1,0,0:0:0:0:
182,192,7596,128,0,8262:0:0:0:0:
329,192,7596,1,0,0:0:0:0:
402,192,7818,1,0,0:0:0:0:
256,192,7929,1,0,0:0:0:0:
36,192,8040,1,0,0:0:0:0:
329,192,8262,128,0,8929:0:0:0:0:
475,192,8262,1,0,0:0:0:0:
36,192,8484,1,0,0:0:0:0:
256,192,8596,1,0,0:0:0:0:
109,192,8707,1,0,0:0:0:0:
182,192,8929,128,0,9151:0:0:0:0:
402,192,8929,1,0,0:0:0:0:
475,192,9151,128,0,9596:0:0:0:0:
256,192,9151,1,0,0:0:0:0:
36,192,9373,1,0,0:0:0:0:
109,192,9373,1,0,0:0:0:0:
402,192,9596,128,0,11151:0:0:0:0:
256,192,9596,1,0,0:0:0:0:
182,192,9707,1,0,0:0:0:0:
109,192,9818,1,0,0:0:0:0:
256,192,10040,1,0,0:0:0:0:
36,192,10262,1,0,0:0:0:0:
182,192,11151,128,0,12929:0:0:0:0:
329,192,11151,1,0,0:0:0:0:
402,192,11373,1,0,0:0:0:0:
256,192,11484,1,0,0:0:0:0:
475,192,11596,1,0,0:0:0:0:
36,192,11818,1,0,0:0:0:0:
109,192,12040,1,0,0:0:0:0:
329,192,12262,1,0,0:0:0:0:
475,192,12457,1,0,0:0:0:0:
402,192,12707,1,0,0:0:0:0:
109,192,12929,128,0,14707:0:0:0:0:
329,192,12929,1,0,0:0:0:0:
475,192,13151,1,0,0:0:0:0:
256,192,13262,1,0,0:0:0:0:
402,192,13373,1,0,0:0:0:0:
329,192,13596,1,0,0:0:0:0:
182,192,13818,1,0,0:0:0:0:
475,192,14707,128,0,16040:0:0:0:0:
36,192,14707,1,0,0:0:0:0:
402,192,14707,1,0,0:0:0:0:
109,192,14929,1,0,0:0:0:0:
329,192,15040,1,0,0:0:0:0:
182,192,15151,1,0,0:0:0:0:
256,192,15373,1,0,0:0:0:0:
329,192,15596,1,0,0:0:0:0:
182,192,15707,1,0,0:0:0:0:
36,192,15818,1,0,0:0:0:0:
109,192,16040,1,0,0:0:0:0:
182,192,16040,128,0,16262:0:0:0:0:
402,192,16262,1,0,0:0:0:0:
329,192,16262,128,0,16707:0:0:0:0:
182,192,16484,1,0,0:0:0:0:
36,192,16484,1,0,0:0:0:0:
475,192,16707,1,0,0:0:0:0:
109,192,16707,128,0,17373:0:0:0:0:
256,192,16818,1,0,0:0:0:0:
402,192,16929,1,0,0:0:0:0:
329,192,17151,1,0,0:0:0:0:
402,192,17373,128,0,17818:0:0:0:0:
182,192,17818,128,0,18040:0:0:0:0:
475,192,18040,128,0,19151:0:0:0:0:
182,192,18262,1,0,0:0:0:0:
36,192,18262,1,0,0:0:0:0:
256,192,18484,1,0,0:0:0:0:
109,192,18596,1,0,0:0:0:0:
329,192,18707,1,0,0:0:0:0:
182,192,18929,1,0,0:0:0:0:
256,192,19151,1,0,0:0:0:0:
402,192,19373,128,0,19596:0:0:0:0:
109,192,19484,1,0,0:0:0:0:
329,192,19596,128,0,19818:0:0:0:0:
182,192,19818,128,0,20262:0:0:0:0:
402,192,20040,1,0,0:0:0:0:
475,192,20040,1,0,0:0:0:0:
36,192,20262,128,0,20929:0:0:0:0:
475,192,20373,1,0,0:0:0:0:
329,192,20484,1,0,0:0:0:0:
256,192,20707,1,0,0:0:0:0:
182,192,20929,1,0,0:0:0:0:
109,192,21151,128,0,21373:0:0:0:0:
182,192,21373,128,0,21596:0:0:0:0:
329,192,21596,128,0,21818:0:0:0:0:
475,192,21818,128,0,22484:0:0:0:0:
36,192,21818,1,0,0:0:0:0:
109,192,22040,1,0,0:0:0:0:
329,192,22151,1,0,0:0:0:0:
182,192,22262,1,0,0:0:0:0:
329,192,22484,128,0,23151:0:0:0:0:
402,192,22484,1,0,0:0:0:0:
36,192,22707,1,0,0:0:0:0:
109,192,22818,1,0,0:0:0:0:
182,192,22929,1,0,0:0:0:0:
109,192,23151,128,0,23373:0:0:0:0:
402,192,23151,1,0,0:0:0:0:
256,192,23373,128,0,23818:0:0:0:0:
475,192,23373,1,0,0:0:0:0:
36,192,23596,1,0,0:0:0:0:
402,192,23818,128,0,24262:0:0:0:0:
329,192,23818,1,0,0:0:0:0:
182,192,23929,1,0,0:0:0:0:
36,192,24040,1,0,0:0:0:0:
256,192,24262,1,0,0:0:0:0:
402,192,24484,128,0,24929:0:0:0:0:
475,192,24929,128,0,25151:0:0:0:0:
329,192,25151,128,0,25818:0:0:0:0:
109,192,25373,1,0,0:0:0:0:
36,192,25373,1,0,0:0:0:0:
182,192,25596,1,0,0:0:0:0:
475,192,25707,1,0,0:0:0:0:
256,192,25818,1,0,0:0:0:0:
109,192,26040,1,0,0:0:0:0:
182,192,26262,1,0,0:0:0:0:
329,192,26484,128,0,26707:0:0:0:0:
475,192,26484,1,0,0:0:0:0:
256,192,26707,128,0,26929:0:0:0:0:
182,192,26929,128,0,27151:0:0:0:0:
402,192,26929,1,0,0:0:0:0:
109,192,27151,128,0,28929:0:0:0:0:
475,192,27151,1,0,0:0:0:0:
182,192,27373,1,0,0:0:0:0:
329,192,27484,1,0,0:0:0:0:
475,192,27596,1,0,0:0:0:0:
256,192,27818,1,0,0:0:0:0:
475,192,28040,128,0,28929:0:0:0:0:
329,192,28151,1,0,0:0:0:0:
182,192,28262,1,0,0:0:0:0:
256,192,28484,1,0,0:0:0:0:
329,192,28707,1,0,0:0:0:0:
256,192,28818,1,0,0:0:0:0:
36,192,28929,1,0,0:0:0:0:
402,192,28929,1,0,0:0:0:0:
182,192,28929,1,0,0:0:0:0:
256,192,29151,128,0,29373:0:0:0:0:
36,192,29373,1,0,0:0:0:0:
329,192,29596,128,0,29818:0:0:0:0:
36,192,29818,1,0,0:0:0:0:
402,192,30040,128,0,30262:0:0:0:0:
36,192,30262,1,0,0:0:0:0:
475,192,30484,128,0,30707:0:0:0:0:
109,192,30707,1,0,0:0:0:0:
256,192,30929,128,0,31151:0:0:0:0:
109,192,31151,1,0,0:0:0:0:
329,192,31373,128,0,31596:0:0:0:0:
109,192,31596,1,0,0:0:0:0:
402,192,31818,128,0,32040:0:0:0:0:
109,192,32040,1,0,0:0:0:0:
475,192,32262,128,0,32484:0:0:0:0:
182,192,32262,1,0,0:0:0:0:
256,192,32484,1,0,0:0:0:0:
329,192,32596,1,0,0:0:0:0:
402,192,32707,1,0,0:0:0:0:
109,192,32818,1,0,0:0:0:0:
256,192,32929,1,0,0:0:0:0:
329,192,33040,1,0,0:0:0:0:
402,192,33151,1,0,0:0:0:0:
36,192,33262,1,0,0:0:0:0:
256,192,33373,1,0,0:0:0:0:
182,192,33484,1,0,0:0:0:0:
109,192,33596,1,0,0:0:0:0:
475,192,33707,1,0,0:0:0:0:
256,192,33818,1,0,0:0:0:0:
182,192,33929,1,0,0:0:0:0:
109,192,34040,1,0,0:0:0:0:
402,192,34114,1,0,0:0:0:0:
329,192,34188,1,0,0:0:0:0:
256,192,34262,1,0,0:0:0:0:
475,192,34373,1,0,0:0:0:0:
182,192,34484,1,0,0:0:0:0:
402,192,34596,1,0,0:0:0:0:
109,192,34707,1,0,0:0:0:0:
329,192,34818,1,0,0:0:0:0:
36,192,34929,1,0,0:0:0:0:
256,192,35040,1,0,0:0:0:0:
475,192,35151,1,0,0:0:0:0:
402,192,35225,1,0,0:0:0:0:
329,192,35299,1,0,0:0:0:0:
182,192,35373,1,0,0:0:0:0:
109,192,35447,1,0,0:0:0:0:
36,192,35522,1,0,0:0:0:0:
475,192,35596,128,0,35818:0:0:0:0:
256,192,35818,128,0,36040:0:0:0:0:
109,192,36040,1,0,0:0:0:0:
402,192,36040,1,0,0:0:0:0:
475,192,36040,1,0,0:0:0:0:
36,192,36040,128,0,36484:0:0:0:0:
182,192,36484,1,0,0:0:0:0:
475,192,36484,1,0,0:0:0:0:
402,192,36484,1,0,0:0:0:0:
256,192,36596,1,0,0:0:0:0:
329,192,36707,1,0,0:0:0:0:
109,192,36818,128,0,37373:0:0:0:0:
256,192,36929,1,0,0:0:0:0:
402,192,37040,1,0,0:0:0:0:
475,192,37040,1,0,0:0:0:0:
36,192,37373,1,0,0:0:0:0:
475,192,37373,1,0,0:0:0:0:
182,192,37373,1,0,0:0:0:0:
329,192,37596,1,0,0:0:0:0:
109,192,37818,1,0,0:0:0:0:
329,192,37818,1,0,0:0:0:0:
36,192,38040,1,0,0:0:0:0:
182,192,38151,1,0,0:0:0:0:
329,192,38262,1,0,0:0:0:0:
402,192,38262,1,0,0:0:0:0:
475,192,38262,1,0,0:0:0:0:
256,192,38484,1,0,0:0:0:0:
36,192,38707,1,0,0:0:0:0:
182,192,38707,1,0,0:0:0:0:
475,192,38818,1,0,0:0:0:0:
402,192,38818,1,0,0:0:0:0:
256,192,38929,1,0,0:0:0:0:
36,192,39151,1,0,0:0:0:0:
475,192,39151,1,0,0:0:0:0:
182,192,39151,128,0,39373:0:0:0:0:
402,192,39373,1,0,0:0:0:0:
256,192,39373,128,0,39596:0:0:0:0:
109,192,39596,1,0,0:0:0:0:
329,192,39596,128,0,40040:0:0:0:0:
182,192,39818,1,0,0:0:0:0:
256,192,40040,1,0,0:0:0:0:
475,192,40040,1,0,0:0:0:0:
36,192,40040,128,0,40484:0:0:0:0:
402,192,40262,1,0,0:0:0:0:
109,192,40484,128,0,40929:0:0:0:0:
182,192,40484,1,0,0:0:0:0:
402,192,40596,1,0,0:0:0:0:
475,192,40596,1,0,0:0:0:0:
256,192,40707,1,0,0:0:0:0:
329,192,40929,128,0,41373:0:0:0:0:
475,192,40929,1,0,0:0:0:0:
36,192,40929,1,0,0:0:0:0:
182,192,41151,1,0,0:0:0:0:
109,192,41373,1,0,0:0:0:0:
402,192,41373,128,0,41596:0:0:0:0:
256,192,41596,1,0,0:0:0:0:
475,192,41707,128,0,41929:0:0:0:0:
182,192,41818,1,0,0:0:0:0:
36,192,41818,1,0,0:0:0:0:
329,192,41929,128,0,42151:0:0:0:0:
36,192,42151,128,0,42373:0:0:0:0:
182,192,42262,1,0,0:0:0:0:
329,192,42373,1,0,0:0:0:0:
475,192,42373,1,0,0:0:0:0:
402,192,42596,1,0,0:0:0:0:
109,192,42707,1,0,0:0:0:0:
36,192,42707,1,0,0:0:0:0:
256,192,42707,128,0,42929:0:0:0:0:
182,192,42929,1,0,0:0:0:0:
329,192,42929,128,0,43151:0:0:0:0:
256,192,43151,1,0,0:0:0:0:
402,192,43151,128,0,43596:0:0:0:0:
182,192,43373,1,0,0:0:0:0:
109,192,43596,1,0,0:0:0:0:
36,192,43596,1,0,0:0:0:0:
475,192,43596,1,0,0:0:0:0:
256,192,43707,1,0,0:0:0:0:
402,192,43818,1,0,0:0:0:0:
182,192,43929,128,0,44484:0:0:0:0:
36,192,44040,1,0,0:0:0:0:
475,192,44151,1,0,0:0:0:0:
329,192,44151,1,0,0:0:0:0:
256,192,44484,1,0,0:0:0:0:
475,192,44484,1,0,0:0:0:0:
36,192,44484,1,0,0:0:0:0:
109,192,44707,1,0,0:0:0:0:
182,192,44929,1,0,0:0:0:0:
475,192,44929,1,0,0:0:0:0:
256,192,45151,1,0,0:0:0:0:
109,192,45262,128,0,45484:0:0:0:0:
402,192,45373,1,0,0:0:0:0:
475,192,45373,1,0,0:0:0:0:
256,192,45484,128,0,45707:0:0:0:0:
402,192,45707,128,0,46040:0:0:0:0:
256,192,45818,1,0,0:0:0:0:
109,192,45929,1,0,0:0:0:0:
36,192,45929,1,0,0:0:0:0:
329,192,46040,1,0,0:0:0:0:
475,192,46262,1,0,0:0:0:0:
182,192,46262,128,0,46484:0:0:0:0:
402,192,46262,1,0,0:0:0:0:
109,192,46484,128,0,46707:0:0:0:0:
402,192,46484,1,0,0:0:0:0:
329,192,46596,1,0,0:0:0:0:
36,192,46707,128,0,47151:0:0:0:0:
256,192,46707,1,0,0:0:0:0:
329,192,46929,1,0,0:0:0:0:
475,192,47151,1,0,0:0:0:0:
109,192,47151,1,0,0:0:0:0:
402,192,47151,1,0,0:0:0:0:
182,192,47373,1,0,0:0:0:0:
329,192,47484,1,0,0:0:0:0:
475,192,47596,128,0,47929:0:0:0:0:
109,192,47707,1,0,0:0:0:0:
36,192,47707,1,0,0:0:0:0:
329,192,47929,128,0,48262:0:0:0:0:
109,192,48040,1,0,0:0:0:0:
182,192,48040,1,0,0:0:0:0:
402,192,48262,128,0,48929:0:0:0:0:
256,192,48484,1,0,0:0:0:0:
182,192,48707,1,0,0:0:0:0:
109,192,48818,1,0,0:0:0:0:
36,192,48929,1,0,0:0:0:0:
329,192,48929,1,0,0:0:0:0:
475,192,48929,1,0,0:0:0:0:
182,192,49151,1,0,0:0:0:0:
256,192,49262,1,0,0:0:0:0:
329,192,49373,128,0,49818:0:0:0:0:
109,192,49484,1,0,0:0:0:0:
36,192,49484,1,0,0:0:0:0:
256,192,49596,1,0,0:0:0:0:
402,192,49818,128,0,50262:0:0:0:0:
182,192,49818,1,0,0:0:0:0:
36,192,49818,1,0,0:0:0:0:
256,192,50040,1,0,0:0:0:0:
475,192,50262,128,0,52929:0:0:0:0:
329,192,50262,1,0,0:0:0:0:
109,192,50262,1,0,0:0:0:0:
36,192,50262,1,0,0:0:0:0:
182,192,50484,1,0,0:0:0:0:
256,192,50707,1,0,0:0:0:0:
36,192,50707,1,0,0:0:0:0:
329,192,50929,1,0,0:0:0:0:
182,192,51040,1,0,0:0:0:0:
36,192,51151,1,0,0:0:0:0:
256,192,51262,1,0,0:0:0:0:
402,192,51262,1,0,0:0:0:0:
109,192,51373,1,0,0:0:0:0:
182,192,51596,1,0,0:0:0:0:
329,192,51596,1,0,0:0:0:0:
36,192,51818,1,0,0:0:0:0:
329,192,52040,1,0,0:0:0:0:
256,192,52262,1,0,0:0:0:0:
36,192,52484,1,0,0:0:0:0:
182,192,52484,1,0,0:0:0:0:
329,192,52596,1,0,0:0:0:0:
256,192,52818,1,0,0:0:0:0:
109,192,52929,1,0,0:0:0:0:
329,192,53040,1,0,0:0:0:0:
475,192,53040,1,0,0:0:0:0:
182,192,53151,1,0,0:0:0:0:
182,192,53373,1,0,0:0:0:0:
36,192,53373,1,0,0:0:0:0:
475,192,53373,1,0,0:0:0:0:
256,192,53596,1,0,0:0:0:0:
402,192,53596,1,0,0:0:0:0:
36,192,53818,1,0,0:0:0:0:
182,192,53818,128,0,54040:0:0:0:0:
329,192,54040,1,0,0:0:0:0:
182,192,54262,1,0,0:0:0:0:
402,192,54262,1,0,0:0:0:0:
475,192,54262,1,0,0:0:0:0:
256,192,54373,1,0,0:0:0:0:
329,192,54484,1,0,0:0:0:0:
36,192,54596,128,0,54929:0:0:0:0:
182,192,54707,1,0,0:0:0:0:
402,192,54818,1,0,0:0:0:0:
475,192,54818,1,0,0:0:0:0:
256,192,54929,1,0,0:0:0:0:
109,192,55151,1,0,0:0:0:0:
36,192,55151,1,0,0:0:0:0:
402,192,55151,1,0,0:0:0:0:
256,192,55373,1,0,0:0:0:0:
329,192,55596,1,0,0:0:0:0:
475,192,55596,128,0,55818:0:0:0:0:
182,192,55818,1,0,0:0:0:0:
256,192,56040,1,0,0:0:0:0:
36,192,56040,1,0,0:0:0:0:
475,192,56040,1,0,0:0:0:0:
109,192,56151,1,0,0:0:0:0:
329,192,56262,1,0,0:0:0:0:
182,192,56373,128,0,56707:0:0:0:0:
36,192,56484,1,0,0:0:0:0:
402,192,56596,1,0,0:0:0:0:
475,192,56596,1,0,0:0:0:0:
256,192,56707,1,0,0:0:0:0:
109,192,56818,1,0,0:0:0:0:
402,192,56929,1,0,0:0:0:0:
475,192,56929,1,0,0:0:0:0:
329,192,56929,1,0,0:0:0:0:
329,192,57151,1,0,0:0:0:0:
182,192,57151,1,0,0:0:0:0:
109,192,57262,1,0,0:0:0:0:
475,192,57373,128,0,57596:0:0:0:0:
36,192,57373,1,0,0:0:0:0:
256,192,57596,1,0,0:0:0:0:
36,192,57818,1,0,0:0:0:0:
402,192,57818,1,0,0:0:0:0:
475,192,57818,1,0,0:0:0:0:
182,192,57929,1,0,0:0:0:0:
329,192,58040,1,0,0:0:0:0:
109,192,58151,128,0,58484:0:0:0:0:
256,192,58262,1,0,0:0:0:0:
402,192,58373,1,0,0:0:0:0:
475,192,58373,1,0,0:0:0:0:
182,192,58484,1,0,0:0:0:0:
109,192,58707,1,0,0:0:0:0:
36,192,58707,1,0,0:0:0:0:
402,192,58707,1,0,0:0:0:0:
182,192,58929,1,0,0:0:0:0:
475,192,59151,1,0,0:0:0:0:
256,192,59151,128,0,59373:0:0:0:0:
329,192,59373,1,0,0:0:0:0:
36,192,59596,1,0,0:0:0:0:
256,192,59596,1,0,0:0:0:0:
475,192,59596,1,0,0:0:0:0:
182,192,59707,1,0,0:0:0:0:
329,192,59818,1,0,0:0:0:0:
36,192,59929,128,0,60262:0:0:0:0:
182,192,60040,1,0,0:0:0:0:
475,192,60151,1,0,0:0:0:0:
329,192,60151,1,0,0:0:0:0:
109,192,60262,1,0,0:0:0:0:
109,192,60484,1,0,0:0:0:0:
256,192,60484,1,0,0:0:0:0:
402,192,60484,1,0,0:0:0:0:
36,192,60707,1,0,0:0:0:0:
329,192,60707,1,0,0:0:0:0:
109,192,60818,1,0,0:0:0:0:
182,192,60929,1,0,0:0:0:0:
475,192,60929,128,0,61151:0:0:0:0:
256,192,61151,1,0,0:0:0:0:
475,192,61373,1,0,0:0:0:0:
109,192,61373,1,0,0:0:0:0:
36,192,61373,1,0,0:0:0:0:
402,192,61484,1,0,0:0:0:0:
329,192,61596,1,0,0:0:0:0:
182,192,61707,128,0,62040:0:0:0:0:
36,192,61818,1,0,0:0:0:0:
402,192,61929,1,0,0:0:0:0:
475,192,61929,1,0,0:0:0:0:
256,192,62040,1,0,0:0:0:0:
329,192,62262,1,0,0:0:0:0:
475,192,62262,1,0,0:0:0:0:
109,192,62262,1,0,0:0:0:0:
256,192,62484,1,0,0:0:0:0:
36,192,62707,128,0,62929:0:0:0:0:
182,192,62707,1,0,0:0:0:0:
329,192,62929,1,0,0:0:0:0:
475,192,63151,1,0,0:0:0:0:
36,192,63151,1,0,0:0:0:0:
256,192,63151,1,0,0:0:0:0:
402,192,63262,1,0,0:0:0:0:
329,192,63373,1,0,0:0:0:0:
182,192,63484,128,0,63818:0:0:0:0:
36,192,63596,1,0,0:0:0:0:
475,192,63707,1,0,0:0:0:0:
402,192,63707,1,0,0:0:0:0:
256,192,63818,1,0,0:0:0:0:
36,192,64040,1,0,0:0:0:0:
475,192,64040,1,0,0:0:0:0:
329,192,64040,1,0,0:0:0:0:
256,192,64262,1,0,0:0:0:0:
182,192,64262,1,0,0:0:0:0:
109,192,64373,1,0,0:0:0:0:
36,192,64484,1,0,0:0:0:0:
475,192,64484,1,0,0:0:0:0:
402,192,64484,1,0,0:0:0:0:
329,192,64484,1,0,0:0:0:0:
182,192,64707,1,0,0:0:0:0:
109,192,64929,1,0,0:0:0:0:
329,192,64929,1,0,0:0:0:0:
475,192,64929,1,0,0:0:0:0:
182,192,65151,1,0,0:0:0:0:
329,192,65262,1,0,0:0:0:0:
256,192,65373,1,0,0:0:0:0:
36,192,65373,1,0,0:0:0:0:
329,192,65596,1,0,0:0:0:0:
402,192,65818,1,0,0:0:0:0:
109,192,65818,1,0,0:0:0:0:
36,192,65818,1,0,0:0:0:0:
182,192,66040,1,0,0:0:0:0:
475,192,66262,1,0,0:0:0:0:
256,192,66262,128,0,66707:0:0:0:0:
402,192,66484,1,0,0:0:0:0:
329,192,66707,1,0,0:0:0:0:
109,192,66707,1,0,0:0:0:0:
36,192,66707,1,0,0:0:0:0:
402,192,66929,1,0,0:0:0:0:
256,192,67040,128,0,67596:0:0:0:0:
109,192,67151,1,0,0:0:0:0:
402,192,67373,1,0,0:0:0:0:
182,192,67596,1,0,0:0:0:0:
36,192,67596,1,0,0:0:0:0:
475,192,67596,1,0,0:0:0:0:
256,192,67818,1,0,0:0:0:0:
402,192,67818,1,0,0:0:0:0:
256,192,68040,1,0,0:0:0:0:
109,192,68040,1,0,0:0:0:0:
329,192,68262,1,0,0:0:0:0:
182,192,68373,1,0,0:0:0:0:
402,192,68484,1,0,0:0:0:0:
475,192,68484,1,0,0:0:0:0:
36,192,68484,1,0,0:0:0:0:
182,192,68707,1,0,0:0:0:0:
182,192,68929,1,0,0:0:0:0:
329,192,68929,1,0,0:0:0:0:
402,192,69151,1,0,0:0:0:0:
256,192,69373,1,0,0:0:0:0:
109,192,69373,1,0,0:0:0:0:
36,192,69373,1,0,0:0:0:0:
475,192,69596,1,0,0:0:0:0:
182,192,69818,1,0,0:0:0:0:
329,192,69818,1,0,0:0:0:0:
329,192,70040,1,0,0:0:0:0:
182,192,70151,128,0,70707:0:0:0:0:
402,192,70262,1,0,0:0:0:0:
475,192,70262,1,0,0:0:0:0:
329,192,70484,1,0,0:0:0:0:
256,192,70707,1,0,0:0:0:0:
36,192,70707,1,0,0:0:0:0:
402,192,70818,1,0,0:0:0:0:
475,192,70818,1,0,0:0:0:0:
109,192,70929,1,0,0:0:0:0:
182,192,71151,1,0,0:0:0:0:
402,192,71151,1,0,0:0:0:0:
475,192,71151,1,0,0:0:0:0:
182,192,71373,1,0,0:0:0:0:
329,192,71373,1,0,0:0:0:0:
402,192,71484,1,0,0:0:0:0:
36,192,71596,1,0,0:0:0:0:
475,192,71596,1,0,0:0:0:0:
109,192,71818,1,0,0:0:0:0:
182,192,72040,1,0,0:0:0:0:
329,192,72040,1,0,0:0:0:0:
475,192,72040,1,0,0:0:0:0:
36,192,72262,1,0,0:0:0:0:
182,192,72373,1,0,0:0:0:0:
329,192,72484,1,0,0:0:0:0:
402,192,72484,1,0,0:0:0:0:
256,192,72707,1,0,0:0:0:0:
109,192,72929,1,0,0:0:0:0:
36,192,72929,1,0,0:0:0:0:
475,192,72929,1,0,0:0:0:0:
402,192,73151,1,0,0:0:0:0:
329,192,73373,1,0,0:0:0:0:
182,192,73373,1,0,0:0:0:0:
402,192,73596,1,0,0:0:0:0:
475,192,73818,1,0,0:0:0:0:
256,192,73818,1,0,0:0:0:0:
36,192,73818,1,0,0:0:0:0:
329,192,74040,1,0,0:0:0:0:
182,192,74151,1,0,0:0:0:0:
109,192,74262,1,0,0:0:0:0:
402,192,74262,1,0,0:0:0:0:
256,192,74484,1,0,0:0:0:0:
329,192,74707,1,0,0:0:0:0:
36,192,74707,1,0,0:0:0:0:
475,192,74707,1,0,0:0:0:0:
109,192,74929,1,0,0:0:0:0:
256,192,74929,1,0,0:0:0:0:
256,192,75151,1,0,0:0:0:0:
402,192,75151,1,0,0:0:0:0:
182,192,75373,1,0,0:0:0:0:
329,192,75484,1,0,0:0:0:0:
256,192,75596,1,0,0:0:0:0:
36,192,75596,1,0,0:0:0:0:
475,192,75596,1,0,0:0:0:0:
109,192,75818,1,0,0:0:0:0:
402,192,76040,1,0,0:0:0:0:
182,192,76040,1,0,0:0:0:0:
329,192,76151,1,0,0:0:0:0:
256,192,76262,1,0,0:0:0:0:
329,192,76484,1,0,0:0:0:0:
36,192,76484,1,0,0:0:0:0:
475,192,76484,1,0,0:0:0:0:
182,192,76707,1,0,0:0:0:0:
402,192,76929,1,0,0:0:0:0:
109,192,76929,1,0,0:0:0:0:
256,192,77151,1,0,0:0:0:0:
475,192,77262,1,0,0:0:0:0:
36,192,77373,1,0,0:0:0:0:
182,192,77373,1,0,0:0:0:0:
329,192,77373,1,0,0:0:0:0:
402,192,77596,1,0,0:0:0:0:
256,192,77818,1,0,0:0:0:0:
36,192,77818,1,0,0:0:0:0:
402,192,77929,1,0,0:0:0:0:
182,192,78040,1,0,0:0:0:0:
329,192,78151,1,0,0:0:0:0:
109,192,78262,1,0,0:0:0:0:
475,192,78262,1,0,0:0:0:0:
36,192,78262,1,0,0:0:0:0:
182,192,78484,1,0,0:0:0:0:
402,192,78484,1,0,0:0:0:0:
329,192,78596,1,0,0:0:0:0:
36,192,78707,1,0,0:0:0:0:
109,192,78707,1,0,0:0:0:0:
475,192,78707,1,0,0:0:0:0:
256,192,78707,128,0,79151:0:0:0:0:
402,192,78929,1,0,0:0:0:0:
182,192,79151,1,0,0:0:0:0:
36,192,79151,1,0,0:0:0:0:
329,192,79151,1,0,0:0:0:0:
402,192,79373,1,0,0:0:0:0:
256,192,79484,128,0,79818:0:0:0:0:
109,192,79596,1,0,0:0:0:0:
475,192,79818,1,0,0:0:0:0:
36,192,80040,1,0,0:0:0:0:
329,192,80040,1,0,0:0:0:0:
182,192,80040,1,0,0:0:0:0:
402,192,80262,1,0,0:0:0:0:
475,192,80373,128,0,81818:0:0:0:0:
182,192,80484,1,0,0:0:0:0:
256,192,80707,1,0,0:0:0:0:
329,192,80929,1,0,0:0:0:0:
109,192,80929,1,0,0:0:0:0:
36,192,81151,1,0,0:0:0:0:
182,192,81373,1,0,0:0:0:0:
256,192,81596,1,0,0:0:0:0:
329,192,81818,1,0,0:0:0:0:
109,192,81818,1,0,0:0:0:0:
402,192,81818,1,0,0:0:0:0:
36,192,82040,1,0,0:0:0:0:
256,192,82040,1,0,0:0:0:0:
475,192,82262,1,0,0:0:0:0:
256,192,82262,128,0,82707:0:0:0:0:
402,192,82484,1,0,0:0:0:0:
109,192,82707,1,0,0:0:0:0:
36,192,82707,1,0,0:0:0:0:
329,192,82707,1,0,0:0:0:0:
256,192,82929,1,0,0:0:0:0:
475,192,83040,128,0,83373:0:0:0:0:
182,192,83151,1,0,0:0:0:0:
329,192,83373,1,0,0:0:0:0:
256,192,83596,1,0,0:0:0:0:
109,192,83596,1,0,0:0:0:0:
36,192,83596,1,0,0:0:0:0:
329,192,83818,1,0,0:0:0:0:
182,192,83929,1,0,0:0:0:0:
402,192,84040,1,0,0:0:0:0:
475,192,84040,1,0,0:0:0:0:
182,192,84262,1,0,0:0:0:0:
36,192,84373,128,0,85373:0:0:0:0:
256,192,84484,1,0,0:0:0:0:
402,192,84484,1,0,0:0:0:0:
475,192,84707,1,0,0:0:0:0:
182,192,84929,1,0,0:0:0:0:
402,192,85040,1,0,0:0:0:0:
256,192,85151,1,0,0:0:0:0:
182,192,85373,1,0,0:0:0:0:
402,192,85373,1,0,0:0:0:0:
475,192,85373,1,0,0:0:0:0:
109,192,85596,1,0,0:0:0:0:
329,192,85596,1,0,0:0:0:0:
36,192,85818,1,0,0:0:0:0:
329,192,85818,128,0,86262:0:0:0:0:
109,192,86040,1,0,0:0:0:0:
182,192,86262,1,0,0:0:0:0:
475,192,86262,1,0,0:0:0:0:
402,192,86262,1,0,0:0:0:0:
109,192,86484,1,0,0:0:0:0:
256,192,86596,128,0,86929:0:0:0:0:
36,192,86707,1,0,0:0:0:0:
402,192,86929,1,0,0:0:0:0:
109,192,87151,1,0,0:0:0:0:
475,192,87151,1,0,0:0:0:0:
402,192,87151,1,0,0:0:0:0:
182,192,87373,1,0,0:0:0:0:
256,192,87596,1,0,0:0:0:0:
36,192,87596,1,0,0:0:0:0:
329,192,87818,1,0,0:0:0:0:
475,192,87929,128,0,88929:0:0:0:0:
182,192,88040,1,0,0:0:0:0:
109,192,88040,1,0,0:0:0:0:
329,192,88262,1,0,0:0:0:0:
256,192,88484,1,0,0:0:0:0:
182,192,88707,1,0,0:0:0:0:
109,192,88929,1,0,0:0:0:0:
36,192,88929,1,0,0:0:0:0:
402,192,88929,1,0,0:0:0:0:
182,192,89151,1,0,0:0:0:0:
329,192,89151,1,0,0:0:0:0:
402,192,89262,1,0,0:0:0:0:
182,192,89373,1,0,0:0:0:0:
475,192,89373,1,0,0:0:0:0:
36,192,89596,1,0,0:0:0:0:
182,192,89707,1,0,0:0:0:0:
475,192,89818,1,0,0:0:0:0:
329,192,89818,1,0,0:0:0:0:
402,192,89818,1,0,0:0:0:0:
109,192,90040,1,0,0:0:0:0:
256,192,90262,1,0,0:0:0:0:
109,192,90262,128,0,90484:0:0:0:0:
329,192,90484,1,0,0:0:0:0:
402,192,90596,128,0,90818:0:0:0:0:
36,192,90707,1,0,0:0:0:0:
182,192,90707,1,0,0:0:0:0:
475,192,90929,1,0,0:0:0:0:
475,192,91151,128,0,92262:0:0:0:0:
182,192,91151,1,0,0:0:0:0:
256,192,91262,1,0,0:0:0:0:
329,192,91373,1,0,0:0:0:0:
109,192,91596,1,0,0:0:0:0:
36,192,91596,1,0,0:0:0:0:
256,192,91707,1,0,0:0:0:0:
402,192,91818,1,0,0:0:0:0:
182,192,92040,1,0,0:0:0:0:
329,192,92151,1,0,0:0:0:0:
109,192,92262,1,0,0:0:0:0:
329,192,92373,1,0,0:0:0:0:
475,192,92484,1,0,0:0:0:0:
256,192,92484,1,0,0:0:0:0:
36,192,92484,1,0,0:0:0:0:
182,192,92596,1,0,0:0:0:0:
402,192,92707,1,0,0:0:0:0:
256,192,92818,1,0,0:0:0:0:
36,192,92929,128,0,94040:0:0:0:0:
109,192,92929,1,0,0:0:0:0:
475,192,93040,1,0,0:0:0:0:
329,192,93151,1,0,0:0:0:0:
182,192,93262,1,0,0:0:0:0:
475,192,93373,1,0,0:0:0:0:
402,192,93484,1,0,0:0:0:0:
329,192,93596,1,0,0:0:0:0:
256,192,93707,1,0,0:0:0:0:
182,192,93818,128,0,94040:0:0:0:0:
182,192,94262,1,0,0:0:0:0:
256,192,94484,1,0,0:0:0:0:
256,192,94707,128,0,95151:0:0:0:0:
402,192,94707,1,0,0:0:0:0:
475,192,94707,1,0,0:0:0:0:
36,192,94707,1,0,0:0:0:0:
109,192,94929,1,0,0:0:0:0:
182,192,95151,1,0,0:0:0:0:
402,192,95151,1,0,0:0:0:0:
475,192,95151,1,0,0:0:0:0:
36,192,95262,128,0,95484:0:0:0:0:
256,192,95484,128,0,96040:0:0:0:0:
475,192,95596,1,0,0:0:0:0:
402,192,95707,1,0,0:0:0:0:
109,192,95707,1,0,0:0:0:0:
402,192,95929,1,0,0:0:0:0:
36,192,96040,1,0,0:0:0:0:
475,192,96040,1,0,0:0:0:0:
109,192,96040,1,0,0:0:0:0:
329,192,96262,1,0,0:0:0:0:
182,192,96373,1,0,0:0:0:0:
36,192,96484,128,0,96707:0:0:0:0:
402,192,96484,1,0,0:0:0:0:
329,192,96707,1,0,0:0:0:0:
475,192,96818,128,0,97040:0:0:0:0:
182,192,96929,1,0,0:0:0:0:
109,192,96929,1,0,0:0:0:0:
329,192,97040,128,0,97262:0:0:0:0:
475,192,97262,128,0,97596:0:0:0:0:
36,192,97373,1,0,0:0:0:0:
109,192,97484,1,0,0:0:0:0:
256,192,97484,1,0,0:0:0:0:
402,192,97596,1,0,0:0:0:0:
475,192,97818,1,0,0:0:0:0:
36,192,97818,1,0,0:0:0:0:
256,192,97818,128,0,98040:0:0:0:0:
402,192,98040,1,0,0:0:0:0:
182,192,98040,128,0,98262:0:0:0:0:
109,192,98262,128,0,98707:0:0:0:0:
329,192,98262,1,0,0:0:0:0:
402,192,98484,1,0,0:0:0:0:
182,192,98707,1,0,0:0:0:0:
36,192,98707,1,0,0:0:0:0:
329,192,98707,128,0,99151:0:0:0:0:
475,192,98929,1,0,0:0:0:0:
36,192,99151,128,0,99596:0:0:0:0:
109,192,99151,1,0,0:0:0:0:
402,192,99262,1,0,0:0:0:0:
256,192,99262,1,0,0:0:0:0:
475,192,99373,1,0,0:0:0:0:
329,192,99596,128,0,100040:0:0:0:0:
182,192,99596,1,0,0:0:0:0:
256,192,99596,1,0,0:0:0:0:
109,192,99818,1,0,0:0:0:0:
36,192,100040,1,0,0:0:0:0:
475,192,100040,128,0,100262:0:0:0:0:
329,192,100262,1,0,0:0:0:0:
182,192,100373,128,0,100596:0:0:0:0:
402,192,100484,1,0,0:0:0:0:
475,192,100484,1,0,0:0:0:0:
109,192,100596,128,0,100818:0:0:0:0:
36,192,100818,128,0,101040:0:0:0:0:
402,192,100929,1,0,0:0:0:0:
182,192,101040,1,0,0:0:0:0:
109,192,101040,1,0,0:0:0:0:
475,192,101262,1,0,0:0:0:0:
402,192,101262,1,0,0:0:0:0:
109,192,101373,1,0,0:0:0:0:
36,192,101373,1,0,0:0:0:0:
329,192,101373,128,0,101596:0:0:0:0:
475,192,101596,1,0,0:0:0:0:
256,192,101596,128,0,101818:0:0:0:0:
402,192,101818,1,0,0:0:0:0:
182,192,101818,128,0,102262:0:0:0:0:
329,192,102040,1,0,0:0:0:0:
475,192,102262,1,0,0:0:0:0:
36,192,102262,1,0,0:0:0:0:
109,192,102262,1,0,0:0:0:0:
256,192,102373,128,0,102596:0:0:0:0:
402,192,102596,128,0,103151:0:0:0:0:
36,192,102707,1,0,0:0:0:0:
329,192,102818,1,0,0:0:0:0:
109,192,102818,1,0,0:0:0:0:
109,192,103040,1,0,0:0:0:0:
475,192,103151,1,0,0:0:0:0:
36,192,103151,1,0,0:0:0:0:
256,192,103151,1,0,0:0:0:0:
402,192,103373,1,0,0:0:0:0:
402,192,103596,1,0,0:0:0:0:
109,192,103596,1,0,0:0:0:0:
182,192,103818,1,0,0:0:0:0:
329,192,103929,128,0,104151:0:0:0:0:
109,192,104040,1,0,0:0:0:0:
36,192,104040,1,0,0:0:0:0:
402,192,104151,128,0,104373:0:0:0:0:
475,192,104373,128,0,104707:0:0:0:0:
256,192,104484,1,0,0:0:0:0:
109,192,104596,1,0,0:0:0:0:
36,192,104596,1,0,0:0:0:0:
329,192,104707,1,0,0:0:0:0:
402,192,104929,1,0,0:0:0:0:
475,192,104929,1,0,0:0:0:0:
182,192,104929,1,0,0:0:0:0:
109,192,105151,1,0,0:0:0:0:
329,192,105151,1,0,0:0:0:0:
182,192,105262,1,0,0:0:0:0:
256,192,105373,1,0,0:0:0:0:
36,192,105373,128,0,105818:0:0:0:0:
329,192,105596,1,0,0:0:0:0:
475,192,105818,1,0,0:0:0:0:
402,192,105818,1,0,0:0:0:0:
109,192,105818,1,0,0:0:0:0:
182,192,106040,1,0,0:0:0:0:
256,192,106151,1,0,0:0:0:0:
402,192,106262,128,0,106596:0:0:0:0:
329,192,106262,1,0,0:0:0:0:
36,192,106373,1,0,0:0:0:0:
109,192,106373,1,0,0:0:0:0:
256,192,106596,128,0,106929:0:0:0:0:
475,192,106707,1,0,0:0:0:0:
402,192,106707,1,0,0:0:0:0:
109,192,106929,128,0,107373:0:0:0:0:
402,192,107151,1,0,0:0:0:0:
329,192,107373,1,0,0:0:0:0:
182,192,107484,1,0,0:0:0:0:
36,192,107596,1,0,0:0:0:0:
402,192,107596,1,0,0:0:0:0:
475,192,107596,1,0,0:0:0:0:
329,192,107818,1,0,0:0:0:0:
256,192,107929,1,0,0:0:0:0:
182,192,108040,1,0,0:0:0:0:
109,192,108040,128,0,108373:0:0:0:0:
402,192,108151,1,0,0:0:0:0:
475,192,108151,1,0,0:0:0:0:
36,192,108373,128,0,108707:0:0:0:0:
475,192,108484,1,0,0:0:0:0:
329,192,108484,1,0,0:0:0:0:
109,192,108707,1,0,0:0:0:0:
256,192,108707,1,0,0:0:0:0:
182,192,108929,1,0,0:0:0:0:
329,192,108929,1,0,0:0:0:0:
402,192,108929,1,0,0:0:0:0:
475,192,108929,128,0,109373:0:0:0:0:
109,192,109151,1,0,0:0:0:0:
36,192,109373,1,0,0:0:0:0:
256,192,109373,1,0,0:0:0:0:
402,192,109373,1,0,0:0:0:0:
109,192,109484,128,0,109707:0:0:0:0:
256,192,109707,128,0,110262:0:0:0:0:
475,192,109818,1,0,0:0:0:0:
402,192,109929,1,0,0:0:0:0:
109,192,109929,1,0,0:0:0:0:
402,192,110151,1,0,0:0:0:0:
475,192,110262,1,0,0:0:0:0:
36,192,110262,1,0,0:0:0:0:
109,192,110262,1,0,0:0:0:0:
329,192,110484,1,0,0:0:0:0:
329,192,110707,128,0,110929:0:0:0:0:
182,192,110707,1,0,0:0:0:0:
182,192,110929,1,0,0:0:0:0:
36,192,111040,128,0,111262:0:0:0:0:
402,192,111151,1,0,0:0:0:0:
475,192,111151,1,0,0:0:0:0:
256,192,111262,128,0,111484:0:0:0:0:
402,192,111484,128,0,111818:0:0:0:0:
36,192,111596,1,0,0:0:0:0:
109,192,111707,1,0,0:0:0:0:
256,192,111707,1,0,0:0:0:0:
329,192,111818,1,0,0:0:0:0:
36,192,112040,1,0,0:0:0:0:
182,192,112040,1,0,0:0:0:0:
475,192,112040,128,0,112262:0:0:0:0:
256,192,112262,1,0,0:0:0:0:
402,192,112262,128,0,112484:0:0:0:0:
182,192,112484,1,0,0:0:0:0:
329,192,112484,128,0,112929:0:0:0:0:
109,192,112707,1,0,0:0:0:0:
36,192,112929,1,0,0:0:0:0:
475,192,112929,1,0,0:0:0:0:
256,192,112929,128,0,113373:0:0:0:0:
109,192,113151,1,0,0:0:0:0:
475,192,113373,128,0,113818:0:0:0:0:
182,192,113373,1,0,0:0:0:0:
329,192,113484,1,0,0:0:0:0:
36,192,113484,1,0,0:0:0:0:
36,192,113707,1,0,0:0:0:0:
182,192,113818,128,0,114262:0:0:0:0:
402,192,113818,1,0,0:0:0:0:
256,192,113818,1,0,0:0:0:0:
329,192,114040,1,0,0:0:0:0:
36,192,114262,1,0,0:0:0:0:
402,192,114262,128,0,114484:0:0:0:0:
329,192,114484,1,0,0:0:0:0:
182,192,114596,128,0,114818:0:0:0:0:
402,192,114707,1,0,0:0:0:0:
475,192,114707,1,0,0:0:0:0:
109,192,114818,128,0,115040:0:0:0:0:
36,192,115040,128,0,115262:0:0:0:0:
475,192,115151,1,0,0:0:0:0:
182,192,115262,1,0,0:0:0:0:
329,192,115262,1,0,0:0:0:0:
36,192,115484,1,0,0:0:0:0:
475,192,115484,1,0,0:0:0:0:
182,192,115596,1,0,0:0:0:0:
329,192,115596,128,0,115818:0:0:0:0:
256,192,115596,1,0,0:0:0:0:
36,192,115818,1,0,0:0:0:0:
182,192,115818,128,0,116040:0:0:0:0:
402,192,116040,128,0,116484:0:0:0:0:
256,192,116040,1,0,0:0:0:0:
182,192,116262,1,0,0:0:0:0:
36,192,116484,1,0,0:0:0:0:
475,192,116484,1,0,0:0:0:0:
109,192,116484,1,0,0:0:0:0:
329,192,116596,128,0,116818:0:0:0:0:
109,192,116818,128,0,117373:0:0:0:0:
475,192,116929,1,0,0:0:0:0:
402,192,117040,1,0,0:0:0:0:
182,192,117040,1,0,0:0:0:0:
329,192,117151,1,0,0:0:0:0:
475,192,117373,1,0,0:0:0:0:
36,192,117373,1,0,0:0:0:0:
256,192,117373,1,0,0:0:0:0:
329,192,117596,1,0,0:0:0:0:
182,192,117707,1,0,0:0:0:0:
475,192,117818,1,0,0:0:0:0:
36,192,117818,128,0,118040:0:0:0:0:
182,192,118040,1,0,0:0:0:0:
329,192,118151,128,0,118373:0:0:0:0:
109,192,118262,1,0,0:0:0:0:
36,192,118262,1,0,0:0:0:0:
402,192,118373,128,0,118596:0:0:0:0:
475,192,118596,128,0,118929:0:0:0:0:
36,192,118707,1,0,0:0:0:0:
256,192,118818,1,0,0:0:0:0:
109,192,118818,1,0,0:0:0:0:
402,192,118929,1,0,0:0:0:0:
256,192,119151,1,0,0:0:0:0:
36,192,119151,1,0,0:0:0:0:
475,192,119151,1,0,0:0:0:0:
402,192,119373,1,0,0:0:0:0:
182,192,119373,1,0,0:0:0:0:
109,192,119484,1,0,0:0:0:0:
36,192,119596,1,0,0:0:0:0:
475,192,119596,128,0,120040:0:0:0:0:
182,192,119818,1,0,0:0:0:0:
36,192,120040,1,0,0:0:0:0:
256,192,120040,1,0,0:0:0:0:
402,192,120040,1,0,0:0:0:0:
182,192,120262,1,0,0:0:0:0:
329,192,120373,1,0,0:0:0:0:
36,192,120484,128,0,120818:0:0:0:0:
109,192,120484,1,0,0:0:0:0:
402,192,120596,1,0,0:0:0:0:
475,192,120596,1,0,0:0:0:0:
182,192,120818,128,0,121151:0:0:0:0:
402,192,120929,1,0,0:0:0:0:
475,192,120929,1,0,0:0:0:0:
329,192,121151,128,0,121596:0:0:0:0:
109,192,121373,1,0,0:0:0:0:
36,192,121596,1,0,0:0:0:0:
182,192,121707,1,0,0:0:0:0:
475,192,121818,1,0,0:0:0:0:
402,192,121818,1,0,0:0:0:0:
329,192,121818,1,0,0:0:0:0:
329,192,122040,1,0,0:0:0:0:
256,192,122151,1,0,0:0:0:0:
475,192,122262,1,0,0:0:0:0:
182,192,122262,128,0,122707:0:0:0:0:
402,192,122373,1,0,0:0:0:0:
36,192,122373,1,0,0:0:0:0:
329,192,122484,1,0,0:0:0:0:
109,192,122707,128,0,123151:0:0:0:0:
256,192,122707,1,0,0:0:0:0:
475,192,122707,1,0,0:0:0:0:
329,192,122929,1,0,0:0:0:0:
36,192,123151,128,0,124040:0:0:0:0:
402,192,123151,1,0,0:0:0:0:
329,192,123262,1,0,0:0:0:0:
402,192,123373,1,0,0:0:0:0:
329,192,123484,1,0,0:0:0:0:
182,192,123596,1,0,0:0:0:0:
475,192,123596,1,0,0:0:0:0:
402,192,123670,1,0,0:0:0:0:
329,192,123744,1,0,0:0:0:0:
256,192,123818,1,0,0:0:0:0:
182,192,123892,1,0,0:0:0:0:
109,192,123966,1,0,0:0:0:0:
475,192,124040,1,0,0:0:0:0:
402,192,124040,1,0,0:0:0:0:
36,192,124929,5,0,0:0:0:0:
475,192,124929,1,0,0:0:0:0:
109,192,125151,1,0,0:0:0:0:
329,192,125262,1,0,0:0:0:0:
182,192,125373,1,0,0:0:0:0:
256,192,125596,1,0,0:0:0:0:
329,192,125818,1,0,0:0:0:0:
36,192,126040,1,0,0:0:0:0:
256,192,126151,1,0,0:0:0:0:
475,192,126262,1,0,0:0:0:0:
402,192,126262,1,0,0:0:0:0:
109,192,126484,1,0,0:0:0:0:
182,192,126484,1,0,0:0:0:0:
475,192,126707,1,0,0:0:0:0:
256,192,126707,1,0,0:0:0:0:
402,192,126929,1,0,0:0:0:0:
36,192,126929,1,0,0:0:0:0:
182,192,127040,1,0,0:0:0:0:
329,192,127151,1,0,0:0:0:0:
402,192,127373,1,0,0:0:0:0:
475,192,127596,1,0,0:0:0:0:
475,192,128484,1,0,0:0:0:0:
182,192,128484,1,0,0:0:0:0:
402,192,128707,1,0,0:0:0:0:
329,192,128929,1,0,0:0:0:0:
256,192,129040,1,0,0:0:0:0:
182,192,129151,1,0,0:0:0:0:
109,192,129373,1,0,0:0:0:0:
36,192,129596,1,0,0:0:0:0:
182,192,129707,1,0,0:0:0:0:
475,192,129818,1,0,0:0:0:0:
329,192,130040,1,0,0:0:0:0:
109,192,130262,1,0,0:0:0:0:
36,192,130262,1,0,0:0:0:0:
402,192,130484,1,0,0:0:0:0:
182,192,130596,1,0,0:0:0:0:
329,192,130707,1,0,0:0:0:0:
256,192,130929,1,0,0:0:0:0:
182,192,131151,1,0,0:0:0:0:
329,192,132040,1,0,0:0:0:0:
182,192,132040,1,0,0:0:0:0:
475,192,132262,1,0,0:0:0:0:
256,192,132373,1,0,0:0:0:0:
36,192,132484,1,0,0:0:0:0:
475,192,132707,1,0,0:0:0:0:
329,192,132707,1,0,0:0:0:0:
36,192,132929,1,0,0:0:0:0:
329,192,133040,1,0,0:0:0:0:
109,192,133151,1,0,0:0:0:0:
402,192,133373,1,0,0:0:0:0:
182,192,133373,1,0,0:0:0:0:
256,192,133596,1,0,0:0:0:0:
475,192,133596,1,0,0:0:0:0:
36,192,133818,1,0,0:0:0:0:
109,192,133818,1,0,0:0:0:0:
256,192,134040,1,0,0:0:0:0:
402,192,134040,1,0,0:0:0:0:
182,192,134151,1,0,0:0:0:0:
109,192,134262,1,0,0:0:0:0:
256,192,134484,1,0,0:0:0:0:
36,192,134707,1,0,0:0:0:0:
329,192,135596,1,0,0:0:0:0:
182,192,135596,1,0,0:0:0:0:
402,192,135818,1,0,0:0:0:0:
256,192,135929,1,0,0:0:0:0:
475,192,136040,1,0,0:0:0:0:
329,192,136262,1,0,0:0:0:0:
109,192,136484,1,0,0:0:0:0:
256,192,136707,1,0,0:0:0:0:
402,192,136707,1,0,0:0:0:0:
36,192,136929,1,0,0:0:0:0:
402,192,137151,1,0,0:0:0:0:
475,192,137151,1,0,0:0:0:0:
256,192,137373,1,0,0:0:0:0:
109,192,137373,1,0,0:0:0:0:
475,192,137596,1,0,0:0:0:0:
182,192,137707,1,0,0:0:0:0:
402,192,137818,1,0,0:0:0:0:
329,192,138040,1,0,0:0:0:0:
182,192,138262,128,0,139151:0:0:0:0:
329,192,138707,128,0,139151:0:0:0:0:
36,192,139151,5,0,0:0:0:0:
475,192,139151,128,0,140484:0:0:0:0:
402,192,139151,1,0,0:0:0:0:
109,192,139373,1,0,0:0:0:0:
329,192,139484,1,0,0:0:0:0:
182,192,139596,1,0,0:0:0:0:
256,192,139818,1,0,0:0:0:0:
329,192,140040,1,0,0:0:0:0:
182,192,140151,1,0,0:0:0:0:
36,192,140262,1,0,0:0:0:0:
182,192,140484,128,0,140707:0:0:0:0:
402,192,140484,1,0,0:0:0:0:
329,192,140707,128,0,141151:0:0:0:0:
109,192,140707,1,0,0:0:0:0:
36,192,140929,1,0,0:0:0:0:
475,192,140929,1,0,0:0:0:0:
109,192,141151,128,0,141818:0:0:0:0:
402,192,141151,1,0,0:0:0:0:
256,192,141262,1,0,0:0:0:0:
329,192,141373,1,0,0:0:0:0:
402,192,141596,1,0,0:0:0:0:
475,192,141818,128,0,142262:0:0:0:0:
36,192,142262,128,0,142512:0:0:0:0:
109,192,142512,128,0,143373:0:0:0:0:
475,192,142707,1,0,0:0:0:0:
402,192,142707,1,0,0:0:0:0:
329,192,142929,1,0,0:0:0:0:
36,192,143040,1,0,0:0:0:0:
256,192,143151,1,0,0:0:0:0:
182,192,143373,1,0,0:0:0:0:
329,192,143484,1,0,0:0:0:0:
109,192,143596,1,0,0:0:0:0:
36,192,143818,128,0,144040:0:0:0:0:
402,192,144040,128,0,144262:0:0:0:0:
329,192,144262,128,0,144484:0:0:0:0:
109,192,144484,1,0,0:0:0:0:
36,192,144484,1,0,0:0:0:0:
256,192,144707,128,0,145373:0:0:0:0:
329,192,144818,1,0,0:0:0:0:
402,192,144929,1,0,0:0:0:0:
182,192,145151,1,0,0:0:0:0:
329,192,145373,1,0,0:0:0:0:
36,192,145596,128,0,145818:0:0:0:0:
109,192,145818,128,0,146040:0:0:0:0:
182,192,146040,128,0,146262:0:0:0:0:
475,192,146262,1,0,0:0:0:0:
256,192,146262,128,0,146707:0:0:0:0:
36,192,146484,1,0,0:0:0:0:
402,192,146596,1,0,0:0:0:0:
182,192,146707,1,0,0:0:0:0:
475,192,146929,1,0,0:0:0:0:
329,192,146929,128,0,147596:0:0:0:0:
36,192,147151,1,0,0:0:0:0:
256,192,147262,1,0,0:0:0:0:
109,192,147373,1,0,0:0:0:0:
182,192,147596,128,0,147818:0:0:0:0:
402,192,147596,1,0,0:0:0:0:
475,192,147818,128,0,148262:0:0:0:0:
256,192,147818,1,0,0:0:0:0:
109,192,148040,1,0,0:0:0:0:
36,192,148040,1,0,0:0:0:0:
256,192,148262,1,0,0:0:0:0:
402,192,148262,128,0,148707:0:0:0:0:
182,192,148373,1,0,0:0:0:0:
109,192,148484,1,0,0:0:0:0:
256,192,148707,1,0,0:0:0:0:
402,192,148929,128,0,149373:0:0:0:0:
182,192,149151,1,0,0:0:0:0:
475,192,149373,128,0,149596:0:0:0:0:
182,192,149596,128,0,150484:0:0:0:0:
329,192,149818,1,0,0:0:0:0:
36,192,149818,1,0,0:0:0:0:
402,192,150040,1,0,0:0:0:0:
256,192,150151,1,0,0:0:0:0:
475,192,150262,1,0,0:0:0:0:
36,192,150484,1,0,0:0:0:0:
109,192,150707,1,0,0:0:0:0:
329,192,150818,1,0,0:0:0:0:
182,192,150929,128,0,151151:0:0:0:0:
109,192,151151,128,0,151373:0:0:0:0:
36,192,151373,128,0,151596:0:0:0:0:
182,192,151596,1,0,0:0:0:0:
475,192,151596,128,0,152519:0:0:0:0:
402,192,151826,1,0,0:0:0:0:
109,192,151942,1,0,0:0:0:0:
329,192,152057,1,0,0:0:0:0:
256,192,152288,1,0,0:0:0:0:
182,192,152519,128,0,153442:0:0:0:0:
36,192,152634,1,0,0:0:0:0:
402,192,152749,1,0,0:0:0:0:
329,192,152980,1,0,0:0:0:0:
256,192,153211,1,0,0:0:0:0:
109,192,153442,1,0,0:0:0:0:
36,192,153442,128,0,155623:0:0:0:0:
402,192,153714,1,0,0:0:0:0:
329,192,153987,1,0,0:0:0:0:
256,192,154260,1,0,0:0:0:0:
182,192,154532,1,0,0:0:0:0:
402,192,154805,1,0,0:0:0:0:
475,192,154805,1,0,0:0:0:0:
329,192,155078,1,0,0:0:0:0:
256,192,155078,1,0,0:0:0:0:
182,192,155351,1,0,0:0:0:0:
109,192,155351,1,0,0:0:0:0:
329,192,155623,128,0,159442:0:0:0:0:
402,192,155623,128,0,158896:0:0:0:0:
475,192,155623,128,0,158351:0:0:0:0:
