osu file format v14

[General]
AudioFilename: audio.mp3
AudioLeadIn: 0
PreviewTime: 60434
Countdown: 0
SampleSet: Normal
StackLeniency: 0.2
Mode: 0
LetterboxInBreaks: 0
WidescreenStoryboard: 0

[Editor]
Bookmarks: 434,7194,13955,20715,27476,34236,40997,47757,54518,61279,87053
DistanceSpacing: 0.8
BeatDivisor: 4
GridSize: 32
TimelineZoom: 2.399999

[Metadata]
Title:Kanashii Ureshii (TV Size)
TitleUnicode:かなしいうれしい (TV Size)
Artist:frederic
ArtistUnicode:フレデリック
Creator:eiri-
Version:Easy
Source:恋と嘘
Tags:Ayyri Koi to Uso Love and Lies Anime Rock
BeatmapID:1819295
BeatmapSetID:869519

[Difficulty]
HPDrainRate:3
CircleSize:3
OverallDifficulty:3
ApproachRate:3
SliderMultiplier:1.2
SliderTickRate:1

[Events]
//Background and Video events
0,0,"Ririna 251.jpg",0,0
//Break Periods
//Storyboard Layer 0 (Background)
//Storyboard Layer 1 (Fail)
//Storyboard Layer 2 (Pass)
//Storyboard Layer 3 (Foreground)
//Storyboard Sound Samples

[TimingPoints]
434,422.535211267606,4,1,1,75,1,0
7194,-100,4,2,1,60,0,0
32546,-100,4,1,1,65,0,0
34236,-100,4,2,1,70,0,0
46067,-100,4,1,1,65,0,0
47757,-100,4,2,1,70,0,0
57053,-100,4,2,1,70,0,0
57898,-100,4,2,1,50,0,0
58321,-100,4,2,1,60,0,0
58743,-100,4,2,1,70,0,0
59166,-100,4,2,1,80,0,0
59588,-100,4,2,1,90,0,0
61279,-100,4,2,1,90,0,1
86631,-100,4,1,1,100,0,1
87053,-100,4,1,1,100,0,0

[Colours]
Combo1 : 250,189,169
Combo2 : 255,183,206
Combo3 : 255,125,129
Combo4 : 218,175,243

[HitObjects]
477,90,5504,5,8,0:0:0:0:
444,180,5926,1,8,0:0:0:0:
350,203,6349,2,0,P|310:192|257:125,1,120,8|8,0:0|0:0,0:0:0:0:
281,40,7194,6,0,L|36:33,1,240,6|2,0:0|0:0,0:0:0:0:
3,121,8462,1,10,0:0:0:0:
20,215,8884,2,0,P|63:251|146:250,1,120,2|10,0:0|0:0,0:0:0:0:
309,203,10152,1,10,0:0:0:0:
368,277,10574,6,0,P|415:280|458:128,1,240,2|2,0:0|0:0,0:0:0:0:
390,62,11842,1,10,0:0:0:0:
300,97,12264,2,0,L|288:229,1,120,2|10,0:0|0:0,0:0:0:0:
275,311,13110,1,2,0:0:0:0:
183,283,13532,1,10,0:0:0:0:
163,188,13955,6,0,L|40:176,2,120,2|10|0,0:0|0:0|0:0,0:0:0:0:
310,65,15645,2,0,L|433:77,2,120,2|10|0,0:0|0:0|0:0,0:0:0:0:
118,47,17335,6,0,P|104:87|116:181,1,120,2|10,0:0|0:0,0:0:0:0:
195,204,18180,2,0,P|235:190|329:202,1,120,2|10,0:0|0:0,0:0:0:0:
348,283,19025,2,0,L|102:298,1,240,2|2,0:0|0:0,0:0:0:0:
12,305,20293,1,10,0:0:0:0:
27,210,20715,6,0,P|46:152|211:121,1,240,6|2,0:0|0:0,0:0:0:0:
275,180,21983,1,10,0:0:0:0:
368,157,22405,2,0,L|361:286,1,120,2|10,0:0|0:0,0:0:0:0:
356,372,23250,1,2,0:0:0:0:
480,299,23884,6,0,P|499:243|457:57,1,240,2|2,0:0|0:0,0:0:0:0:
374,44,25152,2,0,L|183:36,1,180,2|2,0:0|0:0,0:0:0:0:
117,94,26208,1,10,0:0:0:0:
143,186,26631,2,0,P|186:195|255:239,1,120,2|10,0:0|0:0,0:0:0:0:
335,279,27476,6,0,L|360:31,1,240,2|2,0:0|0:0,0:0:0:0:
168,15,29166,2,0,P|150:74|163:143,1,120,2|10,0:0|0:0,0:0:0:0:
227,197,30011,2,0,P|245:256|232:325,1,120,2|10,0:0|0:0,0:0:0:0:
148,351,30856,2,0,P|61:323|85:179,1,240,2|2,0:0|0:0,0:0:0:0:
144,134,32124,1,10,0:0:0:0:
239,127,32546,6,0,L|222:-18,2,120,8|8|8,0:0|0:0|0:0,0:0:0:0:
256,221,33814,1,4,0:3:0:0:
341,178,34236,6,0,P|413:161|460:185,1,120,14|10,0:0|0:0,0:0:0:0:
508,257,35081,2,0,P|452:276|396:256,1,120,10|10,0:0|0:0,0:0:0:0:
341,178,35926,1,10,0:0:0:0:
264,236,36349,1,10,0:0:0:0:
189,175,36772,2,0,L|72:265,1,120,10|10,0:0|0:0,0:0:0:0:
25,181,37617,6,0,L|3:44,2,120,10|10|10,0:0|0:0|0:0,0:0:0:0:
93,248,38884,1,8,0:0:0:0:
177,202,39307,2,0,P|208:170|293:172,1,120,10|10,0:0|0:0,0:0:0:0:
311,256,40152,2,0,P|280:288|195:286,1,120,10|8,0:0|0:0,0:0:0:0:
117,260,40997,6,0,L|-3:238,1,120,14|10,0:0|0:0,0:0:0:0:
30,329,41842,2,0,L|150:351,1,120,10|10,0:0|0:0,0:0:0:0:
244,347,42687,1,10,0:0:0:0:
298,267,43110,1,10,0:0:0:0:
381,314,43532,2,0,L|452:208,1,120,10|10,0:0|0:0,0:0:0:0:
386,140,44377,6,0,L|250:146,1,120,10|10,0:0|0:0,0:0:0:0:
222,59,45222,2,0,L|358:53,1,120,10|8,0:0|0:0,0:0:0:0:
437,53,46067,1,8,0:0:0:0:
474,141,46490,1,8,0:0:0:0:
446,232,46912,2,0,L|477:350,1,120,8|8,0:0|0:0,0:0:0:0:
381,367,47757,6,0,P|329:362|342:217,1,240,6|2,0:0|0:0,0:0:0:0:
435,205,49025,1,2,0:0:0:0:
408,112,49448,2,0,P|357:82|159:99,1,240,2|2,0:0|0:0,0:0:0:0:
104,142,50715,1,2,0:0:0:0:
14,107,51138,6,0,L|33:348,1,240,2|2,0:0|0:0,0:0:0:0:
124,319,52405,1,2,0:0:0:0:
211,358,52828,2,0,P|260:364|303:208,1,240,2|2,0:0|0:0,0:0:0:0:
252,142,54095,1,2,0:0:0:0:
274,48,54518,5,4,0:2:0:0:
124,235,55574,2,0,L|16:220,2,90,4|4|4,0:0|0:0|0:0,0:0:0:0:
281,345,57053,2,2,L|404:328,1,120,4|0,0:0|0:0,0:1:0:0:
470,263,57898,5,12,0:0:0:0:
256,192,58110,12,10,59588,0:0:0:0:
51,88,61279,6,0,L|186:82,1,120,6|10,0:0|0:0,0:0:0:0:
219,165,62124,2,0,L|84:171,1,120,2|10,0:0|0:0,0:0:0:0:
31,238,62969,2,0,P|75:295|250:295,1,240,2|2,0:0|0:0,0:0:0:0:
340,211,64448,6,0,L|356:20,1,180,2|10,0:0|0:0,0:0:0:0:
451,30,65504,2,0,P|463:68|454:160,1,120,2|10,0:0|0:0,0:0:0:0:
414,232,66349,1,2,0:0:0:0:
435,325,66772,1,10,0:0:0:0:
348,366,67194,2,0,L|226:355,1,120,2|10,0:0|0:0,0:0:0:0:
133,368,68039,6,0,P|99:310|115:244,1,120,2|10,0:0|0:0,0:0:0:0:
169,187,68884,2,0,P|203:129|187:63,1,120,2|10,0:0|0:0,0:0:0:0:
133,6,69729,1,2,0:0:0:0:
44,44,70152,1,10,0:0:0:0:
20,137,70574,2,0,L|38:280,1,120,2|10,0:0|0:0,0:0:0:0:
55,349,71419,6,0,P|156:326|305:363,1,240,2|2,0:0|0:0,0:0:0:0:
448,248,73110,1,2,0:0:0:0:
427,154,73532,1,10,0:0:0:0:
332,171,73955,2,0,L|199:158,1,120,8|8,0:0|0:0,0:0:0:0:
130,108,74800,6,0,P|88:100|12:127,1,120,6|10,0:0|0:0,0:0:0:0:
28,219,75645,2,0,P|70:227|146:200,1,120,2|10,0:0|0:0,0:0:0:0:
222,150,76490,2,0,L|471:176,1,240,2|2,0:0|0:0,0:0:0:0:
509,310,77969,2,0,P|476:344|341:340,1,180,2|10,0:0|0:0,0:0:0:0:
288,273,79025,2,0,L|155:260,1,120,2|10,0:0|0:0,0:0:0:0:
86,211,79870,1,2,0:0:0:0:
133,127,80293,1,10,0:0:0:0:
98,37,80715,2,0,L|231:24,1,120,2|10,0:0|0:0,0:0:0:0:
313,15,81560,6,0,P|347:73|331:139,1,120,2|10,0:0|0:0,0:0:0:0:
277,196,82405,2,0,P|243:254|259:320,1,120,2|10,0:0|0:0,0:0:0:0:
313,377,83250,1,2,0:0:0:0:
402,339,83673,1,10,0:0:0:0:
426,246,84096,2,0,L|408:103,1,120,2|10,0:0|0:0,0:0:0:0:
391,34,84941,6,0,P|290:57|141:20,1,240,2|0,0:0|0:0,0:0:0:0:
72,70,86208,1,8,0:0:0:0:
38,159,86631,2,0,L|52:233,2,60,8|8|14,0:0|0:0|0:2,0:0:0:0:
