osu file format v14

[General]
AudioFilename: audio.mp3
AudioLeadIn: 0
PreviewTime: 61067
Countdown: 0
SampleSet: Soft
StackLeniency: 0.7
Mode: 3
LetterboxInBreaks: 0
SpecialStyle: 0
WidescreenStoryboard: 0

[Editor]
DistanceSpacing: 1.4
BeatDivisor: 4
GridSize: 4
TimelineZoom: 1.3

[Metadata]
Title:Kanashii Ureshii (TV Size)
TitleUnicode:かなしいうれしい (TV Size)
Artist:frederic
ArtistUnicode:フレデリック
Creator:- Ly0572 -
Version:5K HD
Source:恋と嘘
Tags:Koi to Uso Love and Lies Opening AlisceaSparku Amiichii
BeatmapID:1369562
BeatmapSetID:638347

[Difficulty]
HPDrainRate:7.5
CircleSize:5
OverallDifficulty:7.5
ApproachRate:5
SliderMultiplier:1.4
SliderTickRate:1

[Events]
//Background and Video events
0,0,"lovenliesbg.png",0,0
Video,0,"ktuvid.flv"
//Break Periods
//Storyboard Layer 0 (Background)
//Storyboard Layer 1 (Fail)
//Storyboard Layer 2 (Pass)
//Storyboard Layer 3 (Foreground)
//Storyboard Sound Samples

[TimingPoints]
434,422.535211267606,4,2,1,70,1,0
61279,-100,4,2,1,70,0,1
87053,-100,4,2,1,70,0,0

[HitObjects]
448,192,434,128,2,856:0:0:0:0:
51,192,434,1,0,0:0:0:0:
320,192,856,128,2,1067:0:0:0:0:
256,192,856,1,0,0:0:0:0:
192,192,1067,128,0,1279:0:0:0:0:
64,192,1279,128,2,1701:0:0:0:0:
256,192,1279,1,0,0:0:0:0:
320,192,1701,128,2,1912:0:0:0:0:
448,192,1701,1,0,0:0:0:0:
192,192,1912,128,0,2124:0:0:0:0:
256,192,2124,128,2,2546:0:0:0:0:
64,192,2124,1,0,0:0:0:0:
358,192,2546,128,2,2757:0:0:0:0:
460,192,2546,1,0,0:0:0:0:
153,192,2757,128,0,2969:0:0:0:0:
64,192,2969,128,2,3391:0:0:0:0:
256,192,2969,1,0,0:0:0:0:
256,192,3391,128,2,3814:0:0:0:0:
460,192,3391,1,0,0:0:0:0:
448,192,3814,128,2,4236:0:0:0:0:
358,192,3814,1,0,0:0:0:0:
51,192,4025,128,0,4236:0:0:0:0:
358,192,4236,128,2,4659:0:0:0:0:
153,192,4236,128,0,4448:0:0:0:0:
256,192,4448,128,0,4659:0:0:0:0:
64,192,4659,128,2,5081:0:0:0:0:
460,192,4659,128,0,4870:0:0:0:0:
153,192,4976,1,0,0:0:0:0:
358,192,5081,128,4,5293:3:3:0:0:
256,192,5081,1,2,0:0:0:0:
460,192,5293,128,0,5504:0:0:0:0:
256,192,5504,1,2,0:0:0:0:
192,192,5504,1,2,3:3:0:0:
64,192,5504,1,0,0:0:0:0:
448,192,5926,1,2,0:0:0:0:
256,192,5926,1,2,3:3:0:0:
64,192,5926,1,0,0:0:0:0:
448,192,6349,1,2,0:0:0:0:
153,192,6349,1,2,3:3:0:0:
64,192,6349,1,0,0:0:0:0:
460,192,6772,1,2,0:0:0:0:
256,192,6772,1,4,3:3:0:0:
358,192,6772,1,0,0:0:0:0:
153,192,6983,1,8,0:0:0:0:
51,192,6983,1,0,0:0:0:0:
358,192,7088,1,8,0:0:0:0:
256,192,7088,1,0,0:0:0:0:
153,192,7194,1,2,0:0:0:0:
448,192,7194,128,4,7405:0:0:0:0:
64,192,7194,1,0,0:0:0:0:
448,192,7617,128,2,7828:0:0:0:0:
320,192,7617,1,8,0:0:0:0:
256,192,7617,1,0,0:0:0:0:
448,192,8039,128,2,8462:0:0:0:0:
320,192,8039,1,0,0:0:0:0:
256,192,8356,1,2,0:0:0:0:
192,192,8462,1,8,0:0:0:0:
64,192,8462,1,0,0:0:0:0:
256,192,8673,128,2,8884:0:0:0:0:
358,192,8673,1,0,0:0:0:0:
192,192,8884,128,2,9095:0:0:0:0:
64,192,8884,1,0,0:0:0:0:
320,192,9201,1,0,0:0:0:0:
51,192,9307,128,8,9518:0:0:0:0:
256,192,9307,1,2,0:0:0:0:
448,192,9307,1,0,0:0:0:0:
448,192,9518,128,2,9729:0:0:0:0:
320,192,9729,128,2,9941:0:0:0:0:
256,192,9729,1,0,0:0:0:0:
448,192,9941,128,0,10152:0:0:0:0:
64,192,10046,1,2,0:0:0:0:
320,192,10152,128,8,10363:0:0:0:0:
192,192,10152,1,0,0:0:0:0:
448,192,10363,128,2,10574:0:0:0:0:
256,192,10363,1,0,0:0:0:0:
64,192,10574,128,2,10786:0:0:0:0:
153,192,10574,1,0,0:0:0:0:
64,192,10997,128,8,11208:0:0:0:0:
256,192,10997,1,2,0:0:0:0:
320,192,10997,1,0,0:0:0:0:
64,192,11419,128,2,11842:0:0:0:0:
192,192,11419,1,0,0:0:0:0:
256,192,11736,1,2,0:0:0:0:
320,192,11842,1,8,0:0:0:0:
448,192,11842,1,0,0:0:0:0:
256,192,12053,128,2,12264:0:0:0:0:
153,192,12053,1,0,0:0:0:0:
320,192,12264,128,2,12476:0:0:0:0:
448,192,12264,1,0,0:0:0:0:
192,192,12581,1,0,0:0:0:0:
460,192,12687,128,8,12898:0:0:0:0:
256,192,12687,1,2,0:0:0:0:
64,192,12687,1,0,0:0:0:0:
64,192,12898,128,2,13110:0:0:0:0:
192,192,13110,128,2,13321:0:0:0:0:
256,192,13110,1,0,0:0:0:0:
64,192,13321,128,0,13532:0:0:0:0:
448,192,13426,1,2,0:0:0:0:
192,192,13532,128,8,13743:0:0:0:0:
320,192,13532,1,0,0:0:0:0:
64,192,13743,128,2,13955:0:0:0:0:
256,192,13743,1,0,0:0:0:0:
320,192,13955,128,2,14166:0:0:0:0:
448,192,13955,1,0,0:0:0:0:
320,192,14377,128,8,14588:0:0:0:0:
192,192,14377,1,2,0:0:0:0:
64,192,14377,1,0,0:0:0:0:
320,192,14800,128,2,15222:0:0:0:0:
256,192,14800,1,0,0:0:0:0:
448,192,15117,1,2,0:0:0:0:
64,192,15222,1,8,0:0:0:0:
192,192,15222,1,0,0:0:0:0:
256,192,15434,128,2,15645:0:0:0:0:
460,192,15434,1,0,0:0:0:0:
153,192,15645,128,2,15856:0:0:0:0:
358,192,15645,1,0,0:0:0:0:
320,192,15962,1,0,0:0:0:0:
64,192,16067,128,8,16279:0:0:0:0:
192,192,16067,1,2,0:0:0:0:
256,192,16067,1,0,0:0:0:0:
448,192,16279,128,2,16490:0:0:0:0:
192,192,16490,128,2,16701:0:0:0:0:
320,192,16490,1,0,0:0:0:0:
448,192,16701,128,0,16912:0:0:0:0:
51,192,16807,1,2,0:0:0:0:
192,192,16912,128,8,17124:0:0:0:0:
320,192,16912,1,0,0:0:0:0:
448,192,17124,128,2,17335:0:0:0:0:
256,192,17124,1,0,0:0:0:0:
153,192,17335,128,2,17546:0:0:0:0:
51,192,17335,1,0,0:0:0:0:
256,192,17757,128,8,17969:0:0:0:0:
320,192,17757,1,2,0:0:0:0:
448,192,17757,1,0,0:0:0:0:
256,192,18180,128,2,18603:0:0:0:0:
51,192,18180,1,0,0:0:0:0:
460,192,18497,1,2,0:0:0:0:
51,192,18603,1,8,0:0:0:0:
153,192,18603,1,0,0:0:0:0:
358,192,18814,128,2,19025:0:0:0:0:
460,192,18814,1,0,0:0:0:0:
153,192,19025,128,2,19236:0:0:0:0:
256,192,19025,1,0,0:0:0:0:
256,192,19342,1,0,0:0:0:0:
448,192,19448,128,8,19659:0:0:0:0:
320,192,19448,1,2,0:0:0:0:
51,192,19448,1,0,0:0:0:0:
64,192,19659,128,2,19870:0:0:0:0:
320,192,19870,128,2,20081:0:0:0:0:
256,192,19870,1,0,0:0:0:0:
64,192,20081,128,0,20293:0:0:0:0:
448,192,20187,1,2,0:0:0:0:
320,192,20293,128,8,20504:0:0:0:0:
192,192,20293,1,0,0:0:0:0:
51,192,20504,128,2,20715:0:0:0:0:
256,192,20504,1,0,0:0:0:0:
448,192,20715,128,2,20926:0:0:0:0:
320,192,20715,1,4,0:0:0:0:
153,192,20715,1,0,0:0:0:0:
448,192,21138,128,8,21349:0:0:0:0:
320,192,21138,1,2,0:0:0:0:
192,192,21138,1,0,0:0:0:0:
448,192,21560,128,2,21983:0:0:0:0:
256,192,21560,1,0,0:0:0:0:
153,192,21877,1,2,0:0:0:0:
64,192,21983,1,8,0:0:0:0:
320,192,21983,1,0,0:0:0:0:
256,192,22194,128,2,22405:0:0:0:0:
358,192,22194,1,0,0:0:0:0:
51,192,22405,128,2,22617:0:0:0:0:
153,192,22405,1,0,0:0:0:0:
256,192,22722,1,0,0:0:0:0:
192,192,22828,128,8,23039:0:0:0:0:
64,192,22828,1,2,0:0:0:0:
358,192,22828,1,0,0:0:0:0:
448,192,23039,128,2,23250:0:0:0:0:
64,192,23250,128,2,23462:0:0:0:0:
320,192,23250,1,0,0:0:0:0:
320,192,23462,128,0,23673:0:0:0:0:
153,192,23462,1,0,0:0:0:0:
256,192,23567,1,2,0:0:0:0:
192,192,23673,128,8,23884:0:0:0:0:
64,192,23673,1,0,0:0:0:0:
448,192,23884,128,2,24095:0:0:0:0:
320,192,23884,1,0,0:0:0:0:
64,192,24095,128,2,24307:0:0:0:0:
256,192,24095,1,0,0:0:0:0:
64,192,24518,128,8,24729:0:0:0:0:
192,192,24518,1,2,0:0:0:0:
320,192,24518,1,0,0:0:0:0:
64,192,24941,128,2,25363:0:0:0:0:
256,192,24941,1,0,0:0:0:0:
153,192,25257,1,2,0:0:0:0:
460,192,25363,1,8,0:0:0:0:
358,192,25363,1,0,0:0:0:0:
256,192,25574,128,2,25786:0:0:0:0:
153,192,25574,1,0,0:0:0:0:
460,192,25786,128,2,25997:0:0:0:0:
358,192,25786,1,0,0:0:0:0:
358,192,26103,1,0,0:0:0:0:
256,192,26208,128,8,26419:0:0:0:0:
448,192,26208,1,2,0:0:0:0:
153,192,26208,1,0,0:0:0:0:
64,192,26419,128,2,26631:0:0:0:0:
448,192,26631,128,2,26842:0:0:0:0:
192,192,26631,1,0,0:0:0:0:
192,192,26842,128,0,27053:0:0:0:0:
320,192,26842,1,0,0:0:0:0:
256,192,26948,1,2,0:0:0:0:
320,192,27053,128,8,27264:0:0:0:0:
448,192,27053,1,0,0:0:0:0:
64,192,27264,128,2,27476:0:0:0:0:
256,192,27264,1,0,0:0:0:0:
192,192,27476,128,2,27687:0:0:0:0:
448,192,27476,1,0,0:0:0:0:
192,192,27898,128,8,28110:0:0:0:0:
256,192,27898,1,2,0:0:0:0:
358,192,27898,1,0,0:0:0:0:
192,192,28321,128,2,28743:0:0:0:0:
460,192,28321,1,0,0:0:0:0:
51,192,28638,1,2,0:0:0:0:
460,192,28743,1,8,0:0:0:0:
358,192,28743,1,0,0:0:0:0:
256,192,28955,128,2,29166:0:0:0:0:
64,192,28955,1,0,0:0:0:0:
320,192,29166,128,2,29377:0:0:0:0:
192,192,29166,1,0,0:0:0:0:
256,192,29483,1,0,0:0:0:0:
460,192,29588,128,8,29800:0:0:0:0:
153,192,29588,1,2,0:0:0:0:
51,192,29588,1,0,0:0:0:0:
358,192,29800,128,2,30011:0:0:0:0:
460,192,30011,128,2,30222:0:0:0:0:
256,192,30011,1,0,0:0:0:0:
64,192,30222,128,0,30434:0:0:0:0:
192,192,30222,1,0,0:0:0:0:
256,192,30328,1,2,0:0:0:0:
153,192,30434,128,8,30645:0:0:0:0:
320,192,30434,1,0,0:0:0:0:
448,192,30645,128,2,30856:0:0:0:0:
256,192,30645,1,0,0:0:0:0:
51,192,30856,1,0,0:0:0:0:
320,192,30856,128,2,31067:0:0:0:0:
320,192,31279,128,8,31490:0:0:0:0:
153,192,31279,1,2,0:0:0:0:
256,192,31279,1,0,0:0:0:0:
320,192,31701,128,2,32124:0:0:0:0:
51,192,31701,1,0,0:0:0:0:
448,192,32018,1,2,0:0:0:0:
64,192,32124,1,8,0:0:0:0:
192,192,32124,1,0,0:0:0:0:
256,192,32335,1,2,0:0:0:0:
358,192,32335,1,0,0:0:0:0:
460,192,32546,1,8,0:0:0:0:
51,192,32546,1,0,0:0:0:0:
153,192,32652,1,8,0:0:0:0:
256,192,32757,1,8,0:0:0:0:
358,192,32863,1,8,0:0:0:0:
51,192,32969,1,8,0:0:0:0:
448,192,32969,1,0,0:0:0:0:
153,192,33074,1,8,0:0:0:0:
256,192,33180,1,8,0:0:0:0:
358,192,33286,1,8,0:0:0:0:
51,192,33391,1,8,0:0:0:0:
460,192,33391,1,0,0:0:0:0:
153,192,33497,1,8,0:0:0:0:
256,192,33603,1,8,0:0:0:0:
358,192,33708,1,8,0:0:0:0:
51,192,33814,1,2,3:3:0:0:
460,192,33814,1,2,0:0:0:0:
153,192,34236,5,8,3:3:0:0:
51,192,34236,1,4,0:0:0:0:
460,192,34236,1,2,3:3:0:0:
153,192,34659,1,2,3:3:0:0:
51,192,34659,1,8,3:3:0:0:
153,192,35081,1,2,3:3:0:0:
51,192,35081,1,8,3:3:0:0:
51,192,35398,1,2,3:3:0:0:
153,192,35398,1,8,3:3:0:0:
153,192,35715,1,2,3:3:0:0:
51,192,35715,1,8,3:3:0:0:
358,192,35926,1,2,3:3:0:0:
460,192,35926,1,8,3:3:0:0:
358,192,36349,1,8,3:3:0:0:
460,192,36349,1,2,3:3:0:0:
358,192,36772,1,8,3:3:0:0:
460,192,36772,1,2,3:3:0:0:
358,192,37088,1,8,3:3:0:0:
460,192,37088,1,2,3:3:0:0:
460,192,37405,1,2,3:3:0:0:
358,192,37405,1,8,3:3:0:0:
64,192,37617,1,2,3:3:0:0:
448,192,37617,1,8,3:3:0:0:
448,192,38039,1,8,3:3:0:0:
64,192,38039,1,2,3:3:0:0:
448,192,38462,1,2,3:3:0:0:
64,192,38462,1,8,3:3:0:0:
64,192,38779,1,8,3:3:0:0:
448,192,38779,1,2,3:3:0:0:
51,192,39095,1,8,3:3:0:0:
460,192,39095,1,2,3:3:0:0:
192,192,39307,1,8,3:3:0:0:
320,192,39307,1,2,3:3:0:0:
192,192,39729,1,2,3:3:0:0:
320,192,39729,1,8,3:3:0:0:
320,192,40152,1,8,3:3:0:0:
192,192,40152,1,2,3:3:0:0:
192,192,40469,1,2,3:3:0:0:
320,192,40469,1,8,3:3:0:0:
192,192,40786,1,8,3:3:0:0:
320,192,40786,1,2,3:3:0:0:
448,192,40997,1,4,0:0:0:0:
256,192,40997,1,8,3:3:0:0:
64,192,40997,1,2,3:3:0:0:
256,192,41419,1,8,3:3:0:0:
153,192,41419,1,2,3:3:0:0:
256,192,41842,1,2,3:3:0:0:
153,192,41842,1,8,3:3:0:0:
153,192,42159,1,8,3:3:0:0:
256,192,42159,1,2,3:3:0:0:
153,192,42476,1,2,3:3:0:0:
256,192,42476,1,8,3:3:0:0:
320,192,42687,1,8,3:3:0:0:
256,192,42687,1,2,3:3:0:0:
256,192,43110,1,2,3:3:0:0:
358,192,43110,1,8,3:3:0:0:
256,192,43532,1,2,3:3:0:0:
358,192,43532,1,8,3:3:0:0:
256,192,43849,1,2,3:3:0:0:
358,192,43849,1,8,3:3:0:0:
256,192,44166,1,2,3:3:0:0:
358,192,44166,1,8,3:3:0:0:
448,192,44377,1,8,3:3:0:0:
153,192,44377,1,2,3:3:0:0:
153,192,44800,1,8,3:3:0:0:
448,192,44800,1,2,3:3:0:0:
153,192,45222,1,8,3:3:0:0:
448,192,45222,1,2,3:3:0:0:
153,192,45539,1,8,3:3:0:0:
448,192,45539,1,2,3:3:0:0:
448,192,45856,1,8,3:3:0:0:
153,192,45856,1,2,3:3:0:0:
320,192,46067,1,8,0:0:0:0:
51,192,46067,1,8,3:3:0:0:
320,192,46490,1,8,0:0:0:0:
51,192,46490,1,8,3:3:0:0:
51,192,46912,1,8,0:0:0:0:
320,192,46912,1,8,3:3:0:0:
320,192,47335,1,8,0:0:0:0:
51,192,47335,128,8,47757:3:3:0:0:
256,192,47757,1,4,0:0:0:0:
192,192,47757,1,8,3:3:0:0:
448,192,47757,1,2,3:3:0:0:
448,192,48074,1,2,3:3:0:0:
320,192,48074,1,8,3:3:0:0:
320,192,48391,1,2,3:3:0:0:
448,192,48391,1,8,3:3:0:0:
64,192,48603,1,2,3:3:0:0:
448,192,48603,1,8,3:3:0:0:
64,192,48919,1,2,3:3:0:0:
192,192,48919,1,8,3:3:0:0:
64,192,49236,1,2,3:3:0:0:
192,192,49236,1,8,3:3:0:0:
448,192,49448,1,8,3:3:0:0:
64,192,49448,1,2,3:3:0:0:
192,192,49764,1,8,3:3:0:0:
320,192,49764,1,2,3:3:0:0:
192,192,50081,1,8,3:3:0:0:
320,192,50081,1,2,3:3:0:0:
448,192,50293,1,2,3:3:0:0:
64,192,50293,1,8,3:3:0:0:
256,192,50610,1,2,3:3:0:0:
153,192,50610,1,8,3:3:0:0:
256,192,50926,1,2,3:3:0:0:
153,192,50926,1,8,3:3:0:0:
448,192,51138,1,8,3:3:0:0:
64,192,51138,1,2,3:3:0:0:
256,192,51455,1,8,3:3:0:0:
358,192,51455,1,2,3:3:0:0:
358,192,51772,1,8,3:3:0:0:
256,192,51772,1,2,3:3:0:0:
448,192,51983,1,2,3:3:0:0:
64,192,51983,1,8,3:3:0:0:
192,192,52300,1,2,3:3:0:0:
320,192,52300,1,8,3:3:0:0:
320,192,52617,1,2,3:3:0:0:
192,192,52617,1,8,3:3:0:0:
64,192,52828,1,8,3:3:0:0:
448,192,52828,1,2,3:3:0:0:
256,192,53145,1,8,3:3:0:0:
448,192,53145,1,2,3:3:0:0:
256,192,53462,5,8,3:3:0:0:
448,192,53462,1,2,3:3:0:0:
64,192,53673,1,2,3:3:0:0:
358,192,53673,1,8,3:3:0:0:
192,192,53990,1,2,3:3:0:0:
256,192,53990,1,8,3:3:0:0:
153,192,54307,1,2,3:3:0:0:
256,192,54307,1,8,3:3:0:0:
64,192,54518,5,2,0:0:0:0:
448,192,54518,1,4,3:3:0:0:
358,192,54518,1,0,0:0:0:0:
64,192,54941,1,2,0:0:0:0:
64,192,55363,1,2,0:0:0:0:
153,192,55574,1,2,0:0:0:0:
320,192,55574,1,4,3:3:0:0:
256,192,55786,1,8,0:0:0:0:
460,192,55786,1,0,0:0:0:0:
192,192,55891,1,4,3:3:0:0:
448,192,56208,1,2,0:0:0:0:
64,192,56208,1,4,0:0:0:0:
256,192,56208,1,0,0:0:0:0:
256,192,56631,1,2,0:0:0:0:
448,192,57053,1,2,0:0:0:0:
64,192,57053,128,4,57898:0:0:0:0:
256,192,57053,1,0,0:0:0:0:
448,192,57476,1,2,0:0:0:0:
192,192,57898,1,2,0:0:0:0:
448,192,57898,1,4,0:0:0:0:
256,192,58110,1,0,0:0:0:0:
153,192,58215,1,0,0:0:0:0:
51,192,58321,1,2,0:0:0:0:
448,192,58321,1,0,0:0:0:10:soft-hitclap.wav
358,192,58426,1,0,0:0:0:10:soft-hitclap.wav
256,192,58532,1,0,0:0:0:20:soft-hitclap.wav
153,192,58638,1,0,0:0:0:20:soft-hitclap.wav
448,192,58743,1,2,0:0:0:0:
51,192,58743,1,0,0:0:0:30:soft-hitclap.wav
358,192,58849,1,0,0:0:0:30:soft-hitclap.wav
256,192,58955,1,0,0:0:0:40:soft-hitclap.wav
153,192,59060,1,8,0:0:0:40:soft-hitclap.wav
51,192,59166,1,2,0:0:0:0:
460,192,59166,1,8,0:0:0:50:soft-hitclap.wav
358,192,59272,1,8,0:0:0:50:soft-hitclap.wav
256,192,59377,1,8,0:0:0:60:soft-hitclap.wav
153,192,59483,1,8,0:0:0:60:soft-hitclap.wav
51,192,59588,1,8,0:0:0:0:
460,192,59588,1,2,0:0:0:0:
256,192,59694,1,8,0:0:0:0:
358,192,59800,1,8,0:0:0:0:
460,192,59905,1,8,0:0:0:0:
153,192,60011,1,8,0:0:0:0:
51,192,60011,1,2,0:0:0:0:
256,192,60117,1,8,0:0:0:0:
358,192,60222,1,8,0:0:0:0:
460,192,60328,1,8,0:0:0:0:
153,192,60434,1,8,0:0:0:0:
51,192,60434,1,2,0:0:0:0:
256,192,60539,1,8,0:0:0:0:
51,192,60645,1,2,0:0:0:0:
358,192,60645,1,4,3:3:0:0:
460,192,60645,1,8,0:0:0:0:
192,192,61279,128,4,61490:0:0:0:0:
64,192,61279,1,2,0:0:0:0:
448,192,61279,128,0,62969:0:0:0:0:
256,192,61701,1,8,0:0:0:0:
320,192,61701,128,2,61912:0:0:0:0:
64,192,62124,128,2,62546:0:0:0:0:
153,192,62124,1,0,0:0:0:0:
256,192,62441,1,0,0:0:0:0:
153,192,62546,1,8,0:0:0:0:
358,192,62546,1,2,0:0:0:0:
256,192,62757,1,0,0:0:0:0:
320,192,62969,128,2,63814:0:0:0:0:
64,192,62969,1,0,0:0:0:0:
153,192,63180,1,0,0:0:0:0:
64,192,63391,1,2,0:0:0:0:
256,192,63391,1,8,0:0:0:0:
460,192,63497,1,0,0:0:0:0:
256,192,63814,128,2,64236:0:0:0:0:
153,192,63814,1,0,0:0:0:0:
51,192,64236,1,8,0:0:0:0:
192,192,64236,128,2,64659:0:0:0:0:
64,192,64659,128,2,66349:0:0:0:0:
460,192,64659,128,0,64870:0:0:0:0:
358,192,64659,1,0,0:0:0:0:
256,192,65081,1,2,0:0:0:0:
358,192,65081,128,8,65293:0:0:0:0:
256,192,65504,128,2,65926:0:0:0:0:
153,192,65504,1,0,0:0:0:0:
358,192,65821,1,0,0:0:0:0:
153,192,65926,1,8,0:0:0:0:
460,192,65926,1,2,0:0:0:0:
358,192,66138,1,0,0:0:0:0:
192,192,66349,128,2,68039:0:0:0:0:
256,192,66349,1,0,0:0:0:0:
460,192,66560,1,0,0:0:0:0:
256,192,66772,1,8,0:0:0:0:
358,192,66772,1,2,0:0:0:0:
51,192,66877,1,0,0:0:0:0:
358,192,67194,128,2,67617:0:0:0:0:
460,192,67194,1,0,0:0:0:0:
256,192,67511,1,0,0:0:0:0:
448,192,67617,1,2,0:0:0:0:
51,192,67617,1,8,0:0:0:0:
256,192,67828,1,0,0:0:0:0:
448,192,68039,128,2,69729:0:0:0:0:
51,192,68039,128,0,68250:0:0:0:0:
358,192,68039,1,0,0:0:0:0:
358,192,68462,1,8,0:0:0:0:
153,192,68462,128,2,68673:0:0:0:0:
256,192,68884,128,2,69307:0:0:0:0:
358,192,68884,1,0,0:0:0:0:
153,192,69201,1,0,0:0:0:0:
51,192,69307,1,8,0:0:0:0:
358,192,69307,1,2,0:0:0:0:
153,192,69518,1,0,0:0:0:0:
64,192,69729,128,2,70574:0:0:0:0:
256,192,69729,1,0,0:0:0:0:
358,192,69941,1,0,0:0:0:0:
460,192,70152,1,8,0:0:0:0:
153,192,70152,1,2,0:0:0:0:
256,192,70257,1,0,0:0:0:0:
358,192,70574,128,2,70997:0:0:0:0:
460,192,70574,1,0,0:0:0:0:
153,192,70997,1,2,0:0:0:0:
256,192,70997,1,8,0:0:0:0:
320,192,71419,128,2,72264:0:0:0:0:
64,192,71419,128,0,71631:0:0:0:0:
153,192,71419,1,0,0:0:0:0:
256,192,71842,1,2,0:0:0:0:
153,192,71842,128,8,72053:0:0:0:0:
51,192,72264,128,2,72687:0:0:0:0:
460,192,72264,1,0,0:0:0:0:
256,192,72581,1,0,0:0:0:0:
460,192,72687,1,8,0:0:0:0:
358,192,72687,1,2,0:0:0:0:
153,192,72898,1,0,0:0:0:0:
448,192,73110,128,2,73532:0:0:0:0:
51,192,73110,1,0,0:0:0:0:
358,192,73110,1,0,0:0:0:0:
192,192,73321,1,0,0:0:0:0:
320,192,73532,128,8,73955:0:0:0:0:
256,192,73532,1,2,0:0:0:0:
153,192,73638,1,0,0:0:0:0:
256,192,73955,1,2,0:0:0:0:
460,192,73955,128,0,74272:0:0:0:0:
64,192,74060,1,8,0:0:0:0:
192,192,74060,1,0,0:0:0:0:
256,192,74272,1,2,0:0:0:0:
64,192,74377,1,8,0:0:0:0:
192,192,74377,1,0,0:0:0:0:
358,192,74483,1,8,0:0:0:0:
460,192,74588,1,2,0:0:0:0:
358,192,74800,128,4,75011:0:0:0:0:
460,192,74800,1,2,0:0:0:0:
51,192,74800,128,0,76490:0:0:0:0:
256,192,75222,1,8,0:0:0:0:
153,192,75222,128,2,75434:0:0:0:0:
460,192,75645,128,2,76067:0:0:0:0:
358,192,75645,1,0,0:0:0:0:
256,192,75962,1,0,0:0:0:0:
358,192,76067,1,8,0:0:0:0:
153,192,76067,1,2,0:0:0:0:
256,192,76279,1,0,0:0:0:0:
153,192,76490,128,2,77335:0:0:0:0:
460,192,76490,1,0,0:0:0:0:
358,192,76701,1,0,0:0:0:0:
460,192,76912,1,2,0:0:0:0:
256,192,76912,1,8,0:0:0:0:
51,192,77018,1,0,0:0:0:0:
256,192,77335,128,2,77757:0:0:0:0:
358,192,77335,1,0,0:0:0:0:
460,192,77757,1,8,0:0:0:0:
358,192,77757,128,2,78180:0:0:0:0:
460,192,78180,128,2,79870:0:0:0:0:
51,192,78180,128,0,78391:0:0:0:0:
153,192,78180,1,0,0:0:0:0:
256,192,78603,1,2,0:0:0:0:
153,192,78603,128,8,78814:0:0:0:0:
256,192,79025,128,2,79448:0:0:0:0:
358,192,79025,1,0,0:0:0:0:
153,192,79342,1,0,0:0:0:0:
358,192,79448,1,8,0:0:0:0:
51,192,79448,1,2,0:0:0:0:
153,192,79659,1,0,0:0:0:0:
358,192,79870,128,2,81560:0:0:0:0:
256,192,79870,1,0,0:0:0:0:
51,192,80081,1,0,0:0:0:0:
256,192,80293,1,8,0:0:0:0:
153,192,80293,1,2,0:0:0:0:
460,192,80398,1,0,0:0:0:0:
153,192,80715,128,2,81138:0:0:0:0:
51,192,80715,1,0,0:0:0:0:
256,192,81032,1,0,0:0:0:0:
51,192,81138,1,2,0:0:0:0:
460,192,81138,1,8,0:0:0:0:
256,192,81349,1,0,0:0:0:0:
51,192,81560,128,2,83250:0:0:0:0:
460,192,81560,128,0,81772:0:0:0:0:
153,192,81560,1,0,0:0:0:0:
153,192,81983,1,8,0:0:0:0:
358,192,81983,128,2,82194:0:0:0:0:
256,192,82405,128,2,82828:0:0:0:0:
153,192,82405,1,0,0:0:0:0:
358,192,82722,1,0,0:0:0:0:
460,192,82828,1,8,0:0:0:0:
153,192,82828,1,2,0:0:0:0:
358,192,83039,1,0,0:0:0:0:
460,192,83250,128,2,84095:0:0:0:0:
256,192,83250,1,0,0:0:0:0:
153,192,83462,1,0,0:0:0:0:
51,192,83673,1,8,0:0:0:0:
358,192,83673,1,2,0:0:0:0:
256,192,83779,1,0,0:0:0:0:
153,192,84095,128,2,84518:0:0:0:0:
51,192,84095,1,0,0:0:0:0:
358,192,84518,1,2,0:0:0:0:
256,192,84518,128,8,84941:0:0:0:0:
448,192,84941,128,2,86631:0:0:0:0:
64,192,84941,128,0,85152:0:0:0:0:
153,192,84941,1,0,0:0:0:0:
256,192,85363,1,2,0:0:0:0:
358,192,85363,128,8,85574:0:0:0:0:
51,192,85786,128,2,86208:0:0:0:0:
153,192,85786,1,0,0:0:0:0:
153,192,86103,1,0,0:0:0:0:
256,192,86208,1,8,0:0:0:0:
320,192,86208,1,0,0:0:0:0:
153,192,86314,1,8,0:0:0:0:
256,192,86419,1,2,0:0:0:0:
358,192,86419,1,0,0:0:0:0:
64,192,86631,1,2,0:0:0:0:
153,192,86631,1,2,3:3:0:0:
153,192,86842,1,2,3:3:0:0:
51,192,86842,1,2,0:0:0:0:
256,192,87053,1,8,0:0:0:0:
448,192,87053,1,4,3:3:0:0:
358,192,87053,1,0,0:0:0:0:
