osu file format v14

[General]
AudioFilename: audio.mp3
AudioLeadIn: 0
PreviewTime: 61067
Countdown: 0
SampleSet: Soft
StackLeniency: 0.7
Mode: 3
LetterboxInBreaks: 0
SpecialStyle: 0
WidescreenStoryboard: 0

[Editor]
DistanceSpacing: 1.4
BeatDivisor: 8
GridSize: 4
TimelineZoom: 1.1

[Metadata]
Title:Kanashii Ureshii (TV Size)
TitleUnicode:かなしいうれしい (TV Size)
Artist:frederic
ArtistUnicode:フレデリック
Creator:- Ly0572 -
Version:4K NM
Source:恋と嘘
Tags:Koi to Uso Love and Lies Opening AlisceaSparku Amiichii
BeatmapID:1354152
BeatmapSetID:638347

[Difficulty]
HPDrainRate:7
CircleSize:4
OverallDifficulty:7
ApproachRate:5
SliderMultiplier:1.4
SliderTickRate:1

[Events]
//Background and Video events
0,0,"lovenliesbg.png",0,0
Video,0,"ktuvid.flv"
//Break Periods
//Storyboard Layer 0 (Background)
//Storyboard Layer 1 (Fail)
//Storyboard Layer 2 (Pass)
//Storyboard Layer 3 (Foreground)
//Storyboard Sound Samples

[TimingPoints]
434,422.535211267606,4,2,1,70,1,0
61279,-100,4,2,1,70,0,1
87053,-100,4,2,1,70,0,0

[HitObjects]
448,192,434,128,2,856:0:0:0:0:
320,192,856,1,2,0:0:0:0:
320,192,1067,1,0,0:0:0:0:
64,192,1279,128,2,1701:0:0:0:0:
192,192,1701,1,2,0:0:0:0:
192,192,1912,1,0,0:0:0:0:
320,192,2124,128,2,2546:0:0:0:0:
64,192,2546,1,2,0:0:0:0:
64,192,2757,1,0,0:0:0:0:
192,192,2969,128,2,3391:0:0:0:0:
448,192,3391,128,2,3814:0:0:0:0:
64,192,3814,128,2,4236:0:0:0:0:
448,192,4236,1,2,0:0:0:0:
448,192,4448,1,0,0:0:0:0:
320,192,4659,128,2,5081:0:0:0:0:
192,192,5081,1,2,0:0:0:0:
64,192,5081,1,4,3:3:0:0:
448,192,5293,1,0,0:0:0:0:
64,192,5504,1,2,0:0:0:0:
192,192,5504,1,2,3:3:0:0:
320,192,5926,1,2,0:0:0:0:
448,192,5926,1,2,3:3:0:0:
64,192,6349,1,2,0:0:0:0:
448,192,6349,1,2,3:3:0:0:
192,192,6772,1,2,0:0:0:0:
320,192,6772,1,4,3:3:0:0:
64,192,6983,128,8,7194:0:0:0:0:
448,192,7194,1,2,0:0:0:0:
320,192,7194,1,4,0:0:0:0:
64,192,7617,1,2,0:0:0:0:
192,192,7617,1,8,0:0:0:0:
320,192,8039,128,2,8462:0:0:0:0:
192,192,8356,1,2,0:0:0:0:
64,192,8462,1,8,0:0:0:0:
448,192,8462,1,0,0:0:0:0:
192,192,8673,1,2,0:0:0:0:
320,192,8884,128,2,9307:0:0:0:0:
192,192,9307,1,8,0:0:0:0:
448,192,9307,1,0,0:0:0:0:
64,192,9518,1,2,0:0:0:0:
320,192,9729,1,2,0:0:0:0:
64,192,10046,1,2,0:0:0:0:
448,192,10152,1,8,0:0:0:0:
192,192,10152,1,0,0:0:0:0:
320,192,10363,1,2,0:0:0:0:
320,192,10574,1,2,0:0:0:0:
448,192,10997,1,8,0:0:0:0:
320,192,10997,1,2,0:0:0:0:
192,192,11419,128,2,11842:0:0:0:0:
320,192,11736,1,2,0:0:0:0:
448,192,11842,1,8,0:0:0:0:
64,192,11842,1,0,0:0:0:0:
320,192,12053,1,2,0:0:0:0:
192,192,12264,128,2,12687:0:0:0:0:
320,192,12687,1,8,0:0:0:0:
64,192,12687,1,0,0:0:0:0:
448,192,12898,1,2,0:0:0:0:
192,192,13110,1,2,0:0:0:0:
448,192,13426,1,2,0:0:0:0:
64,192,13532,1,8,0:0:0:0:
320,192,13532,1,0,0:0:0:0:
192,192,13743,1,2,0:0:0:0:
192,192,13955,1,2,0:0:0:0:
64,192,14377,1,8,0:0:0:0:
448,192,14377,1,2,0:0:0:0:
320,192,14800,128,2,15222:0:0:0:0:
448,192,15117,1,2,0:0:0:0:
64,192,15222,1,8,0:0:0:0:
192,192,15222,1,0,0:0:0:0:
448,192,15434,1,2,0:0:0:0:
192,192,15645,128,2,16067:0:0:0:0:
448,192,16067,1,8,0:0:0:0:
64,192,16067,1,2,0:0:0:0:
320,192,16279,1,2,0:0:0:0:
192,192,16490,1,2,0:0:0:0:
64,192,16807,1,2,0:0:0:0:
448,192,16912,1,8,0:0:0:0:
192,192,16912,1,0,0:0:0:0:
320,192,17124,1,2,0:0:0:0:
192,192,17335,1,2,0:0:0:0:
448,192,17757,1,8,0:0:0:0:
64,192,17757,1,2,0:0:0:0:
192,192,18180,128,2,18603:0:0:0:0:
64,192,18497,1,2,0:0:0:0:
448,192,18603,1,8,0:0:0:0:
320,192,18603,1,0,0:0:0:0:
64,192,18814,1,2,0:0:0:0:
320,192,19025,128,2,19448:0:0:0:0:
64,192,19448,1,8,0:0:0:0:
448,192,19448,1,2,0:0:0:0:
192,192,19659,1,2,0:0:0:0:
320,192,19870,1,2,0:0:0:0:
448,192,20187,1,2,0:0:0:0:
64,192,20293,1,8,0:0:0:0:
320,192,20293,1,0,0:0:0:0:
192,192,20504,1,2,0:0:0:0:
320,192,20715,1,2,0:0:0:0:
448,192,20715,1,4,0:0:0:0:
192,192,21138,1,8,0:0:0:0:
448,192,21138,1,2,0:0:0:0:
64,192,21560,128,2,21983:0:0:0:0:
192,192,21877,1,2,0:0:0:0:
448,192,21983,1,8,0:0:0:0:
320,192,21983,1,0,0:0:0:0:
192,192,22194,1,2,0:0:0:0:
320,192,22405,128,2,22828:0:0:0:0:
448,192,22828,1,8,0:0:0:0:
64,192,22828,1,2,0:0:0:0:
192,192,23039,1,2,0:0:0:0:
320,192,23250,1,2,0:0:0:0:
448,192,23567,1,2,0:0:0:0:
192,192,23673,1,8,0:0:0:0:
320,192,23673,1,0,0:0:0:0:
64,192,23884,1,2,0:0:0:0:
192,192,24095,1,2,0:0:0:0:
64,192,24518,1,8,0:0:0:0:
320,192,24518,1,2,0:0:0:0:
448,192,24941,128,2,25363:0:0:0:0:
320,192,25257,1,2,0:0:0:0:
192,192,25363,1,8,0:0:0:0:
64,192,25363,1,0,0:0:0:0:
320,192,25574,1,2,0:0:0:0:
192,192,25786,128,2,26208:0:0:0:0:
448,192,26208,1,8,0:0:0:0:
64,192,26208,1,2,0:0:0:0:
320,192,26419,1,2,0:0:0:0:
192,192,26631,1,2,0:0:0:0:
64,192,26948,1,2,0:0:0:0:
192,192,27053,1,8,0:0:0:0:
320,192,27053,1,0,0:0:0:0:
448,192,27264,1,2,0:0:0:0:
320,192,27476,1,2,0:0:0:0:
448,192,27898,1,8,0:0:0:0:
192,192,27898,1,2,0:0:0:0:
320,192,28321,128,2,28743:0:0:0:0:
64,192,28638,1,2,0:0:0:0:
192,192,28743,1,8,0:0:0:0:
448,192,28743,1,0,0:0:0:0:
64,192,28955,1,2,0:0:0:0:
192,192,29166,128,2,29588:0:0:0:0:
448,192,29588,1,8,0:0:0:0:
64,192,29588,1,2,0:0:0:0:
320,192,29800,1,2,0:0:0:0:
192,192,30011,1,2,0:0:0:0:
448,192,30328,1,2,0:0:0:0:
320,192,30434,1,8,0:0:0:0:
64,192,30434,1,0,0:0:0:0:
192,192,30645,1,2,0:0:0:0:
320,192,30856,1,2,0:0:0:0:
192,192,31279,1,8,0:0:0:0:
64,192,31279,1,2,0:0:0:0:
448,192,31701,128,2,32124:0:0:0:0:
320,192,32018,1,2,0:0:0:0:
192,192,32124,1,8,0:0:0:0:
64,192,32124,1,0,0:0:0:0:
320,192,32335,1,2,0:0:0:0:
64,192,32546,128,8,32969:0:0:0:0:
192,192,32546,1,0,0:0:0:0:
192,192,32969,128,8,33391:0:0:0:0:
320,192,32969,1,0,0:0:0:0:
320,192,33391,128,8,33814:0:0:0:0:
448,192,33391,1,0,0:0:0:0:
64,192,33814,1,2,3:3:0:0:
192,192,33814,1,2,0:0:0:0:
448,192,34236,1,10,3:3:0:0:
64,192,34236,1,4,0:0:0:0:
448,192,34659,1,10,3:3:0:0:
448,192,35081,5,10,3:3:0:0:
448,192,35398,1,10,3:3:0:0:
448,192,35715,1,10,3:3:0:0:
64,192,35926,1,10,3:3:0:0:
64,192,36349,1,10,3:3:0:0:
64,192,36772,1,10,3:3:0:0:
64,192,37088,1,10,3:3:0:0:
64,192,37405,1,10,3:3:0:0:
192,192,37617,1,10,3:3:0:0:
192,192,38039,1,10,3:3:0:0:
192,192,38462,1,10,3:3:0:0:
192,192,38779,1,10,3:3:0:0:
192,192,39095,1,10,3:3:0:0:
320,192,39307,1,10,3:3:0:0:
320,192,39729,1,10,3:3:0:0:
320,192,40152,1,10,3:3:0:0:
320,192,40469,1,10,3:3:0:0:
320,192,40786,1,10,3:3:0:0:
64,192,40997,1,4,0:0:0:0:
448,192,40997,1,10,3:3:0:0:
64,192,41419,1,10,3:3:0:0:
64,192,41842,1,10,3:3:0:0:
64,192,42159,1,10,3:3:0:0:
64,192,42476,1,10,3:3:0:0:
320,192,42687,1,10,3:3:0:0:
320,192,43110,1,10,3:3:0:0:
320,192,43532,1,10,3:3:0:0:
320,192,43849,1,10,3:3:0:0:
320,192,44166,1,10,3:3:0:0:
192,192,44377,1,10,3:3:0:0:
192,192,44800,1,10,3:3:0:0:
192,192,45222,1,10,3:3:0:0:
192,192,45539,1,10,3:3:0:0:
192,192,45856,1,10,3:3:0:0:
448,192,46067,1,8,0:0:0:0:
320,192,46490,1,8,0:0:0:0:
192,192,46912,1,8,0:0:0:0:
64,192,47335,128,8,47757:0:0:0:0:
320,192,47757,1,4,0:0:0:0:
448,192,47757,1,10,0:0:0:0:
320,192,48074,1,10,3:3:0:0:
320,192,48391,1,10,3:3:0:0:
64,192,48603,1,10,3:3:0:0:
64,192,48919,1,10,3:3:0:0:
64,192,49236,1,10,3:3:0:0:
448,192,49448,1,10,3:3:0:0:
448,192,49764,1,10,3:3:0:0:
448,192,50081,1,10,3:3:0:0:
192,192,50293,1,10,3:3:0:0:
192,192,50610,1,10,3:3:0:0:
192,192,50926,1,10,3:3:0:0:
320,192,51138,1,10,3:3:0:0:
320,192,51455,1,10,3:3:0:0:
320,192,51772,1,10,3:3:0:0:
64,192,51983,1,10,3:3:0:0:
64,192,52300,1,10,3:3:0:0:
64,192,52617,1,10,3:3:0:0:
448,192,52828,1,10,3:3:0:0:
448,192,53145,1,10,3:3:0:0:
448,192,53462,1,10,3:3:0:0:
192,192,53673,1,10,3:3:0:0:
192,192,53990,1,10,3:3:0:0:
192,192,54307,1,10,3:3:0:0:
448,192,54518,1,2,0:0:0:0:
320,192,54518,1,4,3:3:0:0:
64,192,54941,1,2,0:0:0:0:
64,192,55363,1,2,0:0:0:0:
192,192,55574,1,2,0:0:0:0:
320,192,55574,1,4,3:3:0:0:
64,192,55786,1,8,0:0:0:0:
448,192,55786,1,0,0:0:0:0:
192,192,55891,1,4,3:3:0:0:
448,192,56208,1,2,0:0:0:0:
64,192,56208,1,4,0:0:0:0:
448,192,56631,1,2,0:0:0:0:
448,192,57053,128,2,57898:0:0:0:0:
192,192,57053,1,4,0:0:0:0:
320,192,57476,1,2,0:0:0:0:
320,192,57898,128,6,59588:0:0:0:0:
64,192,57898,1,0,0:0:0:0:
192,192,58321,1,10,0:0:0:0:
192,192,58743,1,10,0:0:0:0:
64,192,59166,1,10,0:0:0:0:
64,192,59588,128,10,60434:0:0:0:0:
448,192,59588,1,0,0:0:0:0:
448,192,60011,1,10,0:0:0:0:
448,192,60434,1,10,0:0:0:0:
192,192,60645,1,10,0:0:0:0:
320,192,60645,1,4,3:3:0:0:
64,192,61279,128,2,62969:0:0:0:0:
320,192,61279,1,4,0:0:0:0:
192,192,61701,1,2,0:0:0:0:
448,192,61701,1,8,0:0:0:0:
320,192,62124,1,2,0:0:0:0:
448,192,62546,1,8,0:0:0:0:
192,192,62546,1,2,0:0:0:0:
192,192,62969,128,2,64659:0:0:0:0:
448,192,63391,1,2,0:0:0:0:
320,192,63391,1,8,0:0:0:0:
64,192,63814,1,2,0:0:0:0:
448,192,64236,1,2,0:0:0:0:
320,192,64236,1,8,0:0:0:0:
320,192,64659,128,2,66349:0:0:0:0:
64,192,65081,1,2,0:0:0:0:
448,192,65081,1,8,0:0:0:0:
192,192,65504,1,2,0:0:0:0:
448,192,65926,1,8,0:0:0:0:
64,192,65926,1,2,0:0:0:0:
448,192,66349,128,2,68039:0:0:0:0:
192,192,66772,1,8,0:0:0:0:
64,192,66772,1,2,0:0:0:0:
320,192,67194,5,2,0:0:0:0:
192,192,67617,1,2,0:0:0:0:
64,192,67617,1,8,0:0:0:0:
320,192,68039,128,2,69729:0:0:0:0:
64,192,68462,1,2,0:0:0:0:
448,192,68462,1,8,0:0:0:0:
192,192,68884,1,2,0:0:0:0:
448,192,69307,1,8,0:0:0:0:
64,192,69307,1,2,0:0:0:0:
64,192,69729,128,2,70574:0:0:0:0:
192,192,70152,1,8,0:0:0:0:
448,192,70152,1,2,0:0:0:0:
448,192,70574,128,2,71419:0:0:0:0:
320,192,70997,1,2,0:0:0:0:
192,192,70997,1,8,0:0:0:0:
64,192,71419,128,2,72264:0:0:0:0:
320,192,71842,1,2,0:0:0:0:
448,192,71842,1,8,0:0:0:0:
192,192,72264,128,2,73110:0:0:0:0:
448,192,72687,1,8,0:0:0:0:
64,192,72687,1,2,0:0:0:0:
448,192,73110,128,2,73532:0:0:0:0:
320,192,73532,128,8,73955:0:0:0:0:
64,192,73532,1,2,0:0:0:0:
192,192,73955,128,2,74377:0:0:0:0:
448,192,74377,1,8,0:0:0:0:
64,192,74377,128,0,74800:0:0:0:0:
448,192,74800,128,2,76490:0:0:0:0:
192,192,75222,1,2,0:0:0:0:
64,192,75222,1,8,0:0:0:0:
320,192,75645,1,2,0:0:0:0:
192,192,76067,1,8,0:0:0:0:
64,192,76067,1,2,0:0:0:0:
320,192,76490,128,2,78180:0:0:0:0:
64,192,76912,1,8,0:0:0:0:
448,192,76912,1,2,0:0:0:0:
192,192,77335,1,2,0:0:0:0:
64,192,77757,1,2,0:0:0:0:
448,192,77757,1,8,0:0:0:0:
192,192,78180,128,2,79870:0:0:0:0:
448,192,78603,1,2,0:0:0:0:
320,192,78603,1,8,0:0:0:0:
64,192,79025,1,2,0:0:0:0:
448,192,79448,1,8,0:0:0:0:
320,192,79448,1,2,0:0:0:0:
64,192,79870,128,2,81560:0:0:0:0:
448,192,80293,1,8,0:0:0:0:
192,192,80293,1,2,0:0:0:0:
320,192,80715,5,2,0:0:0:0:
448,192,81138,1,2,0:0:0:0:
192,192,81138,1,8,0:0:0:0:
448,192,81560,128,2,83250:0:0:0:0:
320,192,81983,1,2,0:0:0:0:
192,192,81983,1,8,0:0:0:0:
64,192,82405,1,2,0:0:0:0:
192,192,82828,1,8,0:0:0:0:
320,192,82828,1,2,0:0:0:0:
192,192,83250,128,2,84095:0:0:0:0:
448,192,83673,1,8,0:0:0:0:
64,192,83673,1,2,0:0:0:0:
320,192,84095,128,2,84941:0:0:0:0:
64,192,84518,1,2,0:0:0:0:
448,192,84518,1,8,0:0:0:0:
64,192,84941,128,2,86631:0:0:0:0:
448,192,85363,1,2,0:0:0:0:
320,192,85363,1,8,0:0:0:0:
192,192,85786,1,2,0:0:0:0:
320,192,86208,1,8,0:0:0:0:
192,192,86314,1,8,0:0:0:0:
448,192,86419,1,2,0:0:0:0:
320,192,86631,1,2,0:0:0:0:
192,192,86631,1,2,3:3:0:0:
192,192,86842,1,2,3:3:0:0:
320,192,86842,1,2,0:0:0:0:
64,192,87053,1,8,0:0:0:0:
448,192,87053,1,4,3:3:0:0:
