osu file format v14

[General]
AudioFilename: audio.mp3
AudioLeadIn: 0
PreviewTime: 34236
Countdown: 0
SampleSet: Soft
StackLeniency: 0
Mode: 0
LetterboxInBreaks: 0
WidescreenStoryboard: 0

[Editor]
Bookmarks: 434,7194,32546,33814,34236,35081,35926,36772,40997,47757,54518,57898,58321,58532,58743,58955,59166,59377,59588,59800,60011,60222,60434,61279,68039,81560,86631
DistanceSpacing: 1
BeatDivisor: 4
GridSize: 4
TimelineZoom: 1

[Metadata]
Title:Kanashii Ureshii
TitleUnicode:かなしいうれしい
Artist:frederic
ArtistUnicode:フレデリック
Creator:Otaku_Gamer_45
Version:Shackles of Fate Smothered Beneath the Machinations of Circumstance
Source:
Tags:
BeatmapID:1946029
BeatmapSetID:932018

[Difficulty]
HPDrainRate:0
CircleSize:4
OverallDifficulty:7
ApproachRate:7
SliderMultiplier:2
SliderTickRate:1

[Events]
//Background and Video events
0,0,"aa.png",0,0
//Break Periods
//Storyboard Layer 0 (Background)
//Storyboard Layer 1 (Fail)
//Storyboard Layer 2 (Pass)
//Storyboard Layer 3 (Foreground)
//Storyboard Sound Samples

[TimingPoints]
434,422.535211267606,4,2,0,100,1,0
1279,-57.1428571428571,4,2,0,100,0,0
2124,-40,4,2,0,100,0,0
2969,-250,4,2,0,100,0,0
3391,-333.333333333333,4,2,0,100,0,0
3814,-100,4,2,0,100,0,0
4025,-50,4,2,0,100,0,0
4448,-100,4,2,0,100,0,0
7617,-66.6666666666667,4,2,0,100,0,0
8039,-100,4,2,0,100,0,0
9729,-57.1428571428571,4,2,0,100,0,0
10152,-71.4285714285714,4,2,0,100,0,0
10574,-100,4,2,0,100,0,0
10997,-66.6666666666667,4,2,0,100,0,0
11419,-100,4,2,0,100,0,0
13110,-57.1428571428571,4,2,0,100,0,0
14377,-58.8235294117647,4,2,0,100,0,0
14800,-100,4,2,0,100,0,0
16490,-57.1428571428571,4,2,0,100,0,0
17124,-71.4285714285714,4,2,0,100,0,0
17335,-100,4,2,0,100,0,0
17757,-66.6666666666667,4,2,0,100,0,0
18180,-100,4,2,0,100,0,0
18814,-76.9230769230769,4,2,0,100,0,0
19025,-71.4285714285714,4,2,0,100,0,0
19659,-57.1428571428571,4,2,0,100,0,0
20715,-62.5,4,2,0,100,0,0
21560,-95.2380952380952,4,2,0,100,0,0
23039,-57.1428571428571,4,2,0,100,0,0
23462,-71.4285714285714,4,2,0,100,0,0
24095,-62.5,4,2,0,100,0,0
26631,-57.1428571428571,4,2,0,100,0,0
27476,-93.4579439252336,4,2,0,100,0,0
27898,-62.5,4,2,0,100,0,0
34236,-100,4,2,0,100,0,0
34659,-102.040816326531,4,2,0,100,0,0
35081,-57.1428571428571,4,2,0,100,0,0
35504,-57.8034682080925,4,2,0,100,0,0
35926,-40,4,2,0,100,0,0
36349,-40.4858299595142,4,2,0,100,0,0
36772,-57.1428571428571,4,2,0,100,0,0
37194,-588.235294117647,4,2,0,100,0,0
40152,-76.9230769230769,4,2,0,100,0,0
40997,-100,4,2,0,100,0,0
41419,-102.040816326531,4,2,0,100,0,0
41842,-57.1428571428571,4,2,0,100,0,0
42264,-57.8034682080925,4,2,0,100,0,0
42687,-40,4,2,0,100,0,0
43110,-40.4858299595142,4,2,0,100,0,0
43532,-57.1428571428571,4,2,0,100,0,0
43955,-555.555555555556,4,2,0,100,0,0
47757,-100,4,2,0,100,0,0
48603,-66.6666666666667,4,2,0,100,0,0
49448,-50,4,2,0,100,0,0
50293,-66.6666666666667,4,2,0,100,0,0
51138,-100,4,2,0,100,0,0
51983,-66.6666666666667,4,2,0,100,0,0
52828,-80,4,2,0,100,0,0
53673,-50,4,2,0,100,0,0
57053,-333.333333333333,4,2,0,100,0,0
58321,-100,4,2,0,100,0,0
58532,-83.3333333333333,4,2,0,100,0,0
58743,-71.4285714285714,4,2,0,100,0,0
58955,-62.5,4,2,0,100,0,0
59166,-55.5555555555556,4,2,0,100,0,0
59377,-50,4,2,0,100,0,0
59588,-40,4,2,0,100,0,0
59800,-37.037037037037,4,2,0,100,0,0
60011,-34.4827586206897,4,2,0,100,0,0
60222,-32.258064516129,4,2,0,100,0,0
60434,-28.5714285714286,4,2,0,100,0,0
61279,-57.1428571428571,4,2,0,100,0,0
62124,-57.4712643678161,4,2,0,100,0,0
62969,-57.1428571428571,4,2,0,100,0,0
63814,-57.4712643678161,4,2,0,100,0,0
64448,-66.6666666666667,4,2,0,100,0,0
68039,-57.1428571428571,4,2,0,100,0,0

[Colours]
Combo1 : 128,128,255
Combo2 : 247,159,203
Combo3 : 68,191,238

[HitObjects]
157,201,434,6,0,P|206:207|254:192,1,100
157,201,856,1,0,0:0:0:0:
254,192,1067,1,0,0:0:0:0:
89,176,1279,22,0,B|112:179|136:192|136:192|193:225|255:192,1,175.00000166893
89,176,1701,1,0,0:0:0:0:
255,192,1912,1,0,0:0:0:0:
17,192,2124,6,0,B|76:158|136:192|136:192|193:225|256:192,1,250
17,192,2546,1,0,0:0:0:0:
255,192,2757,1,0,0:0:0:0:
346,200,2969,22,0,P|375:203|405:200,1,60
405,200,3391,6,0,P|427:198|449:200,1,44.999998626709
309,325,3814,21,0,0:0:0:0:
450,347,4025,2,0,P|389:278|309:325,1,200
165,331,4448,6,0,P|237:346|309:324,1,150
309,323,4870,2,0,P|286:335|263:343,1,50
165,331,5081,1,0,0:0:0:0:
309,324,5293,1,0,0:0:0:0:
379,348,5504,21,0,0:0:0:0:
333,259,5926,1,0,0:0:0:0:
276,152,6349,1,0,0:0:0:0:
198,0,6772,1,0,0:0:0:0:
26,104,6983,5,0,0:0:0:0:
26,104,7088,1,0,0:0:0:0:
26,104,7194,2,0,L|144:206,1,150
139,202,7617,22,0,L|26:104,1,150
139,202,8039,6,0,L|214:267,1,100
214,267,8356,1,0,0:0:0:0:
214,267,8462,1,0,0:0:0:0:
139,202,8673,1,0,0:0:0:0:
214,267,8884,2,0,L|289:332,1,100
289,332,9201,1,0,0:0:0:0:
289,332,9307,1,0,0:0:0:0:
340,153,9518,21,0,0:0:0:0:
340,153,9624,1,0,0:0:0:0:
340,153,9729,2,0,P|348:193|314:217,1,87.500000834465
315,218,9941,2,0,P|306:177|340:153,1,87.500000834465
340,153,10152,2,0,L|312:225,1,69.9999978637696
314,218,10363,2,0,L|340:153,1,69.9999978637696
368,70,10574,5,0,0:0:0:0:
512,30,10786,1,0,0:0:0:0:
368,70,10997,2,0,L|512:31,1,150.000005722046
368,70,11419,2,0,L|271:95,1,100
271,95,11736,1,0,0:0:0:0:
271,95,11842,2,0,L|174:120,1,100
271,95,12264,1,0,0:0:0:0:
174,119,12476,1,0,0:0:0:0:
271,95,12687,2,0,L|368:70,1,100
340,153,13110,22,0,P|348:193|314:217,1,87.500000834465
313,217,13321,2,0,P|278:240|286:281,1,87.500000834465
286,281,13532,2,0,P|294:321|260:345,1,87.500000834465
259,345,13743,2,0,P|251:304|285:280,1,87.500000834465
313,217,13955,5,0,0:0:0:0:
174,119,14166,1,0,0:0:0:0:
313,217,14377,2,0,L|243:167,1,85.0000016212464
174,119,14588,1,0,0:0:0:0:
312,217,14800,2,0,P|376:179|402:110,1,150
402,110,15222,2,0,L|319:53,1,100
402,110,15645,1,0,0:0:0:0:
319,53,15856,1,0,0:0:0:0:
402,110,16067,1,0,0:0:0:0:
319,53,16279,21,0,0:0:0:0:
319,53,16384,1,0,0:0:0:0:
319,53,16490,2,0,P|308:92|267:99,1,87.500000834465
268,100,16701,2,0,P|277:59|318:52,1,87.500000834465
319,53,16912,2,0,P|308:92|267:99,1,87.500000834465
266,99,17124,2,0,L|322:49,1,69.9999978637696
377,0,17335,5,0,0:0:0:0:
266,99,17546,1,0,0:0:0:0:
377,0,17757,2,0,L|265:99,1,150.000005722046
377,0,18180,2,0,L|451:66,1,100
451,66,18497,1,0,0:0:0:0:
451,66,18603,1,0,0:0:0:0:
377,0,18814,2,0,L|328:43,1,64.9999970245363
261,95,19025,2,0,L|208:48,1,69.9999978637696
209,49,19236,2,0,L|264:98,1,69.9999978637696
320,148,19448,1,0,0:0:0:0:
209,49,19659,21,0,0:0:0:0:
209,49,19764,1,0,0:0:0:0:
209,49,19870,2,0,P|169:35|142:66,1,87.500000834465
142,66,20081,1,0,0:0:0:0:
142,66,20187,1,0,0:0:0:0:
142,66,20293,2,0,P|114:96|75:83,1,87.500000834465
75,83,20504,2,0,P|102:52|141:65,1,87.500000834465
209,49,20715,5,0,0:0:0:0:
364,11,20926,1,0,0:0:0:0:
209,49,21138,2,0,L|365:11,1,160
209,49,21560,2,0,L|102:75,1,104.999996795654
106,73,21877,1,0,0:0:0:0:
106,73,21983,1,0,0:0:0:0:
209,49,22194,1,0,0:0:0:0:
106,73,22405,2,0,L|-1:99,1,104.999996795654
3,97,22722,1,0,0:0:0:0:
3,97,22828,1,0,0:0:0:0:
143,241,23039,21,0,0:0:0:0:
143,241,23145,1,0,0:0:0:0:
143,241,23250,2,0,P|158:203|130:172,1,87.500000834465
129,172,23462,2,0,L|146:255,1,69.9999978637696
144,240,23673,2,0,L|129:172,1,69.9999978637696
129,172,23884,2,0,L|146:255,1,69.9999978637696
158,317,24095,5,0,0:0:0:0:
0,338,24307,1,0,0:0:0:0:
158,317,24518,2,0,L|78:327,1,80
0,338,24729,2,0,L|158:317,1,160
0,338,25152,1,0,0:0:0:0:
0,338,25257,1,0,0:0:0:0:
0,338,25363,1,0,0:0:0:0:
157,317,25574,1,0,0:0:0:0:
315,296,25786,1,0,0:0:0:0:
157,317,25997,1,0,0:0:0:0:
315,296,26208,2,0,L|157:317,1,160
336,133,26631,21,0,0:0:0:0:
336,133,26736,1,0,0:0:0:0:
336,133,26842,2,0,P|321:171|280:175,1,87.500000834465
278,174,27053,2,0,P|236:176|220:215,1,87.500000834465
278,174,27264,2,0,P|263:212|222:216,1,87.500000834465
336,133,27476,6,0,L|421:269,1,160.499995101929
421,269,27898,2,0,L|336:133,1,160
421,269,28321,1,0,0:0:0:0:
421,269,29166,1,0,0:0:0:0:
506,132,29377,1,0,0:0:0:0:
421,269,29588,1,0,0:0:0:0:
336,133,29800,21,0,0:0:0:0:
336,133,29905,1,0,0:0:0:0:
336,133,30011,2,0,L|378:200,1,80
421,269,30222,2,0,L|378:201,1,80
336,133,30434,2,0,L|378:200,1,80
421,269,30645,2,0,L|378:201,1,80
336,133,30856,5,0,0:0:0:0:
421,269,31067,1,0,0:0:0:0:
506,132,31279,1,0,0:0:0:0:
421,269,31490,1,0,0:0:0:0:
420,109,31701,1,0,0:0:0:0:
256,192,32546,21,0,0:0:0:0:
256,192,32652,1,0,0:0:0:0:
256,192,32757,1,0,0:0:0:0:
256,192,32863,1,0,0:0:0:0:
256,192,32969,1,0,0:0:0:0:
256,192,33074,1,0,0:0:0:0:
256,192,33180,1,0,0:0:0:0:
256,192,33286,1,0,0:0:0:0:
256,192,33391,1,0,0:0:0:0:
256,192,33497,1,0,0:0:0:0:
256,192,33603,1,0,0:0:0:0:
256,192,33708,1,0,0:0:0:0:
176,192,33814,5,0,0:0:0:0:
209,295,34236,6,0,B|233:289|233:289|256:300,1,50
302,304,34448,2,0,B|278:310|278:310|256:300,1,50
209,295,34659,2,0,B|233:290|233:290|278:310|278:310|302:304,1,97.9999991027832
338,287,35081,2,0,B|297:281|297:281|256:300,1,87.500000834465
173,312,35293,2,0,B|214:318|214:318|256:300,1,87.500000834465
338,287,35504,2,0,B|297:281|297:281|215:319|215:319|174:312,1,173.000004223633
138,286,35926,2,0,B|199:274|199:274|255:299,1,125
374,314,36138,2,0,B|312:325|312:325|256:300,1,125
138,286,36349,2,0,B|200:275|200:275|312:325|312:325|372:315,1,247.000009516526
338,287,36772,2,0,B|297:281|297:281|256:300,1,87.500000834465
173,312,36984,2,0,B|214:318|214:318|256:300,1,87.500000834465
338,287,37194,2,0,B|297:281|297:281|214:318|214:318|176:313,1,170.000001037598
256,192,39729,1,0,0:0:0:0:
374,314,40152,2,0,B|436:337|436:337|498:302,1,129.999994049073
491,305,40469,2,0,B|468:242|468:242|408:220,1,129.999994049073
409,221,40786,2,0,B|379:211|379:211|359:184,1,64.9999970245363
305,90,40997,22,0,B|280:96|256:84,1,50
208,79,41208,2,0,B|232:72|256:84,1,50
305,90,41419,2,0,B|280:95|258:85|258:85|233:73|210:79,1,97.9999991027832
171,97,41842,2,0,B|213:103|256:84,1,87.500000834465
340,70,42053,2,0,B|298:64|256:84,1,87.500000834465
171,97,42264,2,0,B|213:103|255:83|255:83|297:63|340:71,1,173.000004223633
376,98,42687,2,0,B|314:110|255:84,1,125
133,70,42898,2,0,B|196:57|255:84,1,125
376,98,43110,2,0,B|311:109|252:83|252:83|194:57|134:70,1,247.000009516526
171,97,43532,2,0,B|213:103|256:84,1,87.500000834465
340,70,43743,2,0,B|298:64|256:84,1,87.500000834465
171,97,43955,2,0,B|213:103|255:83|255:83|297:65|337:69,1,171.000004174805
337,69,46067,1,0,0:0:0:0:
171,97,46490,1,0,0:0:0:0:
376,98,46912,1,0,0:0:0:0:
133,70,47335,1,0,0:0:0:0:
477,328,47757,6,0,B|427:314|427:314|387:286,1,100
387,286,48074,2,0,B|436:284|436:284|482:266,1,100
483,266,48391,2,0,B|466:245|466:245|456:222,1,50
413,89,48603,22,0,P|351:43|276:39,1,150.000005722046
280,39,48919,2,0,P|339:81|365:150,1,150.000005722046
365,151,49236,2,0,P|330:164|303:190,1,75.0000028610231
200,326,49448,6,0,B|120:387|120:387|28:348,1,200
28,348,49764,2,0,B|125:333|125:333|161:239,1,200
162,238,50081,2,0,B|113:234|113:234|81:194,1,100
75,70,50293,22,0,P|128:15|201:0,1,150.000005722046
197,0,50609,2,0,P|144:50|129:123,1,150.000005722046
129,123,50926,2,0,P|164:130|195:151,1,75.0000028610231
313,295,51138,6,0,B|344:332|344:332|389:358,1,100
388,357,51455,2,0,B|416:317|416:317|430:267,1,100
430,267,51772,2,0,B|436:240|436:240|448:221,1,50
481,87,51983,22,0,P|429:29|357:9,1,150.000005722046
362,10,52300,2,0,P|337:79|354:151,1,150.000005722046
354,151,52617,2,0,P|360:188|350:224,1,75.0000028610231
240,362,52828,6,0,B|181:383|181:383|121:366,1,125
121,365,53145,2,0,B|131:303|131:303|176:260,1,125
176,260,53462,2,0,B|201:236|201:236|207:209,1,62.5
157,50,53673,22,0,P|68:17|5:87,1,200
5,87,53990,2,0,P|51:168|145:155,1,200
145,155,54307,2,0,P|186:128|235:129,1,100
418,192,54518,21,0,0:0:0:0:
418,192,54941,1,0,0:0:0:0:
418,192,55363,1,0,0:0:0:0:
96,192,55574,1,0,0:0:0:0:
419,192,55786,1,0,0:0:0:0:
419,192,55891,1,0,0:0:0:0:
96,192,56208,1,0,0:0:0:0:
96,192,56631,1,0,0:0:0:0:
256,297,57053,2,0,L|256:192,1,104.999996795654
256,147,57898,2,0,L|256:192,1,44.999998626709
305,187,58321,6,0,P|280:186|255:192,1,50
196,197,58532,6,0,B|226:199|226:199|256:191,1,59.9999981689454
322,173,58743,22,0,P|288:178|256:191,1,69.9999978637696
180,213,58955,6,0,B|219:207|219:207|255:192,1,80
334,148,59166,22,0,P|292:166|256:191,1,89.9999972534181
169,239,59377,6,0,B|215:220|215:220|255:192,1,100
344,106,59588,22,0,P|294:142|255:192,1,125
159,285,59800,6,0,B|214:245|214:245|256:191,1,135.000000514984
308,61,60011,22,0,P|267:121|256:191,1,145.000004425049
199,332,60222,6,0,B|243:268|243:268|255:192,1,155.000001182556
242,25,60434,22,0,P|226:110|256:192,1,175.00000166893
270,354,60645,6,0,B|295:269|295:269|256:192,1,175.00000166893
417,192,61279,22,0,B|337:131|256:192|256:192|176:253|96:192,1,350.00000333786
417,192,61912,1,0,0:0:0:0:
96,192,62124,6,0,B|133:214|133:214|176:222|176:222|218:214|218:214|256:192|256:192|293:169|293:169|336:161|336:161|378:169|378:169|417:192,1,348.000002920532
96,192,62757,1,0,0:0:0:0:
417,192,62969,22,0,B|337:253|256:192|256:192|176:131|96:192,1,350.00000333786
417,192,63602,1,0,0:0:0:0:
96,192,63814,6,0,B|133:170|133:170|176:162|176:162|218:170|218:170|256:192|256:192|293:215|293:215|336:223|336:223|378:215|378:215|417:192,1,348.000002920532
95,76,64448,22,0,P|55:134|96:192,1,150.000005722046
95,77,64870,1,0,0:0:0:0:
95,306,65081,1,0,0:0:0:0:
96,192,65293,1,0,0:0:0:0:
95,306,65504,2,0,P|136:249|96:192,1,150.000005722046
96,192,65821,1,0,0:0:0:0:
96,192,65926,1,0,0:0:0:0:
95,307,66138,1,0,0:0:0:0:
96,192,66349,1,0,0:0:0:0:
95,76,66560,1,0,0:0:0:0:
95,306,66772,1,0,0:0:0:0:
96,192,66983,1,0,0:0:0:0:
96,76,67194,2,0,P|136:134|96:192,1,150.000005722046
95,192,67511,1,0,0:0:0:0:
96,191,67617,2,0,P|54:249|95:307,1,150.000005722046
339,308,68039,6,0,B|300:295|300:295|255:308,1,87.500000834465
171,307,68250,2,0,B|210:320|210:320|255:308,1,87.500000834465
339,308,68462,2,0,B|299:295|299:295|212:320|212:320|172:308,1,175.00000166893
339,308,68884,2,0,B|300:320|300:320|255:307,1,87.500000834465
171,308,69095,2,0,B|209:295|209:295|254:307,1,87.500000834465
339,308,69307,2,0,B|299:321|299:321|212:296|212:296|172:308,1,175.00000166893
