osu file format v14

[General]
AudioFilename: audio.mp3
AudioLeadIn: 0
PreviewTime: 171572
Countdown: 0
SampleSet: Soft
StackLeniency: 0.4
Mode: 0
LetterboxInBreaks: 0
WidescreenStoryboard: 1

[Editor]
Bookmarks: 1072,15472,28272,44072,56872,69872,82672,95472,111272,124072,136872,149872,162472,172072,184872,201072
DistanceSpacing: 0.6
BeatDivisor: 8
GridSize: 32
TimelineZoom: 2

[Metadata]
Title:Junkie
TitleUnicode:ジャンキー
Artist:frederic
ArtistUnicode:フレデリック
Creator:elicz1
Version:floph's Expert
Source:
Tags:zelq cjstmdals flake moph X Light X_Light KoldNoodl Elayue Dailycare japanese pop rock jpop j-pop jrock j-rock indie monday tuesday wednesday thursday friday saturday sunday love aki desu des frederhythm3 OWC osu! world cup 2023 RO32 NM3 owc2023ro32nm3 round of
BeatmapID:4411600
BeatmapSetID:2078299

[Difficulty]
HPDrainRate:5.5
CircleSize:3.8
OverallDifficulty:9
ApproachRate:9.4
SliderMultiplier:2.5
SliderTickRate:1

[Events]
//Background and Video events
0,0,"BG.jpg",0,0
Video,-2900,"Music_Video_Frederic_Junkie.mp4"
//Break Periods
//Storyboard Layer 0 (Background)
//Storyboard Layer 1 (Fail)
//Storyboard Layer 2 (Pass)
//Storyboard Layer 3 (Foreground)
//Storyboard Layer 4 (Overlay)
//Storyboard Sound Samples

[TimingPoints]
1072,400,4,2,0,50,1,0
2172,-100,4,2,0,55,0,0
2372,-100,4,2,0,58,0,0
2472,-100,4,2,0,61,0,0
2572,-100,4,2,0,64,0,0
2672,-50,4,2,0,70,0,0
2872,-66.6666666666667,4,2,0,70,0,0
3072,-50,4,2,0,70,0,0
4072,-80,4,2,0,70,0,0
4272,-50,4,2,0,70,0,0
5272,-66.6666666666667,4,2,0,70,0,0
5672,-50,4,2,0,70,0,0
5872,-50,4,2,0,50,0,0
6272,-40,4,2,0,70,0,0
6672,-50,4,2,0,70,0,0
6972,-66.6666666666667,4,2,0,70,0,0
7472,-100,4,2,0,70,0,0
8072,-125,4,2,0,70,0,0
8472,-166.666666666667,4,2,0,70,0,0
8872,-40,4,2,0,70,0,0
9072,-50,4,2,0,70,0,0
9272,-66.6666666666667,4,2,0,70,0,0
9472,-50,4,2,0,70,0,0
10472,-66.6666666666667,4,2,0,70,0,0
10672,-50,4,2,0,70,0,0
11272,-50,4,2,0,5,0,0
11372,-50,4,2,0,70,0,0
11472,-66.6666666666667,4,2,0,70,0,0
11672,-80,4,2,0,70,0,0
11872,-66.6666666666667,4,2,0,70,0,0
12072,-80,4,2,0,70,0,0
12872,-80,4,2,0,67,0,0
13272,-80,4,2,0,64,0,0
13672,-80,4,2,0,61,0,0
14072,-80,4,2,0,58,0,0
14272,-80,4,2,0,70,0,0
14372,-80,4,2,0,66,0,0
14472,-80,4,2,0,63,0,0
14572,-80,4,2,0,60,0,0
14672,-40,4,2,0,60,0,0
15472,-200,4,2,0,55,0,0
15872,-100,4,2,0,55,0,0
16272,-133.333333333333,4,2,0,55,0,0
24472,-133.333333333333,4,2,0,5,0,0
24672,-133.333333333333,4,2,0,55,0,0
25372,-133.333333333333,4,2,0,5,0,0
25472,-133.333333333333,4,2,0,55,0,0
28272,-133.333333333333,4,2,0,60,0,0
30922,-133.333333333333,4,2,0,5,0,0
31072,-133.333333333333,4,2,0,60,0,0
31122,-133.333333333333,4,2,0,5,0,0
31272,-133.333333333333,4,2,0,60,0,0
34122,-133.333333333333,4,2,0,5,0,0
34272,-133.333333333333,4,2,0,60,0,0
34322,-133.333333333333,4,2,0,5,0,0
34472,-133.333333333333,4,2,0,60,0,0
37072,-100,4,2,0,60,0,0
37672,-100,4,2,0,65,0,0
38072,-100,4,2,0,62,0,0
39272,-100,4,2,0,68,0,0
39672,-100,4,2,0,65,0,0
40272,-100,4,2,0,60,0,0
40472,-100,4,2,0,64,0,0
40672,-100,4,2,0,68,0,0
40872,-100,4,2,0,72,0,0
40897,-100,4,2,1,40,0,0
41072,-100,4,2,0,70,0,0
42472,-100,4,2,0,65,0,0
42872,-100,4,2,0,55,0,0
44072,-40,4,2,0,75,0,0
44472,-66.6666666666667,4,2,0,70,0,0
44672,-50,4,2,0,70,0,0
44872,-66.6666666666667,4,2,0,70,0,0
45372,-80,4,2,0,70,0,0
45672,-100,4,2,0,70,0,0
45872,-80,4,2,0,70,0,0
46672,-66.6666666666667,4,2,0,70,0,0
47272,-200,4,2,0,80,0,0
47672,-200,4,2,0,65,0,0
47772,-200,4,2,0,5,0,0
47872,-40,4,2,0,75,0,0
48072,-66.6666666666667,4,2,0,75,0,0
48172,-66.6666666666667,4,2,0,70,0,0
48472,-80,4,2,0,70,0,0
48872,-100,4,2,0,70,0,0
49072,-80,4,2,0,70,0,0
49872,-44.4444444444445,4,2,0,70,0,0
50672,-250,4,2,0,70,0,0
51672,-66.6666666666667,4,2,0,70,0,0
52272,-40,4,2,0,70,0,0
53072,-66.6666666666667,4,2,0,70,0,0
53472,-66.6666666666667,4,2,0,70,0,0
54472,-250,4,2,0,70,0,0
54872,-66.6666666666667,4,2,0,70,0,0
56272,-100,4,2,0,70,0,0
56472,-50,4,2,0,70,0,0
56872,-50,4,2,0,75,0,0
57272,-66.6666666666667,4,2,0,70,0,0
57472,-50,4,2,0,70,0,0
57672,-66.6666666666667,4,2,0,70,0,0
58172,-80,4,2,0,70,0,0
58472,-100,4,2,0,70,0,0
58672,-80,4,2,0,70,0,0
59472,-66.6666666666667,4,2,0,70,0,0
59872,-44.4444444444445,4,2,0,70,0,0
60072,-200,4,2,0,80,0,0
60472,-200,4,2,0,65,0,0
60672,-40,4,2,0,75,0,0
60872,-66.6666666666667,4,2,0,75,0,0
60972,-66.6666666666667,4,2,0,70,0,0
61272,-80,4,2,0,70,0,0
61672,-100,4,2,0,70,0,0
61872,-80,4,2,0,70,0,0
62672,-44.4444444444445,4,2,0,70,0,0
63472,-250,4,2,0,70,0,0
64472,-66.6666666666667,4,2,0,70,0,0
65072,-40,4,2,0,70,0,0
65872,-66.6666666666667,4,2,0,70,0,0
66272,-66.6666666666667,4,2,0,65,0,0
66672,-66.6666666666667,4,2,0,75,0,0
66872,-66.6666666666667,4,2,0,70,0,0
67272,-66.6666666666667,4,2,0,65,0,0
67472,-66.6666666666667,4,2,0,70,0,0
67672,-66.6666666666667,4,2,0,65,0,0
68072,-66.6666666666667,4,2,0,60,0,0
68272,-66.6666666666667,4,2,0,65,0,0
68472,-66.6666666666667,4,2,0,60,0,0
68872,-66.6666666666667,4,2,0,55,0,0
69072,-66.6666666666667,4,2,0,65,0,0
69372,-66.6666666666667,4,2,0,55,0,0
69672,-66.6666666666667,4,2,0,65,0,0
69872,-66.6666666666667,4,2,0,70,0,0
70672,-50,4,2,0,70,0,0
71072,-57.1428571428571,4,2,0,70,0,0
71272,-80,4,2,0,70,0,0
71472,-50,4,2,0,70,0,0
73072,-50,4,2,0,50,0,0
73172,-50,4,2,1,55,0,0
73272,-50,4,2,0,60,0,0
73372,-50,4,2,1,65,0,0
73472,-40,4,2,0,70,0,0
73872,-50,4,2,0,70,0,0
74272,-66.6666666666667,4,2,0,70,0,0
74472,-50,4,2,0,70,0,0
74672,-100,4,2,0,70,0,0
75272,-125,4,2,0,70,0,0
75672,-166.666666666667,4,2,0,70,0,0
76272,-50,4,2,0,70,0,0
76472,-66.6666666666667,4,2,0,70,0,0
76672,-50,4,2,0,70,0,0
77672,-66.6666666666667,4,2,0,70,0,0
77872,-50,4,2,0,70,0,0
80072,-50,4,2,0,67,0,0
80472,-50,4,2,0,64,0,0
80872,-50,4,2,0,61,0,0
81272,-50,4,2,0,58,0,0
81472,-50,4,2,0,70,0,0
81572,-50,4,2,0,66,0,0
81672,-50,4,2,0,63,0,0
81772,-50,4,2,0,60,0,0
82672,-62.5,4,2,0,55,0,0
85472,-80,4,2,0,55,0,0
85872,-62.5,4,2,0,55,0,0
92072,-50,4,2,0,5,0,0
92172,-62.5,4,2,0,55,0,0
94872,-50,4,2,0,5,0,0
94972,-50,4,2,0,55,0,0
95472,-66.6666666666667,4,2,0,60,0,0
95672,-66.6666666666667,4,2,0,5,0,0
95872,-66.6666666666667,4,2,0,60,0,0
96672,-100,4,2,0,60,0,0
96972,-50,4,2,0,60,0,0
98072,-200,4,2,0,60,0,0
98122,-200,4,2,0,5,0,0
98272,-200,4,2,0,60,0,0
98322,-200,4,2,0,5,0,0
98472,-200,4,2,0,60,0,0
98672,-66.6666666666667,4,2,0,60,0,0
98872,-66.6666666666667,4,2,0,5,0,0
99072,-66.6666666666667,4,2,0,60,0,0
99872,-100,4,2,0,60,0,0
100172,-50,4,2,0,60,0,0
101272,-200,4,2,0,60,0,0
101322,-200,4,2,0,5,0,0
101472,-200,4,2,0,60,0,0
101522,-200,4,2,0,5,0,0
101672,-200,4,2,0,60,0,0
101872,-66.6666666666667,4,2,0,60,0,0
102072,-66.6666666666667,4,2,0,5,0,0
102272,-66.6666666666667,4,2,0,60,0,0
103072,-100,4,2,0,60,0,0
103372,-50,4,2,0,60,0,0
104872,-66.6666666666667,4,2,0,65,0,0
105272,-66.6666666666667,4,2,0,62,0,0
105872,-50,4,2,0,62,0,0
106172,-66.6666666666667,4,2,0,62,0,0
106472,-66.6666666666667,4,2,0,68,0,0
106872,-66.6666666666667,4,2,0,65,0,0
107472,-66.6666666666667,4,2,0,60,0,0
107672,-66.6666666666667,4,2,0,64,0,0
107872,-66.6666666666667,4,2,0,68,0,0
108072,-50,4,2,0,72,0,0
108097,-50,4,2,1,40,0,0
108272,-50,4,2,0,70,0,0
108372,-50,4,2,0,5,0,0
108472,-50,4,2,0,70,0,0
109672,-40,4,2,0,65,0,0
110072,-40,4,2,0,55,0,0
110472,-66.6666666666667,4,2,0,55,0,0
111272,-40,4,2,0,75,0,0
111672,-66.6666666666667,4,2,0,70,0,0
111872,-50,4,2,0,70,0,0
112072,-66.6666666666667,4,2,0,70,0,0
112572,-80,4,2,0,70,0,0
112872,-100,4,2,0,70,0,0
113072,-80,4,2,0,70,0,0
113872,-66.6666666666667,4,2,0,70,0,0
114472,-200,4,2,0,80,0,0
114872,-200,4,2,0,65,0,0
114972,-200,4,2,0,5,0,0
115072,-40,4,2,0,75,0,0
115272,-66.6666666666667,4,2,0,75,0,0
115372,-66.6666666666667,4,2,0,70,0,0
115672,-80,4,2,0,70,0,0
116072,-100,4,2,0,70,0,0
116272,-80,4,2,0,70,0,0
117072,-44.4444444444445,4,2,0,70,0,0
117872,-250,4,2,0,70,0,0
118872,-66.6666666666667,4,2,0,70,0,0
119472,-40,4,2,0,70,0,0
120272,-66.6666666666667,4,2,0,70,0,0
120672,-66.6666666666667,4,2,0,70,0,0
121672,-250,4,2,0,70,0,0
122072,-66.6666666666667,4,2,0,70,0,0
123472,-100,4,2,0,70,0,0
123672,-40,4,2,0,70,0,0
124072,-40,4,2,0,75,0,0
124472,-66.6666666666667,4,2,0,70,0,0
124672,-50,4,2,0,70,0,0
124872,-66.6666666666667,4,2,0,70,0,0
125372,-80,4,2,0,70,0,0
125672,-100,4,2,0,70,0,0
125872,-80,4,2,0,70,0,0
126272,-66.6666666666667,4,2,0,70,0,0
126472,-80,4,2,0,70,0,0
126672,-66.6666666666667,4,2,0,70,0,0
127072,-44.4444444444445,4,2,0,70,0,0
127272,-200,4,2,0,80,0,0
127672,-200,4,2,0,65,0,0
127772,-200,4,2,0,5,0,0
127872,-40,4,2,0,75,0,0
128072,-66.6666666666667,4,2,0,75,0,0
128272,-66.6666666666667,4,2,0,70,0,0
128472,-80,4,2,0,70,0,0
128872,-100,4,2,0,70,0,0
129072,-80,4,2,0,70,0,0
129872,-44.4444444444445,4,2,0,70,0,0
130672,-250,4,2,0,70,0,0
131672,-66.6666666666667,4,2,0,70,0,0
132272,-40,4,2,0,70,0,0
133072,-66.6666666666667,4,2,0,70,0,0
133472,-66.6666666666667,4,2,0,65,0,0
133872,-66.6666666666667,4,2,0,75,0,0
134072,-66.6666666666667,4,2,0,70,0,0
134472,-66.6666666666667,4,2,0,65,0,0
134672,-66.6666666666667,4,2,0,70,0,0
134872,-66.6666666666667,4,2,0,65,0,0
135272,-66.6666666666667,4,2,0,60,0,0
135472,-66.6666666666667,4,2,0,65,0,0
135672,-66.6666666666667,4,2,0,60,0,0
136072,-133.333333333333,4,2,0,55,0,0
136272,-50,4,2,0,65,0,0
136572,-50,4,2,0,55,0,0
136872,-50,4,2,0,75,0,0
137372,-50,4,2,0,60,0,0
137472,-50,4,2,0,75,0,0
137572,-50,4,2,0,60,0,0
137672,-50,4,2,0,75,0,0
137772,-50,4,2,0,60,0,0
137872,-50,4,2,0,75,0,0
137972,-50,4,2,0,60,0,0
138072,-50,4,2,0,75,0,0
138172,-50,4,2,0,60,0,0
138272,-50,4,2,0,80,0,0
138672,-66.6666666666667,4,2,0,60,0,0
138872,-66.6666666666667,4,2,0,70,0,0
139272,-66.6666666666667,4,2,0,60,0,0
139472,-50,4,2,0,65,0,0
140272,-200,4,2,0,60,0,0
140672,-50,4,2,0,65,0,0
141072,-200,4,2,0,60,0,0
141472,-50,4,2,0,65,0,0
142272,-200,4,2,0,60,0,0
142672,-50,4,2,0,70,0,0
142872,-50,4,2,0,50,0,0
143072,-50,4,2,0,65,0,0
143472,-133.333333333333,4,2,0,80,0,0
143772,-133.333333333333,4,2,0,5,0,0
143872,-80,4,2,0,80,0,0
144072,-80,4,2,0,60,0,0
144272,-50,4,2,0,75,0,0
144672,-50,4,2,0,65,0,0
145072,-66.6666666666667,4,2,0,55,0,0
145372,-66.6666666666667,4,2,0,5,0,0
145472,-44.4444444444445,4,2,0,80,0,0
145872,-44.4444444444445,4,2,0,70,0,0
146272,-44.4444444444445,4,2,0,60,0,0
146472,-100,4,2,0,60,0,0
146672,-50,4,2,0,70,0,0
146972,-50,4,2,0,40,0,0
147072,-50,4,2,0,80,0,0
147272,-50,4,2,0,75,0,0
147472,-50,4,2,0,70,0,0
148072,-50,4,2,0,60,0,0
148272,-50,4,2,0,80,0,0
148672,-50,4,2,0,74,0,0
149072,-50,4,2,0,69,0,0
149472,-50,4,2,0,64,0,0
149872,-80,4,2,0,60,0,0
150072,-80,4,2,0,5,0,0
150272,-100,4,2,0,60,0,0
160472,-100,4,2,0,5,0,0
160572,-100,4,2,0,60,0,0
161872,-100,4,2,0,80,0,0
162172,-100,4,2,0,75,0,0
162472,-100,4,2,0,70,0,0
163472,-100,4,2,0,80,0,0
163772,-100,4,2,0,75,0,0
164072,-100,4,2,0,70,0,0
165072,-100,4,2,0,80,0,0
165372,-100,4,2,0,75,0,0
165672,-100,4,2,0,70,0,0
166672,-100,4,2,0,80,0,0
166972,-100,4,2,0,75,0,0
167272,-100,4,2,0,70,0,0
168272,-100,4,2,0,85,0,0
168472,-100,4,2,0,5,0,0
168572,-100,4,2,0,75,0,0
168772,-100,4,2,0,5,0,0
168872,-100,4,2,0,80,0,0
169272,-100,4,2,0,60,0,0
169372,-100,4,2,0,5,0,0
169472,-100,4,2,0,60,0,0
169872,-100,4,2,0,63,0,0
169972,-100,4,2,0,66,0,0
170072,-100,4,2,0,69,0,0
170172,-100,4,2,0,72,0,0
170272,-100,4,2,0,75,0,0
170372,-100,4,2,0,78,0,0
170472,-100,4,2,0,80,0,0
171472,-100,4,2,0,5,0,0
172072,-40,4,2,0,75,0,0
172472,-66.6666666666667,4,2,0,70,0,0
172672,-50,4,2,0,70,0,0
172872,-66.6666666666667,4,2,0,70,0,0
173372,-80,4,2,0,70,0,0
173672,-100,4,2,0,70,0,0
173872,-80,4,2,0,70,0,0
174672,-66.6666666666667,4,2,0,70,0,0
175272,-200,4,2,0,80,0,0
175672,-200,4,2,0,65,0,0
175772,-200,4,2,0,5,0,0
175872,-40,4,2,0,75,0,0
176072,-66.6666666666667,4,2,0,75,0,0
176172,-66.6666666666667,4,2,0,70,0,0
176472,-80,4,2,0,70,0,0
176872,-100,4,2,0,70,0,0
177072,-80,4,2,0,70,0,0
177872,-44.4444444444445,4,2,0,70,0,0
178672,-250,4,2,0,70,0,0
179672,-66.6666666666667,4,2,0,70,0,0
180272,-40,4,2,0,70,0,0
181072,-66.6666666666667,4,2,0,70,0,0
182472,-250,4,2,0,70,0,0
182872,-60.6060606060606,4,2,0,70,0,0
183472,-66.6666666666667,4,2,0,70,0,0
184272,-100,4,2,0,70,0,0
184472,-50,4,2,0,70,0,0
184872,-50,4,2,0,75,0,0
185272,-50,4,2,0,70,0,0
185472,-50,4,2,0,70,0,0
185672,-66.6666666666667,4,2,0,70,0,0
186172,-80,4,2,0,70,0,0
186472,-100,4,2,0,70,0,0
186672,-80,4,2,0,70,0,0
187472,-66.6666666666667,4,2,0,70,0,0
187872,-44.4444444444445,4,2,0,70,0,0
188072,-200,4,2,0,80,0,0
188472,-200,4,2,0,65,0,0
188572,-200,4,2,0,5,0,0
188672,-40,4,2,0,65,0,0
188872,-66.6666666666667,4,2,0,65,0,0
189072,-66.6666666666667,4,2,0,70,0,0
189272,-80,4,2,0,70,0,0
189672,-100,4,2,0,70,0,0
189872,-80,4,2,0,70,0,0
190672,-44.4444444444445,4,2,0,70,0,0
191472,-250,4,2,0,70,0,0
192472,-66.6666666666667,4,2,0,70,0,0
193072,-40,4,2,0,70,0,0
193872,-66.6666666666667,4,2,0,70,0,0
194272,-66.6666666666667,4,2,0,65,0,0
196272,-66.6666666666667,4,2,0,70,0,0
197272,-66.6666666666667,4,2,0,5,0,0
197372,-66.6666666666667,4,2,0,70,0,0
197572,-66.6666666666667,4,2,0,5,0,0
197672,-66.6666666666667,4,2,0,70,0,0
197872,-100,4,2,0,80,0,0
198672,-66.6666666666667,4,2,0,80,0,0
199272,-80,4,2,0,80,0,0
199472,-57.1428571428571,4,2,0,80,0,0
200272,-57.1428571428571,4,2,0,5,0,0
201072,-57.1428571428571,4,2,0,70,0,0
204272,-57.1428571428571,4,2,0,50,0,0
204672,-57.1428571428571,4,2,0,70,0,0
211272,-57.1428571428571,4,2,0,67,0,0
211672,-57.1428571428571,4,2,0,64,0,0
212072,-57.1428571428571,4,2,0,61,0,0
212472,-57.1428571428571,4,2,0,58,0,0
212672,-57.1428571428571,4,2,0,70,0,0
212772,-57.1428571428571,4,2,0,66,0,0
212872,-57.1428571428571,4,2,0,63,0,0
212972,-57.1428571428571,4,2,0,60,0,0

[Colours]
Combo1 : 135,199,207
Combo2 : 215,142,184

[HitObjects]
256,192,1072,5,0,1:2:0:0:
300,127,1472,5,0,1:2:0:0:
375,148,1872,5,2,1:2:0:0:
300,127,2172,1,2,1:2:0:0:
256,192,2372,5,2,3:2:0:0:
262,202,2472,1,2,1:2:0:0:
270,214,2572,1,2,3:2:0:0:
341,251,2672,6,0,P|283:243|246:301,1,125,4|0,1:1|0:0,0:2:0:0:
128,343,2872,2,0,P|173:343|215:380,1,93.7500035762788,0|0,0:2|3:2,0:0:0:0:
270,214,3072,2,0,P|211:214|156:165,1,125,10|0,1:2|0:2,0:2:0:0:
123,29,3272,5,2,0:2:0:0:
20,92,3372,1,2,0:2:0:0:
9,87,3472,2,0,B|37:5|137:31|132:106|132:106|96:117|88:160,1,250,2|0,1:3|0:2,0:2:0:0:
19,178,3772,5,0,3:2:0:0:
0,263,3872,2,0,P|60:279|89:214,1,125,10|0,1:2|0:2,0:2:0:0:
279,133,4072,2,0,P|246:112|208:113,1,78.125,2|0,3:2|0:2,0:2:0:0:
208,112,4272,6,0,P|208:56|261:11,1,125,2|0,1:2|0:0,0:0:0:0:
352,140,4472,5,2,0:2:0:0:
350,29,4572,1,2,0:2:0:0:
350,29,4672,6,0,P|375:84|352:140,1,125,10|2,1:1|3:2,0:0:0:0:
404,294,4872,5,0,0:0:0:0:
357,360,4972,1,2,3:2:0:0:
367,366,5072,2,0,P|449:361|480:329,1,125,2|0,1:1|0:0,0:2:0:0:
428,220,5272,2,0,P|382:216|345:243,1,93.7500035762788,0|0,0:2|3:2,0:0:0:0:
488,345,5472,6,0,P|510:304|506:255,1,93.7500035762788,10|0,1:1|0:2,0:2:0:0:
284,197,5672,2,0,P|255:250|260:314,1,125,2|0,3:1|0:2,0:2:0:0:
210,378,5872,5,2,1:2:0:0:
41,352,6072,1,2,0:0:0:0:
210,378,6272,6,0,B|32:352|61:158|165:87|268:175|242:333|75:342|81:334|54:184,1,468.75,14|2,1:2|3:2,0:0:0:0:
41,352,6672,6,0,P|3:310|10:233,1,125,2|0,1:2|0:0,0:2:0:0:
46,178,6872,1,0,0:2:0:0:
136,174,6972,5,0,3:2:0:0:
136,174,7072,2,0,P|159:136|156:86,1,93.7500035762788,10|0,1:2|0:2,0:2:0:0:
34,65,7272,2,0,P|11:103|14:153,1,93.7500035762788,2|0,3:2|0:2,0:2:0:0:
150,328,7472,6,0,L|225:314,1,62.5,2|0,1:2|0:0,0:2:0:0:
292,316,7672,5,0,0:2:0:0:
352,384,7772,1,0,0:0:0:0:
436,348,7872,2,0,P|444:318|439:287,1,62.5,10|2,1:2|0:2,0:0:0:0:
496,219,8072,5,2,0:2:0:0:
441,272,8172,1,2,0:2:0:0:
373,243,8272,2,0,P|364:212|369:180,1,50,2|0,1:2|0:0,0:0:0:0:
340,131,8472,5,8,3:1:0:0:
377,167,8572,1,0,0:0:0:0:
423,147,8672,2,0,P|428:126|425:104,1,37.4999988555909,8|0,1:2|0:0,0:0:0:0:
112,59,8872,6,0,P|46:31|33:102,1,156.25,8|8,3:1|3:1,0:0:0:0:
29,96,9072,6,0,P|91:90|137:130,1,125,4|0,1:1|0:0,0:2:0:0:
219,158,9272,2,0,P|246:116|240:69,1,93.7500035762788,0|0,0:2|3:2,0:0:0:0:
10,181,9472,6,0,P|24:245|101:242,1,125,10|0,1:2|0:2,0:2:0:0:
153,213,9672,5,2,0:2:0:0:
120,329,9772,1,2,0:2:0:0:
120,329,9872,2,0,P|179:303|257:308,1,125,2|0,1:3|0:0,0:2:0:0:
307,255,10072,5,0,0:2:0:0:
381,358,10172,1,0,3:2:0:0:
381,358,10272,2,0,B|368:284|408:313|391:222,1,125,10|0,1:2|0:2,0:2:0:0:
426,163,10472,2,0,P|469:159|518:187,1,93.7500035762788,2|0,3:2|0:2,0:2:0:0:
347,18,10672,6,0,P|299:58|232:55,1,125,2|0,1:2|0:0,0:0:0:0:
172,4,10872,1,2,0:2:0:0:
193,129,10972,5,2,0:2:0:0:
193,129,11072,2,0,P|189:59|43:81,1,250,10|0,1:1|0:0,0:0:0:0:
82,140,11372,1,2,3:2:0:0:
0,319,11472,6,0,P|43:298|93:291,1,93.7500035762788,2|0,1:1|0:0,0:2:0:0:
129,214,11672,2,0,P|171:221|209:240,1,78.125,0|0,0:2|3:2,0:0:0:0:
351,279,11872,6,0,P|308:300|258:307,1,93.7500035762788,10|0,1:1|0:2,0:2:0:0:
222,384,12072,2,0,P|181:378|143:359,1,78.125,2|0,3:1|0:2,0:2:0:0:
420,106,12272,5,4,1:2:0:0:
368,47,12472,5,2,0:2:0:0:
403,16,12572,1,2,0:2:0:0:
447,31,12672,1,10,1:2:0:0:
458,173,12872,5,2,0:2:0:0:
440,188,12972,1,2,0:2:0:0:
418,181,13072,1,2,1:2:0:0:
503,90,13272,5,2,0:2:0:0:
512,102,13372,1,2,0:2:0:0:
512,117,13472,1,10,0:2:0:0:
347,149,13672,5,2,0:2:0:0:
338,137,13772,1,2,0:2:0:0:
338,122,13872,1,2,1:2:0:0:
406,313,14072,6,0,L|516:333,1,78.125,2|2,0:2|0:2,0:0:0:0:
492,311,14272,6,0,B|506:346|506:346|483:378,1,78.125,10|8,1:2|3:2,0:0:0:0:
259,227,14472,2,0,B|244:191|244:191|267:159,1,78.125,8|4,3:3|3:3,0:0:0:0:
353,159,14672,5,6,1:3:0:0:
353,159,14972,5,6,1:3:0:0:
353,159,15272,5,6,1:3:0:0:
417,109,15472,2,0,P|421:60|437:8,1,93.75,4|0,1:1|0:2,0:2:0:0:
355,19,15872,6,0,P|346:53|344:87,1,62.5,10|0,0:2|0:2,0:2:0:0:
356,243,16072,5,0,1:2:0:0:
420,286,16172,1,0,1:2:0:0:
427,280,16272,2,0,P|363:273|278:307,1,140.625005364418,2|0,0:2|0:2,0:2:0:0:
234,351,16672,2,0,P|193:339|199:270,1,93.7500035762788,10|0,3:2|0:2,0:2:0:0:
191,276,16972,5,0,1:2:0:0:
98,381,17172,1,0,1:2:0:0:
18,264,17372,1,2,1:2:0:0:
31,270,17472,1,10,3:2:0:0:
93,222,17672,5,0,1:2:0:0:
21,184,17872,2,0,P|90:190|156:166,1,140.625005364418,2|0,1:2|0:2,0:2:0:0:
320,201,18272,2,0,P|273:195|229:210,1,93.7500035762788,10|2,2:2|3:2,2:2:0:0:
229,210,18672,6,0,P|238:186|234:147,1,46.8750017881394,2|0,1:2|0:0,0:0:0:0:
176,34,19072,2,0,P|167:58|171:97,1,46.8750017881394,10|0,3:2|0:0,0:0:0:0:
232,151,19272,5,0,1:2:0:0:
176,92,19372,1,0,1:2:0:0:
156,165,19672,5,2,0:2:0:0:
254,76,19872,2,0,L|355:64,1,93.7500035762788,10|2,3:2|0:2,0:2:0:0:
353,49,20172,5,0,1:2:0:0:
471,124,20372,1,0,1:2:0:0:
360,210,20572,1,0,1:2:0:0:
348,205,20672,1,10,3:2:0:0:
285,255,20872,5,2,1:2:0:0:
354,297,21072,2,0,P|399:284|445:279,1,93.7500035762788,2|0,1:2|3:2,0:2:0:0:
460,287,21372,1,2,3:2:0:0:
442,361,21472,6,0,P|417:363|377:381,1,46.8750017881394,8|0,3:2|0:2,0:2:0:0:
360,210,21672,1,2,0:2:0:0:
52,327,21872,5,2,1:2:0:0:
124,364,22272,2,0,P|129:336|141:289,1,46.8750017881394,10|0,3:2|0:2,0:2:0:0:
101,135,22472,5,0,1:2:0:0:
165,92,22572,1,0,1:2:0:0:
172,98,22672,2,0,P|108:105|23:71,1,140.625005364418,2|0,3:2|0:2,0:2:0:0:
223,26,23072,2,0,P|264:38|258:107,1,93.7500035762788,10|2,3:2|0:2,0:0:0:0:
265,96,23372,5,0,1:2:0:0:
160,216,23572,1,0,1:2:0:0:
291,306,23772,1,0,1:2:0:0:
301,303,23872,1,10,3:2:0:0:
334,230,24072,5,0,1:2:0:0:
397,279,24272,2,0,P|381:321|376:371,1,93.7500035762788,2|0,1:2|0:0,0:2:0:0:
418,143,24672,6,0,P|430:121|434:89,1,46.8750017881394,10|0,3:2|0:2,0:2:0:0:
426,25,24872,1,0,3:2:0:0:
363,71,25072,6,0,P|432:50|504:49,1,140.625005364418,2|0,1:2|0:0,0:0:0:0:
299,23,25472,6,0,P|287:45|283:77,1,46.8750017881394,10|0,3:2|0:0,0:2:0:0:
290,239,25672,1,0,1:2:0:0:
359,203,25772,1,0,1:2:0:0:
365,210,25872,2,0,P|294:208|227:187,1,140.625005364418,2|0,3:2|0:2,0:2:0:0:
168,277,26272,2,0,P|191:269|218:269,1,46.8750017881394,10|0,3:2|0:0,0:2:0:0:
149,157,26472,5,0,0:2:0:0:
139,153,26572,2,0,P|147:175|144:219,1,46.8750017881394,0|0,1:2|0:2,0:2:0:0:
292,111,26772,2,0,P|283:88|286:44,1,46.8750017881394,0|0,1:2|0:2,0:2:0:0:
214,19,26972,1,0,1:2:0:0:
287,50,27072,1,10,3:2:0:0:
213,268,27272,5,0,3:2:0:0:
136,73,27472,2,0,P|86:65|34:55,1,93.7500035762788,2|0,1:2|0:2,0:2:0:0:
43,56,27872,1,8,3:2:0:0:
0,229,28072,5,0,1:2:0:0:
64,151,28172,1,8,1:2:0:0:
132,216,28272,2,0,P|107:274|110:363,1,140.625005364418,4|0,1:1|0:2,0:2:0:0:
182,316,28672,2,0,P|181:292|190:270,1,46.8750017881394,8|0,3:2|0:0,0:2:0:0:
349,34,28872,5,0,1:2:0:0:
315,148,28972,2,0,B|303:66|273:110|268:9,1,140.625005364418,0|0,3:2|0:2,0:0:0:0:
429,200,29472,2,0,P|379:205|357:249,1,93.7500035762788,10|0,3:2|0:2,0:2:0:0:
215,364,29772,5,2,1:2:0:0:
362,321,29972,1,2,1:2:0:0:
277,305,30172,5,2,1:2:0:0:
299,379,30272,1,10,3:2:0:0:
215,364,30472,5,2,1:2:0:0:
362,321,30672,1,2,1:2:0:0:
196,81,30872,6,0,P|194:103|183:129,1,46.8750017881394,8|0,0:1|0:0,0:2:0:0:
98,40,31072,2,0,P|110:58|118:85,1,46.8750017881394,8|0,1:1|0:0,0:2:0:0:
113,162,31272,5,0,3:2:0:0:
46,113,31372,1,0,3:2:0:0:
30,197,31472,2,0,P|98:197|165:247,1,140.625005364418,2|0,1:2|0:2,0:2:0:0:
248,179,31872,2,0,P|237:201|234:235,1,46.8750017881394,10|0,3:2|0:2,0:2:0:0:
175,312,32072,5,0,1:2:0:0:
138,384,32172,1,0,0:2:0:0:
138,384,32272,2,0,P|134:338|57:266,1,140.625005364418,2|0,0:2|3:2,0:2:0:0:
218,377,32672,1,10,3:2:0:0:
374,154,32972,5,2,1:2:0:0:
336,322,33172,1,2,1:2:0:0:
314,226,33372,5,2,1:2:0:0:
398,245,33472,1,10,3:2:0:0:
374,154,33672,5,2,1:2:0:0:
336,322,33872,1,2,1:2:0:0:
251,147,34072,6,0,P|245:129|221:103,1,46.8750017881394,8|0,0:1|0:0,0:2:0:0:
315,93,34272,2,0,P|315:53|352:4,1,93.7500035762788,8|0,1:1|3:2,0:2:0:0:
512,35,34572,1,0,3:2:0:0:
512,35,34672,6,0,P|475:67|374:65,1,140.625005364418,2|0,1:2|0:2,0:2:0:0:
374,154,35072,2,0,L|441:163,1,46.8750017881394,10|0,3:2|0:0,0:2:0:0:
264,354,35272,5,0,1:2:0:0:
188,384,35372,2,0,P|157:345|157:251,1,140.625005364418,0|0,3:2|0:2,0:0:0:0:
162,174,35772,1,0,3:2:0:0:
162,174,35872,2,0,P|110:183|50:167,1,93.7500035762788,10|0,3:2|0:2,0:2:0:0:
55,43,36172,5,2,1:2:0:0:
240,81,36372,1,2,1:2:0:0:
154,43,36572,5,2,1:2:0:0:
144,88,36672,1,10,3:2:0:0:
55,43,36872,5,2,1:2:0:0:
240,81,37072,2,0,B|247:125|247:125|238:146|238:146|248:208,1,125,6|0,1:2|3:2,0:0:0:0:
406,325,37372,2,0,B|396:268|396:268|405:247|405:247|398:203,1,125,6|2,1:2|3:2,0:0:0:0:
331,154,37672,6,0,P|381:171|494:39,1,250,4|10,1:1|3:3,0:2:0:0:
312,248,38272,5,8,3:3:0:0:
247,202,38372,1,8,2:3:0:0:
210,274,38472,2,0,P|213:304|231:333,1,62.5,6|0,2:3|2:2,2:2:0:0:
302,72,38672,6,0,P|264:39|179:52,1,125,6|0,1:2|3:2,0:0:0:0:
139,98,38972,2,0,P|129:147|183:214,1,125,6|2,1:2|3:2,0:0:0:0:
306,372,39272,6,0,P|250:327|106:335,1,187.5,4|4,1:1|0:3,0:2:0:0:
63,376,39672,1,8,3:3:0:0:
54,177,39872,2,0,L|69:237,1,62.5,10|0,3:3|0:0,0:2:0:0:
137,320,40072,5,8,3:3:0:0:
192,339,40172,1,4,3:3:0:0:
234,298,40272,2,0,B|289:289|289:289|299:275|299:275|363:262,1,125,4|2,1:2|3:2,0:2:0:0:
327,101,40572,2,0,B|275:111|275:111|265:125|265:125|210:134,1,125,4|0,1:2|0:2,0:0:0:0:
485,372,40872,6,2,P|416:343|414:170,1,250,6|0,1:1|3:2,0:1:0:0:
430,61,41372,1,0,3:2:0:0:
430,61,41472,2,0,P|480:67|507:140,1,125,10|6,3:3|3:3,0:2:0:0:
506,137,41772,1,0,0:2:0:0:
501,147,41872,5,8,1:3:0:0:
432,177,41972,1,8,0:3:0:0:
359,157,42072,1,6,0:3:0:0:
315,95,42172,1,4,0:3:0:0:
311,20,42272,1,8,0:2:0:0:
19,221,42472,5,10,1:3:0:0:
19,221,42872,5,8,1:3:0:0:
19,221,43272,5,8,1:3:0:0:
99,193,43472,1,8,1:3:0:0:
19,221,44072,6,0,P|126:156|101:290,1,312.5,4|0,1:1|0:0,0:2:0:0:
118,285,44472,6,0,P|75:293|19:302,1,93.7500035762788,2|0,1:2|0:2,0:2:0:0:
311,341,44672,2,0,B|331:353|337:368|337:368|337:367|329:318|373:276,1,125,10|0,1:2|0:2,0:2:0:0:
302,59,44872,5,0,3:2:0:0:
241,0,44972,1,0,3:2:0:0:
173,51,45072,2,0,P|192:94|202:156,1,93.7500035762788,2|0,1:2|0:2,0:2:0:0:
139,191,45272,5,2,0:2:0:0:
283,161,45372,2,0,P|264:204|258:255,1,78.125,2|8,3:2|1:2,0:2:0:0:
200,290,45572,5,0,3:2:0:0:
200,290,45672,2,0,P|213:320|217:357,1,62.5,2|0,3:2|3:2,0:0:0:0:
485,285,45872,5,0,1:2:0:0:
468,369,45972,2,0,P|477:323|494:290,1,78.125,2|0,0:2|0:0,0:0:0:0:
413,182,46172,5,2,0:2:0:0:
504,209,46272,2,0,P|437:215|335:226,1,156.25,10|2,1:2|0:2,0:2:0:0:
254,71,46672,5,2,1:2:0:0:
181,50,46772,1,2,3:2:0:0:
198,123,46872,2,0,P|208:78|221:8,1,93.7500035762788,2|0,0:2|0:2,0:2:0:0:
441,114,47072,2,0,P|431:159|418:229,1,93.7500035762788,8|0,1:2|0:0,0:0:0:0:
356,104,47272,6,2,B|468:96|388:78|508:70,1,156.25,2|0,1:2|0:0,0:2:0:0:
506,70,47872,6,0,P|461:40|461:122,1,156.25,8|0,1:1|0:0,0:2:0:0:
453,361,48072,5,0,3:2:0:0:
510,298,48172,1,0,3:2:0:0:
454,234,48272,2,0,P|411:253|349:263,1,93.7500035762788,2|0,1:2|0:2,0:2:0:0:
303,211,48472,5,2,0:2:0:0:
338,339,48572,1,2,3:2:0:0:
338,339,48672,2,0,P|295:320|244:314,1,78.125,8|0,1:2|0:0,0:0:0:0:
187,301,48872,6,0,P|166:343|173:381,1,62.5,2|0,3:2|0:2,0:2:0:0:
264,160,49072,6,0,P|292:130|301:95,1,78.125,0|0,1:2|3:2,0:0:0:0:
32,95,49272,2,0,P|43:133|69:160,1,78.125,2|0,3:2|0:2,0:2:0:0:
115,252,49472,6,0,P|80:269|42:268,1,78.125,10|0,1:2|0:2,0:2:0:0:
140,16,49671,2,0,P|172:37|190:72,1,78.125,2|0,3:2|0:2,0:2:0:0:
115,92,49872,6,0,L|394:131,3,281.250010728836,2|2|10|10,1:1|3:2|1:1|3:2,0:2:0:0:
447,188,50572,1,8,3:2:0:0:
507,49,50672,6,0,L|501:77,1,25,6|0,1:1|0:0,0:0:0:0:
433,35,50872,2,0,L|427:63,1,25,2|0,1:2|0:2,0:2:0:0:
330,368,51072,5,8,1:2:0:0:
355,293,51272,6,0,L|349:268,1,25,2|0,1:2|0:2,0:2:0:0:
281,307,51472,2,0,L|275:282,1,25,2|0,1:2|0:2,0:2:0:0:
229,76,51672,6,0,L|35:53,2,187.500007152558,2|8|2,3:2|1:2|3:2,0:2:0:0:
265,152,52172,1,0,0:0:0:0:
316,34,52272,6,0,P|279:49|267:156,1,156.25,2|0,1:1|0:2,0:2:0:0:
337,185,52472,2,0,P|373:169|385:62,1,156.25,2|0,3:2|0:2,0:2:0:0:
316,34,52672,6,0,P|279:49|267:156,1,156.25,10|0,1:1|0:2,0:2:0:0:
337,185,52872,2,0,P|373:169|385:62,1,156.25,10|0,3:3|0:2,0:2:0:0:
326,109,53072,6,0,L|512:124,1,187.500007152558,2|4,1:1|1:3,0:0:0:0:
121,262,53472,6,0,L|7:275,1,93.7500035762788,10|0,1:1|0:2,0:2:0:0:
190,292,53672,5,10,3:2:0:0:
195,218,53772,1,8,0:2:0:0:
204,299,53872,6,0,L|272:390,1,93.7500035762788,6|0,1:1|0:2,0:2:0:0:
195,206,54072,6,0,L|239:100,1,93.7500035762788,2|0,3:2|0:2,0:2:0:0:
122,257,54272,6,0,L|8:270,1,93.7500035762788,10|0,1:1|0:0,0:0:0:0:
46,49,54472,6,0,L|49:73,1,25,2|0,1:2|0:2,0:2:0:0:
120,38,54672,2,0,L|123:62,1,25,2|0,1:2|0:2,0:2:0:0:
186,328,54872,6,0,L|-3:352,2,187.500007152558,2|8|8,3:2|1:2|3:3,0:2:0:0:
218,252,55372,1,4,3:3:0:0:
259,375,55472,2,0,B|267:337|267:337|280:326|280:326|293:280,1,93.7500035762788,6|0,1:1|0:2,0:2:0:0:
383,96,55672,5,10,3:3:0:0:
311,71,55772,5,8,3:3:0:0:
263,11,55872,5,2,1:1:0:0:
234,82,55972,5,4,3:3:0:0:
170,129,56072,5,6,1:3:0:0:
290,289,56272,6,0,L|359:282,1,62.5,10|0,1:1|0:0,0:0:0:0:
439,275,56472,2,0,B|494:260|494:260|400:271,1,125,8|0,1:1|0:0,0:0:0:0:
80,223,56872,6,0,B|139:217|166:143|166:143|162:219|219:251,1,250,4|0,1:1|0:0,0:2:0:0:
217,251,57272,6,0,P|187:284|179:330,1,93.7500035762788,2|0,1:2|0:2,0:2:0:0:
44,333,57472,2,0,B|35:263|8:302|-1:214,1,125,10|0,1:2|0:2,0:2:0:0:
49,0,57672,5,0,3:2:0:0:
0,81,57772,1,0,3:2:0:0:
78,142,57872,2,0,P|128:128|184:131,1,93.7500035762788,2|0,1:2|0:2,0:2:0:0:
277,4,58072,5,2,0:2:0:0:
247,148,58172,2,0,P|247:110|223:68,1,78.125,2|8,3:2|1:2,0:2:0:0:
223,64,58372,5,0,3:2:0:0:
282,14,58472,1,2,3:2:0:0:
354,45,58572,1,0,3:2:0:0:
349,122,58672,1,2,1:2:0:0:
346,130,58772,2,0,P|431:121|510:111,1,156.25,2|2,0:2|0:2,0:0:0:0:
512,116,59072,5,10,1:2:0:0:
434,70,59172,1,0,0:2:0:0:
422,150,59272,2,0,B|427:199|446:177|452:224,1,78.125,2|0,3:2|0:0,0:2:0:0:
297,373,59472,5,2,1:2:0:0:
297,373,59672,2,0,P|295:329|266:280,1,93.7500035762788,2|0,3:2|0:2,0:2:0:0:
228,168,59872,2,0,B|251:160|268:135|268:135|267:199|335:218,1,140.625005364418,10|0,1:2|0:0,0:0:0:0:
309,208,60072,6,2,P|258:202|190:240,1,125,2|2,1:2|3:2,0:2:0:0:
194,235,60672,6,0,P|176:163|206:82,1,156.25,8|0,1:1|0:0,0:2:0:0:
251,24,60872,5,0,3:2:0:0:
304,114,60972,1,0,3:2:0:0:
224,164,61072,2,0,P|182:142|133:144,1,93.7500035762788,2|0,1:2|0:2,0:2:0:0:
62,185,61272,5,2,0:2:0:0:
78,86,61372,1,2,3:2:0:0:
78,86,61472,2,0,P|45:102|4:104,1,78.125,8|0,1:2|0:0,0:0:0:0:
0,245,61672,5,2,0:2:0:0:
66,194,61772,1,0,3:2:0:0:
116,265,61872,2,0,P|98:304|95:343,1,78.125,2|0,1:2|0:0,0:0:0:0:
252,341,62072,6,0,P|226:326|171:322,1,78.125,2|0,3:2|0:0,0:0:0:0:
304,114,62272,6,0,P|330:129|385:133,1,78.125,10|0,1:2|0:2,0:2:0:0:
440,190,62472,2,0,P|458:151|461:112,1,78.125,2|0,3:2|0:2,0:2:0:0:
260,0,62672,6,0,L|306:291,3,281.250010728836,2|2|10|10,1:1|3:2|1:1|3:2,0:2:0:0:
387,31,63372,1,8,3:2:0:0:
377,134,63472,6,0,L|371:94,1,25,6|0,1:1|0:0,0:0:0:0:
449,104,63672,2,0,L|455:64,1,25,2|0,1:2|0:2,0:2:0:0:
195,261,63872,5,8,1:2:0:0:
185,158,64072,6,0,L|179:198,1,25,2|0,1:2|0:2,0:2:0:0:
257,188,64272,2,0,L|263:228,1,25,2|0,1:2|0:2,0:2:0:0:
195,261,64472,6,0,B|132:281|128:348|128:348|114:310|63:299,1,187.500007152558,2|8,3:2|1:2,0:2:0:0:
56,380,64772,1,0,3:2:0:0:
1,294,64872,6,0,B|10:244|29:268|37:202,1,93.7500035762788,2|0,3:2|0:0,0:0:0:0:
59,110,65072,6,0,P|108:165|197:147,1,156.25,2|0,1:1|0:2,0:2:0:0:
218,77,65272,2,0,P|169:22|80:40,1,156.25,2|0,3:2|0:2,0:2:0:0:
59,110,65472,6,0,P|108:165|197:147,1,156.25,10|0,1:1|0:2,0:2:0:0:
218,77,65672,2,0,P|169:22|80:40,1,156.25,10|0,3:3|0:2,0:2:0:0:
140,95,65872,6,0,L|159:290,1,187.500007152558,2|4,1:1|3:3,0:0:0:0:
314,384,66172,1,0,0:0:0:0:
164,361,66272,6,0,B|225:351|193:335|252:327,1,93.7500035762788,10|0,1:2|0:0,0:2:0:0:
512,293,66472,5,8,3:2:0:0:
445,383,66572,1,8,3:2:0:0:
357,313,66672,2,0,P|359:265|341:216,1,93.7500035762788,6|0,1:1|0:2,0:2:0:0:
363,52,66872,6,0,P|387:11|435:97,1,187.500007152558,10|8,0:2|3:2,0:0:0:0:
423,185,67172,1,8,3:2:0:0:
512,166,67272,6,0,P|461:167|414:194,1,93.7500035762788,10|0,0:3|0:2,0:2:0:0:
118,55,67472,5,2,1:1:0:0:
161,70,67572,5,8,3:3:0:0:
208,65,67672,5,10,3:3:0:0:
250,46,67772,5,10,3:3:0:0:
281,9,67872,6,0,P|279:57|297:106,1,93.7500035762788,4|4,3:3|3:3,0:0:0:0:
354,146,68072,1,6,0:3:0:0:
227,329,68272,6,0,P|187:365|153:269,1,187.500007152558,2|2,1:1|3:2,0:2:0:0:
207,232,68572,1,2,3:2:0:0:
143,183,68672,2,0,P|107:205|46:206,1,93.7500035762788,8|8,0:2|0:3,0:0:0:0:
0,153,68872,1,6,0:3:0:0:
424,2,69072,5,10,1:2:0:0:
286,384,69372,5,10,1:2:0:0:
21,76,69672,6,0,P|57:54|118:53,1,93.7500035762788,10|2,1:2|3:2,0:0:0:0:
183,73,69872,5,4,1:1:0:0:
183,73,70272,6,0,L|-12:44,1,187.500007152558,10|2,1:2|0:2,0:2:0:0:
300,165,70572,1,2,0:2:0:0:
352,33,70672,2,0,B|309:-1|250:66|281:97|289:92|319:125|257:199|209:153,1,250,2|0,1:3|0:2,0:2:0:0:
257,31,70972,5,0,3:2:0:0:
387,129,71072,2,0,P|456:110|527:93,1,109.375001043081,10|0,1:2|0:0,0:0:0:0:
278,265,71272,2,0,P|241:252|102:219,2,156.25,2|0|2,3:2|1:0|0:2,0:0:0:0:
484,312,71772,1,2,0:2:0:0:
411,272,71872,5,10,1:1:0:0:
392,289,71972,1,0,3:1:0:0:
403,310,72072,1,0,0:0:0:0:
321,330,72272,5,2,1:1:0:0:
278,265,72372,1,0,0:0:0:0:
344,223,72472,1,0,0:2:0:0:
201,128,72672,5,10,1:1:0:0:
239,195,72772,1,0,0:2:0:0:
175,244,72872,1,2,3:1:0:0:
214,313,72972,1,0,0:0:0:0:
152,361,73072,1,2,1:2:0:0:
148,371,73472,6,0,B|91:416|-7:386|27:280|107:250|212:217|310:227|326:270|267:330|255:338|200:293|204:248|222:220,1,468.75,14|2,1:2|3:2,0:0:0:0:
181,61,73872,6,0,P|178:153|149:191,1,125,2|0,1:2|0:0,0:2:0:0:
82,158,74072,1,0,0:2:0:0:
48,235,74172,5,0,3:2:0:0:
48,235,74272,2,0,P|93:239|141:254,1,93.7500035762788,10|0,1:2|0:2,0:2:0:0:
277,377,74472,2,0,P|343:350|343:301,1,125,2|0,3:2|0:2,0:2:0:0:
380,82,74672,6,0,P|348:84|308:78,1,62.5,2|0,1:2|0:0,0:2:0:0:
271,17,74872,5,0,0:2:0:0:
194,65,74972,1,0,0:0:0:0:
216,154,75072,2,0,P|244:166|275:166,1,62.5,10|2,1:2|0:2,0:0:0:0:
334,233,75272,5,2,0:2:0:0:
291,171,75372,1,2,0:2:0:0:
330,107,75472,2,0,P|362:102|392:112,1,50,2|0,1:2|0:0,0:0:0:0:
446,93,75672,5,8,3:1:0:0:
402,124,75772,1,0,0:0:0:0:
417,172,75872,2,0,P|436:180|459:180,1,37.4999988555909,8|0,1:2|0:0,0:0:0:0:
471,172,76072,5,8,3:1:0:0:
512,321,76172,1,8,3:1:0:0:
512,321,76272,6,0,P|457:312|387:355,1,125,4|0,1:1|0:0,0:2:0:0:
322,380,76472,2,0,P|278:368|264:326,1,93.7500035762788,0|0,0:2|3:2,0:0:0:0:
330,0,76672,6,0,P|342:67|353:129,1,125,10|0,1:2|0:2,0:2:0:0:
279,168,76872,5,2,0:2:0:0:
429,185,76972,1,2,0:2:0:0:
429,185,77072,2,0,B|364:197|393:236|322:247,1,125,2|0,1:3|0:0,0:2:0:0:
118,333,77272,5,0,0:2:0:0:
120,253,77372,1,0,3:2:0:0:
189,294,77472,1,10,1:2:0:0:
193,302,77672,6,0,L|-9:275,2,187.500007152558,2|2|2,3:2|1:2|0:2,0:2:0:0:
327,376,78172,1,2,0:2:0:0:
326,296,78272,5,10,1:1:0:0:
347,285,78372,1,2,3:2:0:0:
364,304,78472,1,0,0:0:0:0:
414,240,78672,5,2,1:1:0:0:
372,174,78772,1,0,0:0:0:0:
307,217,78872,1,0,0:2:0:0:
312,114,79072,5,10,1:1:0:0:
312,114,79172,1,0,0:2:0:0:
449,140,79272,5,2,3:1:0:0:
449,140,79372,1,0,0:0:0:0:
392,48,79472,5,4,1:2:0:0:
392,48,79672,5,2,0:2:0:0:
441,45,79772,1,2,0:2:0:0:
478,13,79872,1,10,1:2:0:0:
297,314,80072,5,2,0:2:0:0:
340,314,80172,1,2,0:2:0:0:
374,340,80272,1,2,1:2:0:0:
203,123,80472,5,2,0:2:0:0:
235,127,80572,1,2,0:2:0:0:
263,112,80672,1,10,1:2:0:0:
111,225,80872,5,2,0:2:0:0:
133,219,80972,1,2,0:2:0:0:
154,228,81072,1,2,1:2:0:0:
8,174,81272,5,2,0:2:0:0:
23,177,81372,1,2,0:2:0:0:
38,171,81472,5,10,1:2:0:0:
71,103,81572,1,8,3:2:0:0:
145,98,81672,1,8,3:3:0:0:
185,160,81772,1,4,3:3:0:0:
154,228,81872,1,4,1:3:0:0:
149,233,82172,5,6,1:3:0:0:
144,238,82472,5,6,1:3:0:0:
465,330,82672,5,4,1:1:0:0:
465,330,83072,2,0,B|461:290|484:271|484:271|473:233,1,100,10|0,0:2|0:0,0:2:0:0:
436,82,83272,5,0,1:2:0:0:
507,126,83372,1,0,1:2:0:0:
507,126,83872,2,0,P|463:121|437:172,1,100,10|0,3:2|0:0,0:2:0:0:
284,159,84172,6,0,P|298:177|313:254,1,100,0|0,1:2|0:2,0:2:0:0:
206,185,84372,2,0,P|209:234|235:275,1,100,0|0,1:2|0:2,0:2:0:0:
265,353,84572,5,2,1:2:0:0:
343,329,84672,2,0,L|141:311,2,200,10|0|2,3:2|1:2|1:2,0:0:0:0:
45,360,85472,6,0,B|22:267|83:308|54:205,1,156.25,10|2,2:2|3:2,2:2:0:0:
0,152,85772,1,0,3:2:0:0:
43,86,85872,1,2,1:2:0:0:
43,86,86272,6,0,P|95:88|153:56,1,100,10|0,1:2|0:0,0:0:0:0:
188,8,86472,5,0,1:2:0:0:
236,81,86572,1,0,1:2:0:0:
236,81,87072,2,0,P|282:68|317:124,1,100,10|0,3:2|0:2,0:2:0:0:
473,285,87372,6,0,P|494:239|492:190,1,100,0|0,1:2|0:0,0:0:0:0:
392,266,87572,2,0,P|389:216|411:172,1,100,0|0,1:2|0:0,0:0:0:0:
394,81,87772,5,0,1:2:0:0:
475,101,87872,2,0,B|467:120|467:120|313:158|313:158|303:181,2,200,10|2|2,3:2|1:2|1:2,0:0:0:0:
220,181,88572,5,2,3:2:0:0:
241,259,88672,2,0,B|197:285|197:285|166:242,1,100,8|0,3:2|0:0,0:2:0:0:
12,80,88872,2,0,B|41:73|41:73|66:95|66:95|106:88,1,100,2|0,0:2|0:0,0:0:0:0:
171,54,89072,5,2,1:2:0:0:
171,54,89472,2,0,P|150:98|152:156,1,100,10|0,3:2|0:0,0:0:0:0:
9,272,89672,5,0,1:2:0:0:
85,249,89772,1,0,1:2:0:0:
85,249,90272,2,0,B|95:269|95:269|146:270|170:316,1,100,10|0,3:2|0:0,0:0:0:0:
204,235,90472,5,2,0:2:0:0:
266,354,90572,2,0,P|261:302|283:258,1,100,0|0,1:2|0:0,0:0:0:0:
350,367,90772,2,0,P|370:322|366:272,1,100,0|0,1:2|0:0,0:0:0:0:
431,85,90972,5,0,1:2:0:0:
344,158,91072,2,0,B|371:141|431:156|441:211|441:211|446:164|491:151,2,200,10|0|2,3:2|1:2|1:2,0:0:0:0:
80,84,91872,6,0,B|78:46|110:25|110:25|59:38|51:109|79:130,1,200,10|0,3:2|0:0,0:2:0:0:
154,91,92172,1,0,3:2:0:0:
25,188,92272,5,2,1:2:0:0:
25,188,92672,2,0,P|74:178|113:212,1,100,10|0,3:2|0:0,0:0:0:0:
130,333,92872,5,0,1:2:0:0:
60,384,92972,1,0,1:2:0:0:
60,384,93472,2,0,L|40:265,1,100,10|0,3:2|0:0,0:2:0:0:
139,18,93772,6,0,B|149:36|149:36|302:57|302:57|314:84,2,200,0|0|0,1:2|1:2|1:2,0:2:0:0:
245,163,94272,6,0,B|209:129|209:129|235:84,1,100,10|0,3:2|0:0,0:2:0:0:
382,32,94472,2,0,B|417:65|417:65|391:110,1,100,0|0,3:2|3:2,0:0:0:0:
245,163,94672,6,0,B|302:171|302:171|310:224|310:224|397:237,1,200,2|0,1:2|0:0,0:2:0:0:
470,196,94972,1,0,0:0:0:0:
509,272,95072,1,8,3:2:0:0:
500,276,95272,5,0,1:2:0:0:
417,369,95372,1,8,1:2:0:0:
424,375,95472,6,0,P|430:297|474:190,1,187.500007152558,4|0,1:1|0:0,0:2:0:0:
147,5,95872,2,0,P|141:83|97:190,1,187.500007152558,8|0,3:2|1:2,0:2:0:0:
28,204,96172,1,0,3:2:0:0:
134,255,96272,1,2,0:2:0:0:
83,313,96472,5,0,0:2:0:0:
121,380,96672,6,0,P|48:337|-31:335,1,125,10|0,3:2|0:2,0:2:0:0:
9,331,96972,6,0,B|31:333|31:333|60:299|107:290|150:309,1,125,2|0,1:2|0:0,0:0:0:0:
170,233,97172,2,0,B|184:249|184:249|228:246|268:273|285:317,1,125,2|0,1:2|0:0,0:0:0:0:
266,371,97372,5,2,1:2:0:0:
444,312,97472,6,0,L|176:335,2,250,10|2|2,3:2|1:2|1:2,0:2:0:0:
319,38,98072,6,0,L|310:85,1,31.25,8|0,0:1|0:0,0:2:0:0:
277,262,98272,2,0,L|272:293,1,31.25,8|0,1:1|0:0,0:2:0:0:
53,132,98472,1,0,3:2:0:0:
53,132,98572,1,0,3:2:0:0:
11,59,98672,6,0,P|58:48|126:165,1,187.500007152558,2|0,1:2|0:0,0:2:0:0:
509,172,99072,2,0,P|462:161|394:278,1,187.500007152558,10|0,3:2|1:2,0:2:0:0:
313,273,99372,1,0,3:2:0:0:
446,310,99472,1,2,3:2:0:0:
397,371,99672,5,0,0:2:0:0:
316,357,99872,6,0,P|254:364|178:375,1,125,10|0,3:2|0:2,0:2:0:0:
192,372,100172,6,0,P|237:321|212:265,1,125,2|0,1:2|0:0,0:0:0:0:
252,182,100372,2,0,P|185:168|149:218,1,125,2|0,1:2|0:0,0:0:0:0:
139,293,100572,5,2,1:2:0:0:
316,263,100672,6,0,L|64:244,2,250,10|2|2,3:2|1:2|1:2,0:2:0:0:
191,31,101272,6,0,L|197:74,1,31.25,8|0,0:1|0:0,0:2:0:0:
232,338,101472,2,0,L|238:376,1,31.25,8|0,1:1|0:0,0:2:0:0:
404,164,101672,1,0,3:2:0:0:
404,164,101772,1,0,3:2:0:0:
457,216,101872,6,0,P|430:65|431:12,1,187.500007152558,2|0,1:2|0:0,0:2:0:0:
238,369,102272,2,0,P|232:275|211:184,1,187.500007152558,10|0,3:2|1:2,0:2:0:0:
134,166,102572,1,0,3:2:0:0:
261,110,102672,1,2,3:2:0:0:
204,55,102872,5,0,0:2:0:0:
278,17,103072,6,0,P|282:80|296:142,1,125,10|0,3:2|0:2,0:2:0:0:
295,140,103372,6,0,P|278:194|211:198,1,125,2|0,1:2|0:0,0:0:0:0:
217,295,103572,2,0,P|160:296|135:233,1,125,2|0,1:2|0:0,0:0:0:0:
149,164,103772,5,2,1:2:0:0:
45,270,103872,6,0,P|26:216|77:173,1,125,10|0,3:2|0:2,0:2:0:0:
15,99,104072,2,0,P|60:64|117:100,1,125,2|0,1:2|0:2,0:2:0:0:
359,180,104272,6,0,P|449:213|410:86,1,250,6|0,1:2|3:2,0:0:0:0:
455,18,104572,2,0,P|404:2|388:59,1,125,6|0,1:2|0:0,0:0:0:0:
455,95,104872,6,0,B|407:127|382:201|444:263|444:263|491:268|511:309|514:340,1,281.250010728836,4|0,1:1|0:2,0:2:0:0:
408,361,105272,2,0,B|378:365|378:365|444:337,1,93.7500035762788,10|0,3:3|0:2,0:2:0:0:
183,266,105472,5,8,3:3:0:0:
130,331,105572,1,8,2:3:0:0:
196,383,105672,1,6,2:3:0:0:
203,374,105772,1,0,2:2:0:0:
281,344,105872,6,0,P|142:354|5:391,1,250,6|0,1:2|3:2,0:0:0:0:
109,204,106172,2,0,P|193:190|154:273,1,187.500007152558,6|2,1:2|3:2,0:0:0:0:
182,264,106472,6,0,P|176:165|219:78,1,187.500007152558,4|0,1:1|0:2,0:2:0:0:
287,53,106772,1,4,0:3:0:0:
272,140,106872,2,0,P|295:87|271:32,1,93.7500035762788,8|0,3:3|0:2,0:2:0:0:
67,19,107072,5,10,3:3:0:0:
1,71,107172,1,0,0:0:0:0:
55,136,107272,1,8,3:3:0:0:
64,128,107372,1,4,3:3:0:0:
146,122,107472,6,0,P|137:84|173:24,2,93.7500035762788,4|2|2,1:2|0:2|3:2,0:2:0:0:
132,322,107772,6,0,B|178:326|200:378|200:378|192:323|233:292,1,187.500007152558,4|0,1:2|0:2,0:0:0:0:
51,241,108072,6,2,B|36:274|-6:279|-6:279|165:266|308:378,1,375,6|0,1:1|0:0,0:1:0:0:
479,293,108472,5,0,3:2:0:0:
435,368,108572,1,0,3:2:0:0:
366,314,108672,5,10,3:3:0:0:
373,296,108772,1,0,0:2:0:0:
421,234,108872,5,6,3:3:0:0:
414,216,108972,1,0,0:2:0:0:
363,154,109072,5,8,1:3:0:0:
347,119,109172,1,8,0:3:0:0:
378,98,109272,1,6,0:3:0:0:
453,79,109372,5,4,0:3:0:0:
409,4,109472,1,8,0:2:0:0:
329,29,109672,5,10,1:3:0:0:
183,355,110072,1,8,1:3:0:0:
329,29,110472,5,8,1:3:0:0:
183,355,110672,1,8,1:3:0:0:
63,183,111272,6,0,B|41:97|19:144|0:39,1,156.25,4|0,1:1|0:0,0:2:0:0:
1,43,111672,6,0,B|22:61|22:61|97:46,1,93.7500035762788,2|0,1:2|0:2,0:2:0:0:
307,28,111872,2,0,P|251:16|236:78,1,125,10|0,1:2|2:2,0:0:0:0:
271,142,112072,5,0,3:2:0:0:
201,230,112172,1,0,3:2:0:0:
175,128,112272,2,0,P|215:151|261:150,1,93.7500035762788,2|0,1:2|0:0,0:2:0:0:
356,113,112472,5,2,0:2:0:0:
313,216,112572,2,0,P|348:202|397:202,1,78.125,2|8,3:2|1:2,0:0:0:0:
442,131,112772,5,2,3:2:0:0:
442,131,112872,2,0,P|471:142|503:143,1,62.5,2|2,3:2|3:2,0:0:0:0:
437,280,113072,5,0,1:2:0:0:
364,308,113172,1,2,0:2:0:0:
329,378,113272,1,2,0:0:0:0:
274,321,113372,1,2,0:2:0:0:
196,315,113472,1,10,1:2:0:0:
196,315,113672,6,0,B|174:320|174:320|156:342|156:342|128:349,1,78.125,2|0,0:2|0:0,0:2:0:0:
1,237,113872,5,2,1:2:0:0:
86,190,113972,1,2,3:2:0:0:
0,150,114072,1,2,3:2:0:0:
0,150,114272,6,0,L|19:48,1,93.7500035762788,8|0,1:2|0:0,0:0:0:0:
187,73,114472,6,2,P|171:47|124:121,1,156.25,2|0,1:2|0:0,0:2:0:0:
107,106,115072,6,0,B|179:116|179:116|192:105|192:105|279:115,1,156.25,8|0,1:1|0:0,0:2:0:0:
367,0,115272,5,0,3:2:0:0:
287,30,115372,1,0,3:2:0:0:
362,87,115472,2,0,B|342:96|342:96|325:179,1,93.7500035762788,2|0,1:2|0:2,0:2:0:0:
383,228,115672,5,2,0:2:0:0:
288,244,115772,1,2,3:2:0:0:
288,244,115872,2,0,B|304:251|304:251|317:317,1,78.125,8|0,1:2|0:0,0:0:0:0:
390,368,116072,6,0,L|404:287,1,62.5,2|0,3:2|0:0,0:0:0:0:
107,106,116272,6,0,P|78:114|37:154,1,78.125,2|0,1:2|2:2,0:0:0:0:
114,228,116472,2,0,P|138:210|163:158,1,78.125,2|0,3:2|0:2,0:2:0:0:
28,220,116672,6,0,P|39:264|76:297,1,78.125,10|0,1:2|0:2,0:2:0:0:
245,120,116872,2,0,P|213:87|164:77,1,78.125,2|0,3:2|3:2,0:0:0:0:
188,301,117072,6,0,P|259:250|284:386,3,281.250010728836,2|2|10|10,1:1|3:2|1:1|3:2,0:2:0:0:
350,240,117772,1,8,3:2:0:0:
274,306,117872,6,0,L|312:299,1,25,6|0,1:1|0:0,0:0:0:0:
350,240,118072,2,0,L|388:233,1,25,2|0,1:2|0:2,0:2:0:0:
239,213,118272,5,8,1:2:0:0:
239,213,118472,6,0,L|201:206,1,25,2|0,1:2|0:2,0:2:0:0:
163,147,118672,2,0,L|125:140,1,25,2|0,1:2|0:2,0:2:0:0:
0,350,118872,6,0,B|30:401|102:382|98:321|98:321|72:304|69:262,1,187.500007152558,2|8,3:2|1:2,0:2:0:0:
56,215,119272,2,0,P|103:214|142:251,1,93.7500035762788,2|0,3:2|0:0,0:0:0:0:
199,288,119472,6,0,P|159:227|168:133,1,156.25,2|0,1:1|0:2,0:2:0:0:
273,120,119672,2,0,P|313:181|304:275,1,156.25,2|0,3:2|0:2,0:2:0:0:
199,288,119872,6,0,P|159:227|168:133,1,156.25,10|0,1:1|0:2,0:2:0:0:
273,120,120072,2,0,P|313:181|304:275,1,156.25,10|0,3:3|0:2,0:2:0:0:
232,368,120272,5,2,1:1:0:0:
232,368,120472,2,0,L|349:383,1,93.7500035762788,4|0,1:3|0:0,0:0:0:0:
475,153,120672,6,0,B|439:152|412:177|412:177|393:147,1,93.7500035762788,10|0,1:1|0:2,0:2:0:0:
362,75,120872,5,10,3:2:0:0:
314,155,120972,1,8,0:2:0:0:
198,81,121072,2,0,P|307:66|492:-5,1,281.250010728836,6|0,1:1|0:2,0:2:0:0:
180,0,121472,6,0,P|132:12|125:59,1,93.7500035762788,10|0,1:1|0:0,0:0:0:0:
125,150,121672,6,0,L|132:120,1,25,2|0,1:2|3:2,0:0:0:0:
43,24,121872,2,0,L|50:-6,1,25,2|0,1:2|0:2,0:2:0:0:
48,172,122072,6,0,B|163:197|163:197|171:236|215:251,1,187.500007152558,2|8,3:2|1:2,0:2:0:0:
314,155,122472,2,0,P|267:149|231:187,1,93.7500035762788,8|4,3:3|3:3,0:0:0:0:
243,358,122672,6,0,L|187:19,1,281.250010728836,6|8,1:1|3:3,0:2:0:0:
211,0,123072,5,2,1:1:0:0:
277,65,123172,1,4,3:3:0:0:
366,18,123272,1,6,1:3:0:0:
366,18,123472,6,0,L|352:89,1,62.5,10|0,1:1|0:0,0:0:0:0:
401,316,123672,2,0,B|339:316|323:256|323:256|311:284|251:285,1,156.25,8|0,1:1|0:0,0:0:0:0:
283,283,124072,6,0,P|368:294|391:225,1,156.25,4|0,1:1|0:0,0:2:0:0:
393,240,124472,6,0,P|358:189|406:132,1,93.7500035762788,2|0,1:2|0:2,0:2:0:0:
452,115,124672,2,0,P|497:174|485:233,1,125,10|0,1:2|0:2,0:2:0:0:
512,373,124872,5,0,3:2:0:0:
456,297,124972,1,0,3:2:0:0:
385,358,125072,2,0,P|335:344|279:347,1,93.7500035762788,2|0,1:2|0:2,0:2:0:0:
217,209,125272,5,2,0:2:0:0:
218,357,125372,2,0,P|219:320|250:282,1,78.125,2|8,3:2|1:2,0:2:0:0:
250,79,125572,5,0,3:0:0:0:
181,42,125672,1,2,3:2:0:0:
117,87,125772,1,0,3:2:0:0:
138,161,125872,1,2,1:2:0:0:
147,168,125972,2,0,P|226:185|303:202,1,156.25,2|2,0:2|0:2,0:0:0:0:
98,335,126272,2,0,B|47:343|66:364|15:374,1,93.7500035762788,10|0,1:2|0:2,0:2:0:0:
239,167,126472,6,0,P|249:89|263:12,1,156.25,2|2,3:2|1:2,0:2:0:0:
45,262,126872,2,0,P|33:214|14:164,1,93.7500035762788,2|0,3:2|0:2,0:2:0:0:
211,343,127072,2,0,B|227:349|233:371|233:371|232:318|262:265,1,140.625005364418,10|0,1:2|0:0,0:0:0:0:
225,88,127272,6,2,P|175:61|159:136,1,156.25,2|0,1:2|0:0,0:2:0:0:
204,199,127872,6,0,B|190:193|180:166|180:166|69:132,1,156.25,8|0,1:1|0:0,0:2:0:0:
327,74,128072,5,0,0:0:0:0:
401,17,128172,1,0,3:2:0:0:
477,72,128272,2,0,P|459:108|447:172,1,93.7500035762788,2|0,1:2|0:2,0:2:0:0:
505,219,128472,5,2,0:2:0:0:
372,193,128572,1,2,3:2:0:0:
372,193,128672,2,0,P|395:267|396:360,1,156.25,8|2,0:2|0:2,0:0:0:0:
315,281,128972,5,0,3:2:0:0:
246,333,129072,2,0,P|236:297|235:248,1,78.125,2|0,1:2|0:0,0:0:0:0:
31,190,129272,2,0,P|59:212|89:252,1,78.125,2|0,3:2|0:0,0:0:0:0:
284,178,129472,2,0,P|247:176|200:161,1,78.125,10|0,1:2|0:2,0:2:0:0:
82,343,129672,2,0,P|112:322|159:306,1,78.125,2|0,3:2|0:2,0:0:0:0:
207,164,129872,6,0,P|235:81|117:139,3,281.250010728836,2|2|10|10,1:1|3:2|1:1|3:2,0:2:0:0:
162,19,130572,1,8,3:2:0:0:
108,111,130672,6,0,L|132:104,1,25,6|0,1:1|0:0,0:0:0:0:
245,63,130872,2,0,L|269:56,1,25,2|0,1:2|0:2,0:2:0:0:
236,255,131072,1,8,1:2:0:0:
294,359,131272,6,0,L|271:352,1,25,2|0,1:2|0:2,0:0:0:0:
157,311,131472,2,0,L|133:303,1,25,2|0,1:2|0:0,0:0:0:0:
236,255,131672,6,0,B|356:219|356:219|361:181|386:156,1,187.500007152558,2|8,3:2|1:2,0:2:0:0:
432,341,132072,2,0,B|430:377|430:377|403:301,1,93.7500035762788,2|0,3:2|0:0,0:0:0:0:
322,106,132272,6,0,P|394:83|453:129,1,156.25,2|0,1:1|0:2,0:2:0:0:
437,217,132472,2,0,P|365:240|306:194,1,156.25,2|0,3:2|0:2,0:2:0:0:
322,106,132672,6,0,P|394:83|453:129,1,156.25,10|0,1:1|0:2,0:2:0:0:
437,217,132872,2,0,P|365:240|306:194,1,156.25,10|0,3:3|0:2,0:2:0:0:
322,106,133072,5,2,1:1:0:0:
153,359,133272,1,4,3:3:0:0:
66,69,133472,6,0,B|104:82|104:82|115:99|115:99|160:111,1,93.7500035762788,10|0,1:2|0:0,0:2:0:0:
163,108,133672,5,8,3:2:0:0:
118,3,133772,1,8,3:2:0:0:
57,152,133872,6,0,L|277:112,1,187.500007152558,6|10,1:1|0:2,0:2:0:0:
282,47,134172,1,2,0:2:0:0:
269,43,134272,5,8,3:2:0:0:
323,141,134372,1,8,3:2:0:0:
372,41,134472,2,0,B|404:59|404:59|413:79|413:79|443:96,1,93.7500035762788,10|0,0:3|0:2,0:2:0:0:
512,284,134672,5,2,1:1:0:0:
443,315,134772,5,8,3:3:0:0:
397,374,134872,5,10,3:3:0:0:
366,305,134972,5,10,3:3:0:0:
310,254,135072,5,4,3:3:0:0:
293,263,135172,1,4,3:3:0:0:
259,339,135272,5,6,0:3:0:0:
242,330,135372,1,0,0:2:0:0:
212,258,135472,6,0,L|110:275,1,93.7500035762788,2|0,1:1|3:2,0:2:0:0:
94,351,135672,1,6,3:3:0:0:
86,359,135772,5,10,3:3:0:0:
4,296,135872,1,8,3:2:0:0:
66,213,135972,1,8,0:3:0:0:
51,143,136072,6,0,L|-11:124,1,46.8750017881394,6|0,0:3|0:2,0:2:0:0:
7,130,136272,6,0,B|53:119|53:119|70:90|70:90|113:80,1,125,10|0,1:2|0:0,0:0:0:0:
244,12,136572,5,10,1:2:0:0:
191,175,136672,2,0,B|183:159|159:148|159:148|193:122|194:77,1,125
76,5,136872,6,2,B|84:27|84:27|450:88,1,375,6|0,1:0|0:0,0:1:0:0:
512,79,137272,5,2,0:1:0:0:
507,93,137372,1,2,0:2:0:0:
420,97,137472,5,10,0:1:0:0:
415,111,137572,1,2,0:2:0:0:
477,171,137672,5,2,0:1:0:0:
472,185,137772,1,2,0:2:0:0:
395,214,137872,5,2,1:1:0:0:
390,228,137972,1,2,0:2:0:0:
412,304,138072,5,2,0:1:0:0:
407,318,138172,1,2,0:2:0:0:
368,384,138272,6,0,B|375:365|375:365|491:347,1,125,10|0,1:1|0:0,0:0:0:0:
144,0,138472,6,0,B|137:19|137:19|21:37,1,125,2|0,0:1|0:0,0:0:0:0:
0,109,138672,5,0,1:0:0:0:
0,109,138772,1,0,3:0:0:0:
45,201,138872,2,0,B|54:147|70:168|80:113,1,93.7500035762788,2|0,3:1|0:0,0:0:0:0:
355,239,139072,2,0,B|287:260|284:323|284:323|260:285|204:286,1,187.500007152558,10|0,1:1|3:0,0:0:0:0:
182,223,139372,1,0,3:0:0:0:
35,282,139472,6,0,P|94:288|156:334,1,125,2|0,1:0|0:0,0:0:0:0:
357,131,139672,2,0,P|298:125|236:79,1,125,2|0,0:1|0:0,0:0:0:0:
35,295,139872,6,0,P|94:290|163:325,1,125,10|0,1:0|0:0,0:0:0:0:
361,120,140072,2,0,P|301:124|232:89,1,125,2|0,0:1|3:0,0:0:0:0:
167,125,140272,6,0,L|161:79,1,31.25,2|0,1:0|0:0,0:0:0:0:
197,23,140472,1,0,3:0:0:0:
197,23,140572,1,0,3:0:0:0:
112,31,140672,6,0,P|66:41|56:123,1,125,10|0,1:0|0:0,0:0:0:0:
227,287,140872,2,0,P|266:262|247:181,1,125,2|0,3:1|3:0,0:0:0:0:
0,181,141072,6,0,L|48:190,1,31.25,2|0,1:1|0:0,0:0:0:0:
111,198,141272,1,0,3:0:0:0:
111,198,141372,1,0,3:0:0:0:
48,288,141472,6,0,P|93:250|154:264,1,125,10|0,1:0|0:0,0:0:0:0:
441,340,141672,2,0,P|396:378|335:364,1,125,2|0,0:1|0:0,0:0:0:0:
45,278,141872,6,0,P|95:248|153:272,1,125,2|0,1:0|0:0,0:0:0:0:
444,348,142072,2,0,P|393:377|335:353,1,125,2|0,3:1|3:0,0:0:0:0:
347,146,142272,6,0,L|338:186,1,31.25,10|0,1:1|0:0,0:0:0:0:
324,257,142472,1,0,3:0:0:0:
324,257,142572,1,0,3:0:0:0:
330,174,142672,5,2,1:0:0:0:
410,222,142772,1,0,0:0:0:0:
330,274,142872,2,0,B|254:281|288:318|212:324,1,125,2|0,3:1|0:0,0:0:0:0:
152,271,143072,5,10,1:0:0:0:
107,384,143172,1,0,0:0:0:0:
14,308,143272,1,2,3:2:0:0:
159,12,143472,6,2,P|156:56|227:37,1,140.625005364418,6|0,1:0|0:0,0:1:0:0:
226,41,143872,6,0,L|64:77,1,156.25,8|2,1:1|0:0,0:0:0:0:
73,74,144172,1,0,0:0:0:0:
0,126,144272,6,0,B|58:155|46:229|46:229|64:157|133:147,3,250,2|2|10|2,1:0|2:3|1:0|0:3,0:0:0:0:
115,268,145072,6,0,B|104:290|83:300|83:300|231:333|231:333|186:304|195:234,1,281.250010728836,2|0,1:0|0:0,0:0:0:0:
275,265,145472,6,0,B|342:233|332:150|332:150|349:232|430:242,4,281.250010728836,10|2|2|2|10,1:0|0:3|1:0|0:3|1:0,0:0:0:0:
512,254,146472,6,0,L|493:172,1,62.5,0|0,3:0|3:0,0:0:0:0:
459,2,146672,6,2,B|451:53|496:109|496:109|404:-6|233:61,1,375,2|0,1:1|3:0,0:1:0:0:
190,84,147072,1,8,1:0:0:0:
190,84,147272,5,2,0:1:0:0:
94,10,147372,1,2,2:2:0:0:
27,116,147472,2,0,P|57:176|64:248,1,125,2|0,1:1|0:0,0:0:0:0:
7,291,147672,6,0,P|41:338|92:313,1,125,2|0,3:2|0:0,0:0:0:0:
308,180,147872,5,10,1:0:0:0:
228,171,147972,1,0,0:0:0:0:
149,163,148072,1,2,0:0:0:0:
139,155,148272,6,0,P|190:129|224:176,1,125,2|2,1:2|3:2,0:0:0:0:
456,257,148472,2,0,P|400:247|400:189,1,125,2|0,3:1|0:0,0:0:0:0:
263,311,148671,6,0,P|255:254|310:237,1,125,10|0,1:1|0:0,0:0:0:0:
448,56,148872,2,0,P|420:106|366:88,1,125,10|4,0:3|0:3,0:0:0:0:
271,12,149072,6,0,L|300:163,1,125,2|0,1:1|0:0,0:0:0:0:
310,237,149272,5,10,3:3:0:0:
386,286,149372,1,4,3:3:0:0:
340,362,149472,1,10,1:1:0:0:
328,355,149672,5,10,3:3:0:0:
307,250,149772,1,4,3:3:0:0:
252,336,149872,6,2,L|422:316,1,156.25,6|0,1:1|0:0,0:1:0:0:
13,345,150272,5,10,1:2:0:0:
96,313,150472,6,0,P|89:341|104:379,2,62.5,2|0|0,0:0|0:0|0:0,0:0:0:0:
176,162,150772,5,0,0:0:0:0:
176,162,150872,2,0,P|182:133|167:95,1,62.5,2|0,1:2|0:0,0:0:0:0:
49,241,151072,6,0,P|21:249|-3:281,2,62.5,10|0|0,1:2|0:0|0:0,0:0:0:0:
221,233,151372,5,0,0:0:0:0:
221,233,151472,2,0,P|248:224|273:192,1,62.5,2|0,1:2|0:0,0:0:0:0:
89,165,151672,6,0,P|68:144|27:139,2,62.5,2|0|8,0:0|0:0|1:2,0:0:0:0:
181,309,151972,5,0,0:0:0:0:
181,309,152072,2,0,P|201:329|242:334,1,62.5,2|0,0:0|0:0,0:0:0:0:
309,371,152272,6,0,P|334:357|352:320,1,62.5,2|0,2:2|0:0,0:0:0:0:
341,142,152472,1,0,1:0:0:0:
408,268,152672,6,0,P|402:239|372:211,1,62.5,8|0,1:2|0:0,0:0:0:0:
380,215,152872,6,0,P|441:225|507:233,1,125,2|0,0:0|1:0,0:0:0:0:
3,229,153272,2,0,P|65:236|126:246,1,125,2|8,3:2|1:2,0:0:0:0:
99,100,153672,6,0,P|96:133|78:160,1,62.5,2|0,0:0|0:0,0:0:0:0:
176,366,153872,2,0,P|187:304|214:248,1,125,2|2,0:0|1:2,0:0:0:0:
19,106,154272,1,10,1:2:0:0:
221,11,154472,2,0,P|236:37|238:68,1,62.5,2|0,0:0|0:0,0:0:0:0:
175,177,154672,5,0,1:0:0:0:
285,211,154872,1,0,3:0:0:0:
136,284,155072,1,8,1:2:0:0:
247,324,155272,1,0,3:0:0:0:
252,330,155372,1,0,0:0:0:0:
256,336,155472,5,0,3:0:0:0:
170,369,155672,1,0,1:0:0:0:
83,119,155872,1,8,0:2:0:0:
431,273,156072,1,0,3:0:0:0:
344,23,156272,1,4,1:2:0:0:
344,23,156672,6,0,P|334:54|329:83,1,62.5,10|0,1:2|0:0,0:0:0:0:
263,125,156872,1,2,0:0:0:0:
227,97,156972,1,0,0:0:0:0:
251,60,157072,1,0,0:0:0:0:
395,134,157272,6,0,P|385:165|380:194,1,62.5,2|0,1:2|0:0,0:0:0:0:
101,192,157472,2,0,P|123:110|146:-8,1,187.5,10|0,1:2|0:0,0:0:0:0:
304,208,157872,6,0,P|294:239|289:268,1,62.5,2|0,1:2|0:0,0:0:0:0:
223,310,158072,1,2,0:0:0:0:
187,282,158172,1,0,0:0:0:0:
211,245,158272,1,8,1:2:0:0:
360,308,158472,6,0,P|350:339|345:368,1,62.5,2|0,0:0|0:0,0:0:0:0:
347,382,158672,5,2,0:0:0:0:
106,222,158872,1,0,1:0:0:0:
304,15,159072,1,10,1:2:0:0:
245,76,159272,5,2,0:0:0:0:
274,116,159372,1,0,0:0:0:0:
321,101,159472,1,0,1:0:0:0:
383,51,159672,5,2,0:0:0:0:
324,227,159872,2,0,P|465:207|523:200,1,187.5,10|0,1:2|3:0,0:0:0:0:
325,346,160272,2,0,B|260:328|305:292|236:266,1,125,2|0,3:2|0:0,0:0:0:0:
150,334,160572,2,0,P|181:338|215:341,1,62.5,2|0,3:2|0:0,0:0:0:0:
123,138,160872,2,0,P|60:145|0:154,1,125,2|0,3:2|1:0,0:0:0:0:
155,54,161272,6,0,B|188:65|178:78|207:87,1,62.5,0|0,3:0|0:0,0:0:0:0:
442,108,161472,1,8,1:2:0:0:
232,292,161672,5,2,0:0:0:0:
216,310,161772,1,0,0:0:0:0:
270,366,161872,5,6,1:2:0:0:
242,18,162172,1,6,1:2:0:0:
172,229,162472,6,0,P|226:208|315:308,1,187.5,4|0,1:0|0:0,0:0:0:0:
335,123,162872,2,0,P|310:133|270:136,1,62.5,4|0,3:3|0:0,0:0:0:0:
400,69,163072,1,8,3:3:0:0:
381,205,163172,1,8,3:3:0:0:
381,205,163272,2,0,P|412:207|441:218,1,62.5,4|0,3:3|0:0,0:0:0:0:
395,290,163472,5,6,1:2:0:0:
26,337,163772,1,6,1:2:0:0:
512,310,164072,6,0,B|494:203|459:271|443:130,1,187.5,4|8,1:0|3:0,0:0:0:0:
509,10,164472,2,0,P|505:41|492:69,1,62.5,4|0,3:3|0:0,0:0:0:0:
274,136,164672,1,8,1:3:0:0:
342,91,164772,1,0,0:0:0:0:
275,44,164872,2,0,P|244:47|216:61,1,62.5,4|8,3:0|3:0,0:0:0:0:
95,384,165072,5,6,1:2:0:0:
157,0,165372,1,6,1:2:0:0:
26,337,165672,6,0,B|61:322|67:282|67:282|131:263,1,125,4|8,1:0|3:0,0:0:0:0:
201,233,165972,1,8,3:0:0:0:
168,338,166072,2,0,P|203:343|244:367,1,62.5,4|0,3:3|0:0,0:0:0:0:
402,288,166272,2,0,P|340:278|273:253,1,125,8|8,1:3|3:0,0:0:0:0:
207,243,166572,1,4,3:0:0:0:
201,233,166672,5,6,1:2:0:0:
0,19,166972,1,6,1:2:0:0:
282,130,167272,6,0,L|353:121,1,62.5,4|0,1:0|3:0,0:0:0:0:
512,58,167472,5,4,3:0:0:0:
447,7,167572,1,4,3:0:0:0:
370,36,167672,1,10,3:0:0:0:
357,115,167772,1,8,3:0:0:0:
414,173,167872,1,6,3:0:0:0:
90,29,168072,5,8,3:0:0:0:
167,3,168172,1,4,3:0:0:0:
191,80,168272,2,0,B|174:153|136:97|124:193,1,125,6|0,1:2|0:0,0:0:0:0:
5,159,168572,2,0,P|8:105|68:118,1,125,6|0,1:2|0:0,0:0:0:0:
162,250,168872,6,0,B|163:313|163:313|103:304|85:364|85:364|-14:228,1,312.5,4|0,1:0|0:0,0:0:0:0:
15,338,169472,5,0,1:0:0:0:
23,329,169572,1,0,0:0:0:0:
34,323,169672,1,8,3:0:0:0:
46,320,169772,1,4,3:0:0:0:
113,282,169872,5,2,1:2:0:0:
130,308,169972,1,2,1:2:0:0:
157,321,170072,1,2,1:2:0:0:
188,317,170172,1,2,1:2:0:0:
245,259,170272,5,2,1:2:0:0:
321,177,170372,1,2,1:2:0:0:
382,266,170472,2,0,L|371:334,1,62.5,2|0,1:3|0:0,0:0:0:0:
256,192,170672,12,0,171472,0:0:0:0:
372,327,172072,6,0,P|326:227|306:359,1,312.5,4|0,1:1|0:0,0:2:0:0:
278,349,172472,6,0,P|256:311|178:335,1,93.7500035762788,2|0,1:2|0:2,0:2:0:0:
23,334,172672,2,0,B|19:352|-2:363|-2:363|112:339,1,125,10|0,1:2|0:0,0:2:0:0:
182,71,172872,5,0,3:2:0:0:
113,20,172972,1,0,3:2:0:0:
53,80,173072,2,0,P|77:119|96:179,1,93.7500035762788,2|0,1:2|0:2,0:2:0:0:
25,206,173272,5,2,0:2:0:0:
151,236,173372,2,0,P|115:243|77:267,1,78.125,2|8,3:2|1:2,0:2:0:0:
181,159,173572,5,0,3:2:0:0:
181,159,173672,2,0,P|209:174|244:179,1,62.5,2|0,3:2|3:2,0:0:0:0:
375,299,173872,5,0,1:2:0:0:
344,366,173972,2,0,P|350:323|357:289,1,78.125,2|0,0:2|0:0,0:0:0:0:
316,222,174172,5,2,0:2:0:0:
421,238,174272,2,0,P|405:159|389:68,1,156.25,10|2,1:2|0:2,0:2:0:0:
205,284,174672,5,2,1:2:0:0:
207,359,174772,1,2,3:2:0:0:
272,319,174872,2,0,P|226:324|155:334,1,93.7500035762788,2|0,3:2|0:0,0:0:0:0:
283,152,175072,2,0,P|329:157|375:163,1,93.7500035762788,8|0,1:2|0:0,0:0:0:0:
453,316,175272,6,2,B|411:322|397:365|397:365|397:320|350:294,1,156.25,2|0,1:2|0:0,0:2:0:0:
360,300,175872,6,0,B|368:286|368:286|493:263|493:263|502:248,1,156.25,8|0,1:1|0:0,0:2:0:0:
453,34,176072,5,0,3:2:0:0:
374,0,176172,1,0,3:2:0:0:
332,74,176272,2,0,P|363:106|381:167,1,93.7500035762788,2|0,1:2|0:2,0:2:0:0:
341,220,176472,5,2,0:2:0:0:
455,194,176572,1,2,3:2:0:0:
455,194,176672,2,0,P|454:231|428:279,1,78.125,8|0,1:2|0:0,0:0:0:0:
366,307,176872,6,0,P|367:338|380:366,1,62.5,2|0,3:2|3:2,0:0:0:0:
296,151,177072,6,0,P|255:128|195:132,1,78.125,0|0,1:2|3:2,0:0:0:0:
192,256,177272,2,0,P|159:276|120:279,1,78.125,2|0,3:2|0:2,0:2:0:0:
237,47,177472,6,0,P|195:51|150:90,1,78.125,10|0,1:2|0:2,0:0:0:0:
133,201,177672,2,0,P|94:195|61:175,1,78.125,2|0,3:2|0:2,0:2:0:0:
0,114,177872,6,0,P|69:244|89:377,3,281.250010728836,2|2|10|10,1:1|3:2|1:1|3:2,0:2:0:0:
6,330,178572,5,8,3:2:0:0:
165,240,178672,6,0,P|165:253|159:266,1,25,6|0,1:1|0:0,0:0:0:0:
231,298,178872,2,0,P|226:310|216:321,1,25,2|0,1:2|0:0,0:2:0:0:
198,101,179072,5,8,1:2:0:0:
357,191,179272,6,0,P|357:177|351:164,1,25,2|0,1:2|0:2,0:0:0:0:
423,133,179472,2,0,P|418:120|408:109,1,25,2|0,1:2|0:0,0:0:0:0:
328,92,179672,6,0,P|419:75|520:59,2,187.500007152558,2|8|2,3:2|1:2|3:2,0:2:0:0:
283,19,180172,1,0,0:0:0:0:
266,148,180272,6,0,P|301:117|279:16,1,156.25,2|0,1:1|0:2,0:2:0:0:
200,9,180472,2,0,P|165:40|187:141,1,156.25,2|0,3:2|0:2,0:2:0:0:
266,148,180672,6,0,P|301:117|279:16,1,156.25,10|0,1:1|0:2,0:2:0:0:
200,9,180872,2,0,P|165:40|187:141,1,156.25,10|0,3:3|0:2,0:2:0:0:
233,78,181072,6,0,P|142:95|41:111,1,187.500007152558,2|4,1:1|1:3,0:0:0:0:
421,274,181472,6,0,L|533:296,1,93.7500035762788,10|0,1:1|0:0,0:0:0:0:
362,226,181672,5,10,3:2:0:0:
333,294,181772,1,8,0:2:0:0:
351,215,181872,6,0,L|314:107,1,93.7500035762788,6|0,1:1|0:2,0:2:0:0:
331,307,182072,6,0,L|256:394,1,93.7500035762788,2|0,3:2|0:2,0:2:0:0:
415,280,182272,6,0,L|527:302,1,93.7500035762788,10|0,1:1|0:0,0:0:0:0:
99,124,182472,6,0,P|98:137|104:150,1,25,2|0,1:2|3:2,0:0:0:0:
34,179,182672,2,0,P|38:191|48:202,1,25,2|0,1:2|0:2,0:2:0:0:
85,267,182872,6,0,L|40:44,2,206.250001966953,2|8|8,3:2|1:2|3:3,0:2:0:0:
21,324,183372,1,4,3:3:0:0:
157,328,183472,2,0,B|122:343|122:343|116:361|116:361|82:376,1,93.7500035762788,6|0,1:1|0:2,0:2:0:0:
30,149,183672,5,10,3:3:0:0:
103,120,183772,5,8,3:3:0:0:
149,58,183872,5,2,1:1:0:0:
181,129,183972,5,4,3:3:0:0:
243,171,184072,5,6,1:3:0:0:
482,325,184272,6,0,L|413:332,1,62.5,10|0,1:1|0:0,0:0:0:0:
333,339,184472,2,0,B|278:354|278:354|372:343,1,125,8|0,1:1|0:0,0:0:0:0:
339,42,184872,6,0,B|343:23|334:7|334:7|450:53|450:53|394:64|385:131,1,250,4|0,1:1|0:0,0:2:0:0:
389,110,185272,6,0,P|410:158|465:124,1,125,2|0,1:2|0:0,0:2:0:0:
263,43,185472,2,0,B|191:57|228:82|149:98,1,125,10|0,1:2|0:2,0:2:0:0:
0,148,185672,5,0,3:2:0:0:
75,103,185772,1,0,3:2:0:0:
127,177,185872,2,0,P|105:209|97:264,1,93.7500035762788,2|0,1:2|0:2,0:2:0:0:
141,384,186072,5,2,0:2:0:0:
0,364,186172,2,0,P|33:344|72:340,1,78.125,2|8,3:2|1:2,0:2:0:0:
186,252,186372,5,0,3:2:0:0:
186,252,186472,2,0,P|212:267|243:271,1,62.5,2|0,3:2|3:2,0:0:0:0:
326,165,186672,5,2,1:2:0:0:
360,94,186772,1,2,0:2:0:0:
438,94,186872,1,0,0:0:0:0:
475,162,186972,1,2,0:2:0:0:
433,228,187072,1,10,1:2:0:0:
433,228,187272,2,0,P|384:237|362:257,1,78.125,2|0,3:2|0:0,0:0:0:0:
243,271,187472,5,2,1:2:0:0:
301,331,187572,1,2,3:2:0:0:
231,378,187672,1,2,3:2:0:0:
231,378,187872,6,0,P|175:336|106:329,1,140.625005364418,10|0,1:2|0:0,0:0:0:0:
31,346,188072,6,2,P|1:333|59:275,1,156.25,2|0,1:2|0:0,0:2:0:0:
106,329,188672,5,10,1:1:0:0:
55,254,188772,1,2,3:1:0:0:
107,182,188872,1,2,3:1:0:0:
41,123,188972,1,2,3:1:0:0:
90,49,189072,6,0,L|224:72,1,93.7500035762788,2|0,1:2|0:0,0:2:0:0:
251,9,189272,1,2,0:2:0:0:
215,141,189372,1,2,3:2:0:0:
215,141,189472,2,0,L|309:129,1,78.125,8|0,1:2|0:2,0:0:0:0:
351,75,189672,5,2,0:2:0:0:
423,41,189772,1,0,3:2:0:0:
454,111,189872,2,0,P|436:142|434:189,1,78.125,2|0,1:2|0:0,0:0:0:0:
387,297,190072,2,0,P|380:261|352:224,1,78.125,2|0,3:2|0:0,0:0:0:0:
491,235,190272,6,0,P|509:204|511:157,1,78.125,10|0,1:2|0:2,0:2:0:0:
278,207,190472,2,0,P|280:245|299:279,1,78.125,2|0,3:2|0:2,0:2:0:0:
487,384,190672,6,0,P|424:346|181:336,3,281.250010728836,2|2|10|10,1:1|3:2|1:1|3:2,0:2:0:0:
165,269,191372,1,8,3:2:0:0:
29,360,191472,6,0,P|36:374|38:393,1,25,6|0,1:1|0:0,0:0:0:0:
111,355,191672,2,0,P|113:342|119:331,1,25,2|0,1:2|0:2,0:2:0:0:
0,154,191872,5,8,1:2:0:0:
78,145,192072,6,0,P|80:132|86:121,1,25,2|0,1:2|0:2,0:2:0:0:
47,219,192272,2,0,P|52:229|55:242,1,25,2|0,1:2|0:2,0:2:0:0:
273,33,192472,6,0,L|147:51,1,93.7500035762788,2|0,3:2|0:0,0:2:0:0:
22,74,192672,1,8,1:2:0:0:
22,74,192872,6,0,L|148:92,1,93.7500035762788,2|0,3:2|0:0,0:0:0:0:
306,108,193072,6,0,P|264:166|286:242,1,156.25,2|0,1:1|0:2,0:2:0:0:
377,254,193272,2,0,P|419:196|397:120,1,156.25,2|0,3:2|0:2,0:2:0:0:
306,108,193472,6,0,P|264:166|286:242,1,156.25,10|0,1:1|0:2,0:2:0:0:
377,254,193672,2,0,P|419:196|397:120,1,156.25,10|0,3:3|0:0,0:2:0:0:
341,182,193872,6,0,L|89:218,1,187.500007152558,2|4,1:1|3:3,0:0:0:0:
81,175,194172,1,0,0:0:0:0:
95,280,194272,6,0,B|86:257|86:257|17:244,1,93.7500035762788,10|0,1:2|0:0,0:2:0:0:
113,73,194472,5,8,3:2:0:0:
173,0,194572,1,8,3:2:0:0:
233,66,194672,2,0,L|212:169,1,93.7500035762788,6|0,1:0|0:0,0:0:0:0:
68,360,194872,6,0,P|118:361|157:339,1,93.7500035762788,8|0,3:3|0:0,0:0:0:0:
218,166,195072,1,2,1:1:0:0:
166,237,195172,1,8,3:3:0:0:
288,211,195272,1,6,3:3:0:0:
233,66,195472,5,2,1:0:0:0:
218,64,195572,1,8,3:3:0:0:
176,57,195672,5,8,3:3:0:0:
161,55,195772,1,6,3:3:0:0:
113,47,195872,5,2,1:1:0:0:
98,45,195972,1,0,0:0:0:0:
56,38,196072,5,6,3:3:0:0:
41,36,196172,1,0,0:0:0:0:
25,81,196272,5,2,1:0:0:0:
80,69,196372,1,8,3:0:0:0:
135,58,196472,1,8,3:0:0:0:
190,47,196572,1,6,3:0:0:0:
245,36,196672,2,0,L|216:157,1,93.7500035762788,2|4,1:1|3:3,0:0:0:0:
167,380,196872,5,6,3:3:0:0:
167,380,197072,2,0,P|127:331|2:341,1,187.500007152558,12|0,1:1|0:0,0:0:0:0:
321,198,197372,6,0,P|361:247|486:237,1,187.500007152558,12|0,1:1|0:0,0:0:0:0:
512,169,197672,2,0,B|492:159|492:159|478:80,1,93.7500035762788,12|0,1:1|0:0,0:0:0:0:
360,32,197872,5,6,1:2:0:0:
407,64,197972,1,0,0:0:0:0:
374,105,198072,2,0,L|301:119,1,62.5,10|10,3:3|3:3,0:0:0:0:
234,196,198272,5,10,1:2:0:0:
291,122,198372,1,8,3:0:0:0:
213,63,198472,2,0,L|140:77,1,62.5,6|0,1:3|0:0,0:0:0:0:
39,59,198672,5,10,1:3:0:0:
8,106,198772,1,8,3:0:0:0:
57,131,198872,1,8,1:2:0:0:
25,177,198972,1,10,1:2:0:0:
73,206,199072,2,0,L|52:312,1,93.7500035762788,10|4,1:3|3:0,0:0:0:0:
294,320,199272,2,0,L|310:237,1,78.125,8|0,1:2|3:0,0:0:0:0:
279,171,199472,6,0,P|312:147|388:138,1,109.375001043081,8|8,1:0|3:0,0:0:0:0:
481,329,199672,2,0,P|435:300|382:295,1,109.375001043081,8|8,1:0|3:0,0:0:0:0:
121,339,199872,6,0,P|166:368|220:373,1,109.375001043081,8|8,1:0|3:0,0:0:0:0:
512,175,200072,2,0,P|466:204|413:210,1,109.375001043081,8|0,1:0|0:0,0:0:0:0:
0,0,201072,1,4,1:1:0:0:
