osu file format v14

[General]
AudioFilename: suite 102.mp3
AudioLeadIn: 0
PreviewTime: -1
Countdown: 1
SampleSet: None
StackLeniency: 0.7
Mode: 0
LetterboxInBreaks: 1
WidescreenStoryboard: 0

[Editor]
DistanceSpacing: 1.4
BeatDivisor: 8
GridSize: 4
TimelineZoom: 3.999998

[Metadata]
Title:Suite 102
TitleUnicode:Suite 102
Artist:fract3l
ArtistUnicode:fract3l
Creator:kennyyam
Version:
Source:
Tags:
BeatmapID:1084394
BeatmapSetID:509978

[Difficulty]
HPDrainRate:7
CircleSize:5
OverallDifficulty:8
ApproachRate:9
SliderMultiplier:1.4
SliderTickRate:1

[Events]
//Background and Video events
//Break Periods
2,45430,51092
//Storyboard Layer 0 (Background)
//Storyboard Layer 1 (Fail)
//Storyboard Layer 2 (Pass)
//Storyboard Layer 3 (Foreground)
//Storyboard Sound Samples

[TimingPoints]
-0.203412058769,461.538461538462,4,1,0,100,1,0
10615,-66.6666666666667,4,1,0,100,0,0
10845,-100,4,1,0,100,0,0
29538,-66.6666666666667,4,1,0,100,0,0
42461,-100,4,1,0,100,0,0
51692,-76.9230769230769,4,1,0,100,0,0
56019,-76.9230769230769,4,1,0,5,0,0
56076,-76.9230769230769,4,1,0,100,0,0
56249,-76.9230769230769,4,1,0,5,0,0
56307,-76.9230769230769,4,1,0,100,0,0
56538,-76.9230769230769,4,1,0,5,0,0
56711,-76.9230769230769,4,1,0,100,0,0

[HitObjects]
56,88,0,6,0,L|140:72|140:72,1,70
172,160,461,2,0,L|264:184|264:184,1,70
272,72,922,2,0,L|344:60|344:60,1,70
424,116,1384,2,0,P|444:160|424:208,1,70
372,248,1845,6,0,L|280:280|280:280,1,70
220,220,2307,2,0,L|312:188|312:188,1,70
268,100,2769,2,0,L|176:132|176:132,1,70
116,72,3230,2,0,B|124:64|124:64|132:72|132:72|136:64|136:64|144:72|144:72|148:64|148:64|156:72|156:72|160:64|160:64|168:72|168:72|176:60,1,70
256,60,3692,5,0,0:0:0:0:
352,80,3922,1,0,0:0:0:0:
328,176,4153,1,0,0:0:0:0:
424,192,4384,1,0,0:0:0:0:
432,288,4615,2,0,P|408:332|372:348,1,70
296,344,5076,6,0,P|280:210|293:200,1,140
328,176,5769,1,0,0:0:0:0:
276,92,5999,1,0,0:0:0:0:
180,84,6230,1,0,0:0:0:0:
112,152,6461,1,0,0:0:0:0:
128,248,6692,1,0,0:0:0:0:
204,312,6922,2,0,P|272:304|312:248,1,140
368,168,7615,5,0,0:0:0:0:
348,72,7845,1,0,0:0:0:0:
272,132,8076,1,0,0:0:0:0:
248,36,8307,1,0,0:0:0:0:
168,92,8538,1,0,0:0:0:0:
172,192,8769,5,0,0:0:0:0:
172,192,8999,1,0,0:0:0:0:
180,288,9230,2,0,P|224:332|244:340,1,70
292,260,9692,2,0,P|248:304|228:312,1,70
196,220,10153,2,0,P|240:264|260:272,1,70
270,205,10615,2,0,B|268:200|268:200|272:200|272:200|272:196|272:196|276:196|276:196|276:192|276:192|280:192|280:192|280:188|280:188|284:188|284:188|284:184|284:184|288:184|288:184|288:180|288:180|292:180|292:180|292:176|292:176|296:176|296:176|296:172|296:172|300:172|300:172|300:168|300:168|304:168|304:168|304:164|304:164|308:164|308:164|308:160|308:160|312:160|312:160|312:156|312:156|316:156|316:156|316:152|316:152|320:152|320:152,1,105.000004005432
392,88,11076,6,0,B|336:52|304:56|300:56,1,70
232,76,11538,2,0,L|144:88|144:88,1,70
84,144,11999,2,0,P|68:216|72:232,1,70
136,280,12461,2,0,B|188:312|188:312|212:296|212:296,1,70
236,216,12922,2,0,P|276:176|292:240,3,140
376,328,14769,6,0,P|444:344|464:316,1,105
448,276,15230,2,0,L|416:188|416:188,1,70
372,128,15692,2,0,L|288:116|288:116,1,70
204,120,16153,2,0,L|120:140|120:140,1,70
64,200,16615,6,0,P|76:260|100:304,1,105
140,312,17076,2,0,L|236:316,1,70
304,292,17538,1,0,0:0:0:0:
352,204,17769,1,0,0:0:0:0:
320,112,17999,1,0,0:0:0:0:
232,68,18230,1,0,0:0:0:0:
136,80,18461,6,0,P|94:122|118:172,1,105
132,204,18922,2,0,L|228:204,1,70
288,160,19384,1,0,0:0:0:0:
256,260,19615,1,0,0:0:0:0:
348,232,19845,1,0,0:0:0:0:
292,168,20076,1,0,0:0:0:0:
256,260,20307,6,0,B|276:336|280:348|300:356,1,105
344,348,20769,2,0,L|392:280,1,70
428,204,21230,1,0,0:0:0:0:
344,156,21461,1,0,0:0:0:0:
252,188,21692,1,0,0:0:0:0:
220,280,21922,1,0,0:0:0:0:
140,336,22153,6,0,L|84:280,1,70
168,228,22615,2,0,L|100:160,1,70
140,84,23076,1,0,0:0:0:0:
232,120,23307,1,0,0:0:0:0:
320,80,23538,1,0,0:0:0:0:
412,116,23769,1,0,0:0:0:0:
384,208,23999,6,0,L|348:288|348:288,1,70
264,308,24461,2,0,L|300:232|300:232,1,70
232,172,24922,1,0,0:0:0:0:
232,172,25153,1,0,0:0:0:0:
184,256,25384,1,0,0:0:0:0:
184,256,25615,1,0,0:0:0:0:
184,256,25845,2,0,P|136:296|76:256,1,140
252,168,26769,6,0,P|308:124|348:180,1,140
236,324,27692,1,0,0:0:0:0:
224,316,27807,1,0,0:0:0:0:
212,308,27922,1,0,0:0:0:0:
200,300,28038,1,0,0:0:0:0:
188,292,28153,1,0,0:0:0:0:
176,284,28269,1,0,0:0:0:0:
164,276,28384,1,0,0:0:0:0:
152,268,28499,1,0,0:0:0:0:
140,260,28615,2,0,L|72:212,2,70
304,316,29538,6,0,P|384:304|340:208,1,210.000008010865
216,144,30230,1,0,0:0:0:0:
84,76,30461,2,0,B|32:88|32:88|32:144,1,105
164,207,30922,2,0,B|216:195|216:195|216:139,1,105
84,76,31384,1,0,0:0:0:0:
112,220,31615,5,0,0:0:0:0:
112,220,31730,1,0,0:0:0:0:
112,220,31845,1,0,0:0:0:0:
244,280,32076,1,0,0:0:0:0:
240,132,32307,1,0,0:0:0:0:
364,212,32538,1,0,0:0:0:0:
360,64,32769,6,0,P|320:92|348:108,1,52.5000020027161
344,148,32999,2,0,P|384:120|356:104,1,52.5000020027161
316,344,33461,5,0,0:0:0:0:
244,344,33576,1,0,0:0:0:0:
172,344,33692,1,0,0:0:0:0:
56,252,33922,2,0,L|60:168|60:168,1,78.7500030040742
84,148,34153,2,0,B|120:96|120:96|145:107|145:107|153:107,1,78.7500030040742
152,132,34384,2,0,P|184:160|224:152,1,78.7500030040742
248,136,34615,2,0,P|288:100|328:140,2,105.000004005432
252,284,35307,5,0,0:0:0:0:
392,328,35538,2,0,P|436:300|404:272,1,105.000004005432
280,200,35999,1,0,0:0:0:0:
144,252,36230,1,0,0:0:0:0:
164,108,36461,1,0,0:0:0:0:
296,44,36692,2,0,P|356:112|344:128,1,105.000004005432
348,248,37153,1,0,0:0:0:0:
232,340,37384,6,0,P|188:268|200:216,1,105.000004005432
260,124,37845,1,0,0:0:0:0:
392,192,38076,1,0,0:0:0:0:
260,124,38307,1,0,0:0:0:0:
392,60,38538,1,0,0:0:0:0:
260,128,38769,2,0,L|128:200,1,105.000004005432
100,204,39115,1,0,0:0:0:0:
32,236,39230,2,0,P|44:328|136:296,1,210.000008010865
228,192,39922,5,0,0:0:0:0:
352,116,40153,2,0,P|376:120|368:88,1,52.5000020027161
332,44,40384,2,0,P|303:50|313:76,1,52.5000020027161
444,240,40845,5,0,0:0:0:0:
400,300,40961,1,0,0:0:0:0:
336,332,41076,1,0,0:0:0:0:
192,312,41307,2,0,P|104:300|80:256,1,105.000004005432
96,144,41769,2,0,B|96:52|96:52|112:64|112:64,1,105.000004005432
204,172,42230,2,0,P|272:200|296:200,1,78.7500030040742
296,188,42461,6,0,P|348:215|296:243,1,140
104,224,43384,2,0,P|248:224|248:224,1,140
440,212,44307,2,0,P|452:216|440:232,1,35
396,224,44538,1,0,0:0:0:0:
348,224,44653,1,0,0:0:0:0:
200,220,44999,6,0,B|180:212|180:212|160:224|160:224|140:212|140:212,1,52.5
128,220,45230,1,0,0:0:0:0:
188,176,51692,6,0,P|192:208|252:200,1,90.9999958343508
288,168,52038,1,0,0:0:0:0:
328,120,52153,1,0,0:0:0:0:
420,32,52384,2,0,P|432:92|420:128,1,90.9999958343508
348,224,52845,1,0,0:0:0:0:
248,300,53076,1,0,0:0:0:0:
248,300,53307,2,0,B|256:304|243:307|188:300|176:264|172:264,1,90.9999958343508
100,160,53769,5,0,0:0:0:0:
100,160,53884,1,0,0:0:0:0:
100,160,53999,1,0,0:0:0:0:
200,84,54230,1,0,0:0:0:0:
200,84,54461,2,0,P|272:112|280:136,1,90.9999958343508
268,248,54922,2,0,P|264:284|264:284,1,22.7499989585877
172,300,55153,2,0,P|168:328|168:328,1,22.7499989585877
208,104,55615,5,0,0:0:0:0:
256,60,55730,1,0,0:0:0:0:
304,100,55845,2,0,B|304:148|284:180|284:180,1,68.2499968757631
204,144,56076,2,0,B|204:96|224:64|224:64,1,68.2499968757631
268,48,56307,2,0,P|356:48|356:48,1,68.2499968757631
340,132,56538,2,0,L|264:132,1,68.2499968757631
228,132,56769,2,0,P|164:132|164:132,2,45.4999979171754
356,132,57230,6,0,P|392:224|376:304,1,181.999991668702
135,303,58153,6,0,P|120:214|156:132,1,181.999991668702
256,32,59076,6,0,P|332:68|204:48,1,545.999975006105
396,216,60922,2,0,B|416:168|508:196|520:264|424:356|424:356|292:340|232:248|344:152|388:240|388:240,1,545.999975006105
404,312,62538,1,0,0:0:0:0:
280,332,62769,2,0,P|84:204|260:72,1,523.249976047517
476,92,64615,1,0,0:0:0:0:
468,148,64730,1,0,0:0:0:0:
