osu file format v14

[General]
AudioFilename: yumeiro.mp3
AudioLeadIn: 0
PreviewTime: 53405
Countdown: 0
SampleSet: Soft
StackLeniency: 0.7
Mode: 0
LetterboxInBreaks: 0
WidescreenStoryboard: 0

[Editor]
DistanceSpacing: 1
BeatDivisor: 4
GridSize: 4
TimelineZoom: 1.2

[Metadata]
Title:Yumeiro Compass
TitleUnicode:ユメイロコンパス
Artist:fourfolium
ArtistUnicode:fourfolium
Creator:Doormat
Version:Normal
Source:NEW GAME!!
Tags:フォーフォリウム ニューゲーム season 2 two ending ed tv size takada yuuki 高田憂希 suzukaze aoba 涼風青葉 yamaguchi megumi 山口愛 takimoto hifumi 滝本ひふみ toda megumi 戸田めぐみ shinoda hazime 篠田はじめ ayumi takeo 竹尾歩美 iizima yun 飯島ゆん
BeatmapID:1394409
BeatmapSetID:658129

[Difficulty]
HPDrainRate:4
CircleSize:3.5
OverallDifficulty:4
ApproachRate:4
SliderMultiplier:1.1
SliderTickRate:1

[Events]
//Background and Video events
Video,0,"newgame_ed2.avi"
0,0,"newgame_background.jpg",0,0
//Break Periods
//Storyboard Layer 0 (Background)
//Storyboard Layer 1 (Fail)
//Storyboard Layer 2 (Pass)
//Storyboard Layer 3 (Foreground)
//Storyboard Sound Samples

[TimingPoints]
-75,461.538461538462,4,2,2,40,1,0
1771,-100,4,2,2,40,0,0
9155,-100,4,2,1,50,0,0
38694,-100,4,2,1,40,0,0
46078,-100,4,2,1,50,0,0
47925,-100,4,2,1,60,0,0
49771,-100,4,2,1,70,0,0
53463,-100,4,2,1,80,0,1
68117,-100,4,2,1,80,0,0
68232,-100,4,2,1,80,0,1
83001,-100,4,2,1,60,0,0
86809,-100,4,2,1,30,0,0
89232,-100,4,2,1,5,0,0

[Colours]
Combo1 : 241,142,86
Combo2 : 250,191,27
Combo3 : 149,216,62
Combo4 : 181,178,148
Combo5 : 195,123,177
Combo6 : 149,208,183
Combo7 : 237,121,128
Combo8 : 129,205,219

[HitObjects]
388,252,1771,6,0,P|333:244|281:260,1,110,4|2,0:0|0:0,0:0:0:0:
181,217,2694,1,2,0:0:0:0:
181,217,2925,2,0,L|189:145,1,55,2|0,0:0|0:0,0:0:0:0:
185,109,3386,2,0,B|237:141|237:141|284:127,1,110,2|2,0:0|0:0,0:0:0:0:
329,97,4078,1,2,0:0:0:0:
329,97,4309,2,0,B|384:78|384:78|429:102,1,110,2|2,0:0|0:0,0:0:0:0:
473,137,5001,1,2,0:0:0:0:
425,237,5463,6,0,B|365:209|313:237|313:237|261:265|205:237,1,220,4|2,0:0|0:3,0:0:0:0:
173,205,6617,2,0,L|165:269,1,55,2|2,0:0|0:0,0:0:0:0:
125,297,7078,1,2,0:0:0:0:
28,244,7540,1,0,0:0:0:0:
12,140,8001,2,0,P|52:156|132:132,1,110,2|0,0:3|3:0,0:0:0:0:
156,104,8694,1,2,0:3:0:0:
248,168,9155,5,6,0:0:0:0:
184,260,9617,1,8,0:0:0:0:
276,324,10078,2,0,L|272:396,2,55,2|2|8,0:0|0:0|0:0,0:0:0:0:
284,268,10771,2,0,P|335:284|387:269,1,110,2|2,0:0|0:0,0:0:0:0:
428,232,11463,1,8,0:0:0:0:
428,232,11694,1,0,0:0:0:0:
372,136,12155,1,2,0:0:0:0:
372,136,12386,2,0,L|296:140,1,55,8|0,0:0|0:0,0:0:0:0:
268,112,12848,5,2,0:0:0:0:
208,204,13309,1,8,0:0:0:0:
116,144,13771,2,0,L|124:80,2,55,2|2|8,0:0|0:0|0:0,0:0:0:0:
64,164,14463,2,0,P|80:192|68:288,1,110,2|2,0:0|0:0,0:0:0:0:
44,308,15155,1,8,0:0:0:0:
44,308,15386,1,2,0:3:0:0:
132,376,15848,1,2,0:0:0:0:
132,376,16078,2,0,L|204:364,1,55,8|0,0:0|0:0,0:0:0:0:
228,332,16540,5,2,0:0:0:0:
336,352,17001,1,8,0:0:0:0:
444,328,17463,2,0,P|447:355|445:382,2,55,2|2|8,0:0|0:0|0:0,0:0:0:0:
412,284,18155,2,0,L|420:152,1,110,2|2,0:0|0:0,0:0:0:0:
448,128,18848,1,8,0:0:0:0:
448,128,19078,2,0,P|384:144|324:116,1,110,2|2,0:0|0:0,0:0:0:0:
296,104,19771,1,8,0:0:0:0:
228,192,20232,5,2,0:0:0:0:
123,154,20694,1,8,0:0:0:0:
126,42,21155,2,0,L|182:35,1,55,2|2,0:0|0:0,0:0:0:0:
228,8,21617,1,8,0:0:0:0:
228,8,21848,2,0,P|216:56|248:128,1,110,2|2,0:0|0:0,0:0:0:0:
272,152,22540,1,8,0:0:0:0:
272,152,22771,2,0,P|325:141|365:104,1,110,2|2,0:0|0:0,0:0:0:0:
392,56,23463,1,8,0:0:0:0:
280,52,23925,6,0,L|148:44,1,110,6|8,0:0|0:0,0:0:0:0:
76,108,24848,2,0,L|88:188,1,55,2|2,0:0|0:0,0:0:0:0:
60,212,25309,1,8,0:0:0:0:
60,212,25540,2,0,P|96:196|168:208,1,110,2|2,0:0|0:0,0:0:0:0:
204,244,26232,1,8,0:0:0:0:
204,244,26463,2,0,P|208:204|254:148,1,110,2|2,0:3|0:0,0:0:0:0:
304,136,27155,1,8,0:0:0:0:
384,212,27617,5,2,0:0:0:0:
460,132,28078,1,8,0:0:0:0:
452,24,28540,2,0,L|372:36,1,55,2|2,0:0|0:0,0:0:0:0:
344,32,29001,1,8,0:0:0:0:
344,32,29232,2,0,P|352:68|324:144,1,110,2|2,0:0|0:0,0:0:0:0:
284,168,29925,1,8,0:0:0:0:
284,168,30155,1,2,0:3:0:0:
192,104,30617,1,2,0:0:0:0:
192,104,30848,2,0,L|112:116,1,55,8|0,0:0|0:0,0:0:0:0:
84,108,31309,6,0,P|96:168|96:224,1,110,2|8,0:0|0:0,0:0:0:0:
80,324,32232,2,0,L|16:308,2,55,2|2|8,0:0|0:0|0:0,0:0:0:0:
127,299,32925,2,0,P|176:324|229:315,1,110,2|2,0:0|0:0,0:0:0:0:
268,276,33617,1,8,0:0:0:0:
268,276,33848,2,0,P|319:259|370:276,1,110,2|2,0:0|0:0,0:0:0:0:
412,312,34540,1,8,0:0:0:0:
488,232,35001,5,2,0:0:0:0:
396,172,35463,2,0,P|383:119|396:66,1,110,8|2,0:0|0:0,0:0:0:0:
424,20,36155,2,0,L|369:13,1,55,2|8,0:0|0:0,0:0:0:0:
316,32,36617,2,0,L|206:18,1,110,6|8,0:0|0:3,0:0:0:0:
152,12,37309,1,8,0:0:0:0:
152,12,37540,2,0,P|164:56|132:128,1,110,6|8,0:0|0:0,0:0:0:0:
100,148,38232,1,8,3:0:0:0:
176,228,38694,6,0,P|212:200|336:224,1,165,6|2,0:0|0:0,0:0:0:0:
436,212,39848,1,2,0:0:0:0:
436,212,40078,2,0,L|440:136,1,55,8|0,0:0|0:0,0:0:0:0:
472,112,40540,2,0,P|394:134|323:96,1,165,2|2,0:0|0:0,0:0:0:0:
252,12,41694,1,2,0:0:0:0:
252,12,41925,1,8,0:0:0:0:
160,72,42386,6,0,L|172:200,1,110,2|0,0:0|0:0,0:0:0:0:
208,220,43078,1,2,0:0:0:0:
208,220,43309,2,0,P|160:220|132:232,2,55,0|2|8,0:0|0:0|0:0,0:0:0:0:
316,248,44232,2,0,P|369:259|420:243,1,110,2|0,0:0|0:0,0:0:0:0:
460,204,44925,2,0,P|448:257|464:308,1,110,2|2,0:0|0:0,0:0:0:0:
500,352,45617,1,4,0:3:0:0:
392,376,46078,6,0,L|282:366,1,110,6|8,0:0|0:0,0:0:0:0:
232,380,46771,1,4,0:0:0:0:
232,380,47001,2,0,L|241:270,1,110,2|8,0:0|0:0,0:0:0:0:
308,184,47925,2,0,L|417:193,1,110,6|8,0:0|0:0,0:0:0:0:
472,180,48617,1,4,0:0:0:0:
472,180,48848,2,0,L|462:289,1,110,2|8,0:0|0:0,0:0:0:0:
392,376,49771,6,0,L|282:366,1,110,6|8,0:0|0:0,0:0:0:0:
224,272,50694,2,0,L|334:262,1,110,2|8,0:0|0:0,0:0:0:0:
424,200,51617,1,10,0:0:0:0:
361,109,52078,1,4,0:3:0:0:
270,171,52540,2,0,L|204:164,1,55,8|8,3:0|3:0,0:0:0:0:
168,192,53001,2,0,L|102:185,1,55,4|8,3:2|3:0,0:0:0:0:
63,163,53463,6,0,P|74:217|58:269,1,110,6|8,0:0|0:0,0:0:0:0:
108,368,54386,2,0,L|176:360,1,55,2|2,0:0|0:0,0:0:0:0:
212,384,54848,1,8,0:0:0:0:
212,384,55078,2,0,P|201:330|217:278,1,110,0|0,0:0|0:0,0:0:0:0:
256,240,55771,2,0,L|200:208,2,55,8|0|2,0:0|0:0|0:0,0:0:0:0:
356,284,56694,1,8,0:0:0:0:
428,202,57155,6,0,L|412:84,1,110,2|8,0:0|0:0,0:0:0:0:
328,24,58078,2,0,P|292:36|260:32,1,55,2|2,0:0|0:0,0:0:0:0:
224,20,58540,1,8,0:0:0:0:
224,20,58771,2,0,P|232:72|204:132,1,110,0|0,0:0|0:0,0:0:0:0:
164,152,59463,2,0,L|180:212,1,55,8|0,0:0|0:0,0:0:0:0:
196,256,59925,1,2,0:0:0:0:
288,196,60386,1,8,0:0:0:0:
373,264,60848,6,0,L|368:328,1,55,6|0,0:0|0:0,0:0:0:0:
396,368,61309,2,0,P|348:344|276:364,1,110,8|2,0:0|0:0,0:0:0:0:
184,352,62232,1,8,0:0:0:0:
184,352,62463,2,0,L|188:224,1,110,0|0,0:0|0:0,0:0:0:0:
208,192,63155,2,0,L|144:188,2,55,8|0|2,0:0|0:0|0:0,0:0:0:0:
312,232,64078,1,8,0:0:0:0:
352,128,64540,5,6,0:0:0:0:
248,88,65001,2,0,L|176:100,1,55,8|0,0:0|0:0,0:0:0:0:
140,108,65463,1,6,0:0:0:0:
32,124,65925,2,0,L|44:200,1,55,8|2,0:0|0:0,0:0:0:0:
16,228,66386,2,0,P|68:208|132:220,1,110,6|8,0:0|0:0,0:0:0:0:
172,240,67078,1,0,3:0:0:0:
172,240,67309,2,0,P|139:283|131:337,1,110,0|8,3:0|3:0,0:0:0:0:
240,324,68232,5,6,0:0:0:0:
344,360,68694,1,8,0:0:0:0:
410,272,69155,1,2,0:0:0:0:
347,181,69617,1,8,0:0:0:0:
347,181,69848,2,0,P|293:210|231:193,1,110
200,172,70540,2,0,L|145:181,1,55,8|0,0:0|0:0,0:0:0:0:
92,188,71001,1,10,0:0:0:0:
108,80,71463,1,8,0:0:0:0:
216,96,71925,5,2,0:0:0:0:
199,204,72386,1,8,0:0:0:0:
296,253,72848,1,2,0:0:0:0:
374,175,73309,1,8,0:0:0:0:
374,175,73540,2,0,P|356:136|376:64,1,110,0|0,0:0|0:0,0:0:0:0:
396,24,74232,2,0,L|328:14,1,55,8|0,0:0|0:0,0:0:0:0:
292,40,74694,1,10,0:0:0:0:
224,128,75155,1,8,0:0:0:0:
208,236,75617,6,0,P|251:216|331:236,1,110,6|8,0:0|0:0,0:0:0:0:
411,179,76540,2,0,L|403:124,1,55,2|2,0:0|0:0,0:0:0:0:
399,71,77001,1,8,0:0:0:0:
399,71,77232,2,0,P|356:91|276:71,1,110,0|0,0:0|0:0,0:0:0:0:
255,47,77925,1,8,0:0:0:0:
147,75,78386,2,0,L|155:147,1,55,2|2,0:0|0:0,0:0:0:0:
195,167,78848,2,0,L|203:239,1,55,8|0,0:0|0:0,0:0:0:0:
231,267,79309,5,6,0:0:0:0:
319,335,79771,1,8,0:0:0:0:
410,272,80232,1,6,0:0:0:0:
378,165,80694,1,8,0:0:0:0:
266,161,81155,2,0,P|219:163|147:155,1,110,6|8,0:0|0:0,0:0:0:0:
107,131,81848,1,0,0:0:0:0:
107,131,82078,2,0,P|109:178|101:250,1,110,6|8,0:0|0:3,0:0:0:0:
77,290,82771,1,8,0:3:0:0:
77,290,83001,6,0,P|124:288|196:296,1,110,6|2,0:0|0:3,0:0:0:0:
279,351,83925,2,0,L|355:335,1,55,0|0,0:0|0:0,0:0:0:0:
387,347,84386,2,0,L|375:275,2,55,2|0|4,0:3|0:0|0:0,0:0:0:0:
435,371,85078,1,0,1:0:0:0:
435,371,85309,1,0,1:0:0:0:
511,291,85771,2,0,L|499:219,1,55,4|2,1:3|0:0,0:0:0:0:
487,183,86232,1,4,1:2:0:0:
391,235,86694,5,4,0:0:0:0:
256,192,86925,12,0,89232,0:0:0:0:
