osu file format v14

[General]
AudioFilename: yumeiro.mp3
AudioLeadIn: 0
PreviewTime: 53405
Countdown: 0
SampleSet: Soft
StackLeniency: 0.7
Mode: 0
LetterboxInBreaks: 0
WidescreenStoryboard: 0

[Editor]
DistanceSpacing: 1
BeatDivisor: 4
GridSize: 4
TimelineZoom: 1.2

[Metadata]
Title:Yumeiro Compass
TitleUnicode:ユメイロコンパス
Artist:fourfolium
ArtistUnicode:fourfolium
Creator:Doormat
Version:Hard
Source:NEW GAME!!
Tags:フォーフォリウム ニューゲーム season 2 two ending ed tv size takada yuuki 高田憂希 suzukaze aoba 涼風青葉 yamaguchi megumi 山口愛 takimoto hifumi 滝本ひふみ toda megumi 戸田めぐみ shinoda hazime 篠田はじめ ayumi takeo 竹尾歩美 iizima yun 飯島ゆん
BeatmapID:1398167
BeatmapSetID:658129

[Difficulty]
HPDrainRate:5
CircleSize:4
OverallDifficulty:6.5
ApproachRate:7
SliderMultiplier:1.5
SliderTickRate:1

[Events]
//Background and Video events
Video,0,"newgame_ed2.avi"
0,0,"newgame_background.jpg",0,0
//Break Periods
//Storyboard Layer 0 (Background)
//Storyboard Layer 1 (Fail)
//Storyboard Layer 2 (Pass)
//Storyboard Layer 3 (Foreground)
//Storyboard Sound Samples

[TimingPoints]
-75,461.538461538462,4,2,2,40,1,0
1771,-133.333333333333,4,2,2,40,0,0
9155,-100,4,2,1,50,0,0
38694,-133.333333333333,4,2,1,40,0,0
46078,-111.111111111111,4,2,1,50,0,0
47925,-111.111111111111,4,2,1,60,0,0
49771,-100,4,2,1,70,0,0
53463,-100,4,2,1,80,0,1
68117,-100,4,2,1,80,0,0
68232,-100,4,2,1,80,0,1
83001,-100,4,2,1,60,0,0
86809,-100,4,2,1,30,0,0
89232,-100,4,2,1,5,0,0

[Colours]
Combo1 : 241,142,86
Combo2 : 250,191,27
Combo3 : 149,216,62
Combo4 : 181,178,148
Combo5 : 195,123,177
Combo6 : 149,208,183
Combo7 : 237,121,128
Combo8 : 129,205,219

[HitObjects]
280,92,1771,6,0,L|200:84,1,56.2500021457673,4|0,0:0|0:0,0:0:0:0:
264,220,2232,2,0,L|319:214,1,56.2500021457673,2|0,0:0|0:0,0:0:0:0:
444,200,2694,1,2,0:0:0:0:
375,144,2925,1,2,0:0:0:0:
388,268,3155,1,0,0:0:0:0:
360,124,3386,6,0,P|351:68|351:12,1,112.500004291535,2|2,0:0|0:0,0:0:0:0:
460,96,4078,1,2,0:0:0:0:
420,232,4309,2,0,L|307:221,1,112.500004291535,2|2,0:0|0:0,0:0:0:0:
176,180,5001,1,2,0:0:0:0:
262,134,5232,1,2,0:0:0:0:
221,266,5463,6,0,P|208:312|236:372,1,112.500004291535,4|2,0:0|0:0,0:0:0:0:
372,360,6155,1,0,0:0:0:0:
372,360,6271,1,0,0:0:0:0:
372,360,6386,1,2,0:3:0:0:
300,308,6617,1,2,0:0:0:0:
233,369,6848,1,2,0:0:0:0:
296,288,7078,6,0,L|407:271,1,112.500004291535,2|0,0:0|0:0,0:0:0:0:
444,184,7771,1,0,0:0:0:0:
320,156,8001,2,0,L|209:173,1,112.500004291535,2|0,0:3|3:0,0:0:0:0:
128,216,8694,2,0,P|117:190|117:162,1,56.2500021457673,2|0,0:3|0:0,0:0:0:0:
206,267,9155,6,0,P|145:307|71:289,2,150,6|8|2,0:0|0:0|0:0,0:0:0:0:
260,144,10309,1,2,0:0:0:0:
171,178,10540,1,8,0:0:0:0:
294,232,10771,6,0,L|453:209,1,150,2|2,0:0|0:0,0:0:0:0:
484,112,11463,1,8,0:0:0:0:
388,68,11694,2,0,L|377:142,1,75,0|2,0:0|0:0,0:0:0:0:
280,104,12155,1,2,0:0:0:0:
280,104,12386,2,0,L|269:29,1,75,8|0,0:0|0:0,0:0:0:0:
216,172,12848,6,0,P|277:198|353:158,2,150,2|8|2,0:0|0:0|0:0,0:0:0:0:
144,92,14001,1,2,0:0:0:0:
136,230,14232,1,8,0:0:0:0:
128,76,14463,6,0,L|284:60,1,150,2|2,0:0|0:0,0:0:0:0:
368,116,15155,1,8,0:0:0:0:
292,220,15386,2,0,L|142:204,1,150,2|2,0:3|0:0,0:0:0:0:
20,148,16078,1,8,0:0:0:0:
109,114,16309,1,0,0:0:0:0:
53,237,16540,5,2,0:0:0:0:
53,237,17001,2,0,P|32:308|68:371,1,150,8|2,0:0|0:0,0:0:0:0:
160,381,17694,1,2,0:0:0:0:
124,296,17925,1,8,0:0:0:0:
252,373,18155,6,0,P|328:360|400:351,1,150,2|2,0:0|0:0,0:0:0:0:
504,368,18848,1,8,0:0:0:0:
412,264,19078,2,0,P|388:216|420:120,1,150,2|2,0:0|0:0,0:0:0:0:
500,72,19771,1,8,0:0:0:0:
384,32,20001,1,0,0:0:0:0:
384,32,20117,1,0,0:0:0:0:
384,32,20232,6,0,L|304:44,1,75,2|0,0:0|0:0,0:0:0:0:
264,140,20694,2,0,L|344:152,1,75,8|0,0:0|0:0,0:0:0:0:
388,236,21155,1,2,0:0:0:0:
322,309,21386,1,2,0:0:0:0:
232,268,21617,1,8,0:0:0:0:
264,140,21848,6,0,P|280:100|240:8,1,150,2|2,0:0|0:0,0:0:0:0:
120,32,22540,1,8,0:0:0:0:
120,32,22771,2,0,P|104:72|144:164,1,150,2|2,0:0|0:0,0:0:0:0:
264,140,23463,1,8,0:0:0:0:
312,260,23694,1,0,0:0:0:0:
312,260,23809,1,0,0:0:0:0:
312,260,23925,6,0,P|236:244|151:238,1,150,6|8,0:0|0:0,0:0:0:0:
68,284,24617,1,0,0:0:0:0:
38,183,24848,2,0,L|52:104,1,75,2|2,0:0|0:0,0:0:0:0:
144,56,25309,1,8,0:0:0:0:
232,132,25540,6,0,P|244:176|216:296,1,150,2|2,0:0|0:0,0:0:0:0:
156,356,26232,1,8,0:0:0:0:
56,320,26463,1,2,0:3:0:0:
56,320,26694,2,0,L|68:240,1,75,2|2,0:0|0:0,0:0:0:0:
160,196,27155,2,0,L|171:270,1,75,8|0,0:0|0:0,0:0:0:0:
216,121,27617,6,0,P|145:104|83:145,2,150,2|8|2,0:0|0:0|0:0,0:0:0:0:
292,232,28771,1,2,0:0:0:0:
196,216,29001,1,8,0:0:0:0:
309,138,29232,6,0,L|476:152,1,150,2|2,0:0|0:0,0:0:0:0:
504,244,29925,1,8,0:0:0:0:
429,315,30156,1,2,0:3:0:0:
429,315,30386,2,0,L|412:228,1,75,2|2,0:0|0:0,0:0:0:0:
312,220,30848,2,0,L|297:293,1,75,8|0,0:0|0:0,0:0:0:0:
247,153,31309,5,2,0:0:0:0:
247,153,31771,2,0,P|316:127|384:163,1,150,8|2,0:0|0:0,0:0:0:0:
460,264,32463,1,2,0:0:0:0:
472,171,32694,1,8,0:0:0:0:
367,251,32925,6,0,P|316:244|208:240,1,150,2|2,0:0|0:0,0:0:0:0:
120,276,33617,1,8,0:0:0:0:
184,152,33848,2,0,P|208:108|168:8,1,150,2|2,0:0|0:0,0:0:0:0:
76,8,34540,1,8,0:0:0:0:
40,132,34771,1,0,0:0:0:0:
40,132,34886,1,0,0:0:0:0:
40,132,35001,6,0,L|43:216,1,75,2|0,0:0|0:0,0:0:0:0:
146,235,35463,2,0,L|142:150,1,75,8|0,0:0|0:0,0:0:0:0:
212,80,35925,1,2,0:0:0:0:
309,120,36156,1,2,0:0:0:0:
300,225,36387,1,8,0:0:0:0:
145,234,36617,6,0,P|71:215|7:267,1,150,6|8,0:0|0:3,0:0:0:0:
88,307,37309,1,8,0:0:0:0:
236,244,37540,2,0,L|224:84,1,150,6|8,0:0|0:0,0:0:0:0:
76,124,38232,1,8,3:0:0:0:
74,142,38347,1,8,3:0:0:0:
73,161,38462,1,8,3:0:0:0:
24,47,38694,6,0,P|76:29|128:47,1,112.500004291535,6|0,0:0|0:0,0:0:0:0:
200,100,39386,2,0,P|254:109|303:83,1,112.500004291535,2|2,0:0|0:0,0:0:0:0:
352,8,40078,1,8,0:0:0:0:
427,56,40309,1,0,0:0:0:0:
303,83,40540,6,0,L|296:195,1,112.500004291535,2|0,0:0|0:0,0:0:0:0:
207,211,41232,2,0,L|213:98,1,112.500004291535,2|2,0:0|0:0,0:0:0:0:
159,27,41925,1,8,0:0:0:0:
74,56,42156,1,0,0:0:0:0:
213,99,42386,6,0,P|263:91|335:87,1,112.500004291535,2|0,0:0|0:0,0:0:0:0:
405,130,43078,1,2,0:0:0:0:
405,130,43309,2,0,L|401:186,1,56.2500021457673,0|2,0:0|0:0,0:0:0:0:
320,228,43771,2,0,L|316:172,1,56.2500021457673,8|0,0:0|0:0,0:0:0:0:
381,297,44232,6,0,P|331:320|277:310,1,112.500004291535,2|0,0:0|0:0,0:0:0:0:
200,264,44925,2,0,P|210:209|186:159,1,112.500004291535,2|2,0:0|0:0,0:0:0:0:
80,88,45617,1,4,0:3:0:0:
97,177,45848,1,0,0:0:0:0:
169,70,46078,6,0,L|316:80,1,134.999995880127,6|8,0:0|0:0,0:0:0:0:
420,152,46771,1,4,0:0:0:0:
420,152,47001,2,0,P|411:119|417:86,1,67.4999979400635,2|2,0:0|0:0,0:0:0:0:
508,116,47463,2,0,P|516:148|510:181,1,67.4999979400635,8|0,0:0|0:0,0:0:0:0:
376,236,47925,6,0,L|229:226,1,134.999995880127,6|8,0:0|0:0,0:0:0:0:
120,164,48617,1,4,0:0:0:0:
120,164,48847,2,0,P|128:196|122:229,1,67.4999979400635,2|2,0:0|0:0,0:0:0:0:
32,200,49309,1,8,0:0:0:0:
124,72,49540,1,0,0:0:0:0:
124,72,49655,1,0,0:0:0:0:
124,72,49771,6,0,P|168:68|280:68,1,150,6|8,0:0|0:0,0:0:0:0:
368,88,50463,1,0,0:0:0:0:
303,233,50694,2,0,L|303:159,1,75,2|0,0:0|0:0,0:0:0:0:
448,128,51155,2,0,L|447:202,1,75,8|0,0:0|0:0,0:0:0:0:
303,233,51617,5,10,0:0:0:0:
275,149,51847,1,4,0:3:0:0:
186,149,52078,1,4,0:3:0:0:
159,233,52309,1,4,0:3:0:0:
230,284,52540,2,0,L|235:321,3,37.5,8|8|8|8,3:0|3:0|3:0|3:0,0:0:0:0:
244,358,53001,1,4,3:2:0:0:
360,320,53232,1,8,3:0:0:0:
360,320,53348,1,8,3:0:0:0:
360,320,53463,6,0,L|371:245,1,75,6|0,0:0|0:0,0:0:0:0:
272,200,53925,2,0,L|261:274,1,75,8|0,0:0|0:0,0:0:0:0:
343,140,54386,2,0,P|304:112|206:136,1,150,2|8,0:0|0:0,0:0:0:0:
262,274,55078,6,0,L|340:269,1,75,0|2,0:0|0:0,0:0:0:0:
436,312,55540,1,0,0:0:0:0:
507,230,55770,1,8,0:0:0:0:
451,137,56001,1,0,0:0:0:0:
451,137,56117,1,2,0:0:0:0:
451,137,56232,2,0,P|439:101|443:64,1,75,2|2,0:0|0:0,0:0:0:0:
348,112,56694,2,0,P|351:149|340:184,1,75,8|0,0:0|0:0,0:0:0:0:
185,142,57155,6,0,L|260:136,1,75,2|0,0:0|0:0,0:0:0:0:
216,234,57617,2,0,L|120:242,1,75,8|0|0|0,0:0|0:0,0:0:0:0:
195,332,58078,2,0,P|265:308|336:329,1,150,2|8,0:0|0:0,0:0:0:0:
376,212,58771,6,0,L|364:124,1,75,0|2,0:0|0:0,0:0:0:0:
292,64,59232,1,0,0:0:0:0:
196,108,59463,2,0,L|212:228,1,112.5,8|0,0:0|0:0,0:0:0:0:
247,240,59925,1,2,0:0:0:0:
247,240,60040,1,2,0:0:0:0:
247,240,60155,1,2,0:0:0:0:
232,344,60386,2,0,L|148:330,1,75,8|2,0:0|0:0,0:0:0:0:
4,248,60848,6,0,P|75:264|136:224,1,150,6|8,0:0|0:0,0:0:0:0:
235,269,61540,1,0,0:0:0:0:
235,269,61655,1,2,0:0:0:0:
235,269,61771,2,0,L|231:353,1,75,2|2,0:0|0:0,0:0:0:0:
332,384,62232,1,8,0:0:0:0:
436,296,62463,6,0,P|452:252|412:144,1,150,0|0,0:0|0:0,0:0:0:0:
292,88,63155,1,8,0:0:0:0:
392,55,63386,1,0,0:0:0:0:
392,55,63501,1,2,0:0:0:0:
392,55,63617,2,0,L|476:68,1,75,2|2,0:0|0:0,0:0:0:0:
412,160,64078,2,0,L|328:172,1,75,8|0,0:0|0:0,0:0:0:0:
191,127,64540,6,0,P|215:197|189:266,1,150,6|8,0:0|0:0,0:0:0:0:
64,264,65232,1,0,0:0:0:0:
64,264,65348,1,8,0:0:0:0:
64,264,65463,2,0,P|40:194|66:125,1,150,6|8,0:0|0:0,0:0:0:0:
129,44,66155,1,2,0:0:0:0:
191,127,66386,6,0,L|272:116,1,75,6|0,0:0|0:0,0:0:0:0:
364,156,66848,1,8,0:0:0:0:
403,57,67079,1,0,3:0:0:0:
403,57,67194,1,8,0:0:0:0:
403,57,67309,1,0,3:0:0:0:
501,96,67540,1,2,0:0:0:0:
364,156,67771,1,8,3:0:0:0:
354,154,67886,1,8,3:0:0:0:
345,153,68001,1,8,3:0:0:0:
336,152,68117,1,8,3:0:0:0:
326,150,68232,6,0,P|330:187|324:223,1,75,6|0,0:0|0:0,0:0:0:0:
224,184,68694,2,0,P|219:146|225:110,1,75,8|0,0:0|0:0,0:0:0:0:
240,80,69040,1,2,0:0:0:0:
240,80,69155,2,0,L|152:68,1,75,2|2,0:0|0:0,0:0:0:0:
68,112,69617,1,8,0:0:0:0:
148,212,69848,6,0,L|222:201,1,75,0|2,0:0|0:0,0:0:0:0:
370,162,70309,1,0,0:0:0:0:
316,256,70540,1,8,0:0:0:0:
276,107,70770,1,0,0:0:0:0:
276,107,70886,1,2,0:0:0:0:
276,107,71001,2,0,P|269:71|268:33,1,75,10|2,0:0|0:0,0:0:0:0:
396,68,71463,2,0,P|395:105|387:142,1,75,8|2,0:0|0:0,0:0:0:0:
268,212,71925,6,0,L|194:197,1,75,2|0,0:0|0:0,0:0:0:0:
192,304,72386,2,0,L|265:318,1,75,8|0,0:0|0:0,0:0:0:0:
300,312,72732,1,2,0:0:0:0:
300,312,72848,2,0,P|292:352|304:388,1,75,2|2,0:0|0:0,0:0:0:0:
408,384,73309,1,8,0:0:0:0:
464,268,73540,6,0,P|472:228|460:192,1,75,0|2,0:0|0:0,0:0:0:0:
407,53,74001,1,0,0:0:0:0:
505,96,74232,1,8,0:0:0:0:
364,152,74463,1,0,0:0:0:0:
364,152,74578,1,2,0:0:0:0:
364,152,74694,2,0,L|276:148,1,75,10|2,0:0|0:0,0:0:0:0:
312,280,75155,2,0,L|400:276,1,75,8|2,0:0|0:0,0:0:0:0:
255,354,75617,6,0,P|219:288|242:219,1,150,6|8,0:0|0:0,0:0:0:0:
336,172,76309,1,0,0:0:0:0:
336,172,76425,1,8,0:0:0:0:
336,172,76540,1,2,0:0:0:0:
319,66,76771,1,2,0:0:0:0:
164,144,77001,1,8,0:0:0:0:
213,49,77232,1,0,0:0:0:0:
213,49,77348,1,0,0:0:0:0:
213,49,77463,6,0,P|260:40|376:36,1,150,2|8,0:0|0:0,0:0:0:0:
499,102,78155,1,0,0:0:0:0:
499,102,78271,1,8,0:0:0:0:
499,102,78386,1,2,0:0:0:0:
396,137,78617,1,2,0:0:0:0:
464,0,78847,1,8,0:0:0:0:
380,132,79078,1,0,0:0:0:0:
380,132,79194,1,0,0:0:0:0:
380,132,79309,6,0,P|376:188|376:220,1,75,6|0,0:0|0:0,0:0:0:0:
276,144,79771,2,0,P|280:88|280:56,1,75,8|0,0:0|0:0,0:0:0:0:
176,124,80232,2,0,P|172:180|172:212,1,75,6|0,0:0|0:0,0:0:0:0:
72,136,80694,2,0,P|76:80|76:48,1,75,8|0,0:0|0:0,0:0:0:0:
204,32,81155,6,0,P|244:56|336:16,1,150,6|8,0:0|0:0,0:0:0:0:
440,56,81848,1,0,0:0:0:0:
440,56,81963,1,8,0:0:0:0:
440,56,82078,1,6,0:0:0:0:
439,168,82310,1,4,0:3:0:0:
331,202,82541,1,8,0:3:0:0:
331,89,82771,1,8,0:3:0:0:
439,168,83001,1,6,0:0:0:0:
256,210,83232,6,0,L|330:201,1,75,0|2,0:0|0:3,0:0:0:0:
340,346,83694,2,0,L|295:285,1,75,0|0,0:0|0:0,0:0:0:0:
415,206,84155,1,0,0:0:0:0:
415,206,84386,2,0,L|385:275,1,75,2|0,0:3|0:0,0:0:0:0:
332,138,84848,1,4,0:0:0:0:
232,242,85078,5,0,1:0:0:0:
232,242,85309,2,0,L|306:245,1,75,0|2,1:0|0:0,0:0:0:0:
451,271,85771,1,4,1:3:0:0:
392,186,86002,1,2,0:0:0:0:
365,330,86233,1,4,1:2:0:0:
496,178,86463,1,0,0:0:0:0:
496,178,86578,1,2,0:3:0:0:
496,178,86694,5,4,0:0:0:0:
256,192,86809,12,0,89232,0:0:0:0:
