osu file format v14

[General]
AudioFilename: yumeiro.mp3
AudioLeadIn: 0
PreviewTime: 53405
Countdown: 0
SampleSet: Soft
StackLeniency: 0.7
Mode: 0
LetterboxInBreaks: 0
WidescreenStoryboard: 0

[Editor]
DistanceSpacing: 0.9
BeatDivisor: 4
GridSize: 4
TimelineZoom: 1.2

[Metadata]
Title:Yumeiro Compass
TitleUnicode:ユメイロコンパス
Artist:fourfolium
ArtistUnicode:fourfolium
Creator:Doormat
Version:Easy
Source:NEW GAME!!
Tags:フォーフォリウム ニューゲーム season 2 two ending ed tv size takada yuuki 高田憂希 suzukaze aoba 涼風青葉 yamaguchi megumi 山口愛 takimoto hifumi 滝本ひふみ toda megumi 戸田めぐみ shinoda hazime 篠田はじめ ayumi takeo 竹尾歩美 iizima yun 飯島ゆん
BeatmapID:1397335
BeatmapSetID:658129

[Difficulty]
HPDrainRate:2
CircleSize:3
OverallDifficulty:2
ApproachRate:2
SliderMultiplier:1
SliderTickRate:1

[Events]
//Background and Video events
Video,0,"newgame_ed2.avi"
0,0,"newgame_background.jpg",0,0
//Break Periods
//Storyboard Layer 0 (Background)
//Storyboard Layer 1 (Fail)
//Storyboard Layer 2 (Pass)
//Storyboard Layer 3 (Foreground)
//Storyboard Sound Samples

[TimingPoints]
-75,461.538461538462,4,2,2,40,1,0
1771,-100,4,2,2,40,0,0
9155,-100,4,2,1,50,0,0
38694,-100,4,2,1,40,0,0
46078,-100,4,2,1,50,0,0
47925,-100,4,2,1,60,0,0
49771,-100,4,2,1,70,0,0
53463,-100,4,2,1,80,0,1
68117,-100,4,2,1,80,0,0
68232,-100,4,2,1,80,0,1
83001,-100,4,2,1,60,0,0
86809,-100,4,2,1,30,0,0
89232,-100,4,2,1,5,0,0

[Colours]
Combo1 : 241,142,86
Combo2 : 250,191,27
Combo3 : 149,216,62
Combo4 : 181,178,148
Combo5 : 195,123,177
Combo6 : 149,208,183
Combo7 : 237,121,128
Combo8 : 129,205,219

[HitObjects]
148,264,1771,6,0,P|239:308|148:353,1,250,4|2,0:0|0:0,0:0:0:0:
69,308,3386,2,0,B|47:261|69:218|69:218|94:174|69:116,1,200,2|2,0:0|0:0,0:0:0:0:
133,52,4771,2,0,L|190:59,1,50,2|2,0:0|0:0,0:0:0:0:
268,88,5463,6,0,P|334:4|390:95,1,250,4|2,0:0|0:0,0:0:0:0:
384,184,7078,2,0,B|380:224|420:268|420:268|380:296|364:348|364:348|312:328|256:336|256:336|254:360|240:384,1,350,2|2,0:0|0:3,0:0:0:0:
164,332,9155,5,6,0:0:0:0:
99,269,9617,1,8,0:0:0:0:
137,189,10078,2,0,L|286:177,1,150,2|2,0:0|0:0,0:0:0:0:
376,184,11232,2,0,P|373:159|366:135,2,50,2|8|0,0:0|0:0|0:0,0:0:0:0:
324,256,12155,2,0,L|265:265,1,50,2|8,0:0|0:0,0:0:0:0:
184,280,12848,5,2,0:0:0:0:
136,356,13309,1,8,0:0:0:0:
225,359,13771,2,0,L|390:374,1,150,2|2,0:0|0:0,0:0:0:0:
436,308,14925,2,0,P|455:327|467:354,2,50,2|8|2,0:0|0:0|0:3,0:0:0:0:
384,236,15848,2,0,L|374:178,1,50,2|8,0:0|0:0,0:0:0:0:
292,148,16540,6,0,L|180:120,1,100,2|8,0:0|0:0,0:0:0:0:
168,40,17463,2,0,P|111:88|117:166,1,150,2|2,0:0|0:0,0:0:0:0:
176,224,18617,2,0,L|151:282,2,50,2|8|2,0:0|0:0|0:0,0:0:0:0:
252,272,19540,2,0,L|257:325,1,50,2|8,0:0|0:0,0:0:0:0:
332,372,20232,5,2,0:0:0:0:
412,336,20694,1,8,0:0:0:0:
364,259,21155,2,0,P|348:186|372:116,1,150,2|2,0:0|0:0,0:0:0:0:
448,64,22309,1,2,0:0:0:0:
365,28,22771,2,0,L|213:42,1,150,2|8,0:0|0:0,0:0:0:0:
128,16,23925,5,6,0:0:0:0:
96,100,24386,1,8,0:0:0:0:
181,131,24848,2,0,P|204:196|177:294,1,150,2|2,0:0|0:0,0:0:0:0:
104,304,26001,2,0,L|120:372,2,50,2|8|2,0:0|0:0|0:3,0:0:0:0:
56,228,26925,2,0,L|67:179,1,50,2|8,0:0|0:0,0:0:0:0:
92,92,27617,5,2,0:0:0:0:
166,141,28078,1,8,0:0:0:0:
216,64,28540,2,0,L|367:73,1,150,2|2,0:0|0:0,0:0:0:0:
452,100,29694,2,0,P|456:72|448:32,2,50,2|8|2,0:0|0:0|0:3,0:0:0:0:
384,160,30617,2,0,P|355:163|319:181,1,50,2|8,0:0|0:0,0:0:0:0:
252,208,31309,6,0,L|147:197,1,100,2|8,0:0|0:0,0:0:0:0:
120,284,32232,2,0,L|289:300,1,150,2|2,0:0|0:0,0:0:0:0:
356,272,33386,2,0,P|360:296|358:321,2,50,2|8|2,0:0|0:0|0:0,0:0:0:0:
328,184,34309,2,0,P|321:150|324:117,1,50,2|8,0:0|0:0,0:0:0:0:
381,67,35001,5,2,0:0:0:0:
313,6,35463,1,8,0:0:0:0:
253,73,35925,2,0,L|92:57,1,150,2|6,0:0|0:0,0:0:0:0:
32,116,37078,1,8,0:3:0:0:
104,172,37540,2,0,P|125:218|89:305,1,150,6|8,0:0|3:0,0:0:0:0:
156,364,38694,6,0,B|208:376|208:376|252:348|252:348|296:356,1,150,6|2,0:0|0:0,0:0:0:0:
428,320,40078,1,8,0:0:0:0:
368,252,40540,2,0,L|196:244,2,150,2|2|8,0:0|0:0|0:0,0:0:0:0:
427,320,42386,6,0,P|460:253|431:185,1,150,2|2,0:0|0:0,0:0:0:0:
332,96,43771,1,8,0:0:0:0:
272,164,44232,2,0,P|228:180|136:132,2,150,2|2|4,0:0|0:0|0:3,0:0:0:0:
356,200,46078,6,0,L|377:363,2,150,6|4|8,0:0|0:0|0:0,0:0:0:0:
440,164,47925,2,0,L|461:329,2,150,6|4|8,0:0|0:0|0:0,0:0:0:0:
368,108,49771,6,0,P|346:63|338:13,1,100,6|8,0:0|0:0,0:0:0:0:
249,32,50694,2,0,P|240:81|219:126,1,100,2|8,0:0|0:0,0:0:0:0:
148,184,51617,1,10,0:0:0:0:
82,124,52078,1,4,0:3:0:0:
21,189,52540,2,0,L|30:299,1,100,8|4,3:0|3:2,0:0:0:0:
104,340,53463,5,6,0:0:0:0:
174,281,53925,1,8,0:0:0:0:
138,194,54386,2,0,P|123:122|164:61,2,150,2|0|8,0:0|0:0|0:0,0:0:0:0:
212,140,56232,2,0,L|312:128,1,100,2|8,0:0|0:0,0:0:0:0:
364,56,57155,5,2,0:0:0:0:
437,110,57617,1,8,0:0:0:0:
382,183,58078,2,0,L|374:345,1,150,2|0,0:0|0:0,0:0:0:0:
288,308,59232,2,0,L|285:257,1,50,0|8,0:0|0:0,0:0:0:0:
288,168,59925,2,0,P|240:180|188:168,1,100,2|8,0:0|0:0,0:0:0:0:
128,108,60848,5,6,0:0:0:0:
84,187,61309,1,8,0:0:0:0:
1,157,61771,2,0,L|16:7,2,150,2|0|8,0:0|0:0|0:0,0:0:0:0:
0,248,63617,2,0,L|104:237,1,100,2|8,0:0|0:0,0:0:0:0:
188,232,64540,6,0,L|197:332,1,100,6|8,0:0|0:0,0:0:0:0:
285,324,65463,2,0,L|276:223,1,100,6|8,0:0|0:0,0:0:0:0:
224,152,66386,2,0,L|123:161,1,100,6|8,0:0|0:0,0:0:0:0:
115,73,67309,2,0,L|215:64,1,100,0|8,3:0|3:0,0:0:0:0:
284,8,68232,5,6,0:0:0:0:
359,60,68694,1,8,0:0:0:0:
332,146,69155,1,2,0:0:0:0:
241,148,69617,1,8,0:0:0:0:
214,233,70078,2,0,L|225:336,1,100,2|8,0:0|0:0,0:0:0:0:
312,364,71001,2,0,L|323:264,1,100,10|8,0:0|0:0,0:0:0:0:
400,216,71925,5,2,0:0:0:0:
375,127,72386,1,8,0:0:0:0:
282,122,72848,1,2,0:0:0:0:
250,208,73309,1,8,0:0:0:0:
160,204,73771,2,0,P|112:194|67:173,1,100,2|8,0:0|0:0,0:0:0:0:
100,88,74694,2,0,P|148:78|198:81,1,100,10|8,0:0|0:0,0:0:0:0:
284,108,75617,5,6,0:0:0:0:
351,46,76078,1,8,0:0:0:0:
428,90,76540,2,0,L|417:193,1,100,2|8,0:0|0:0,0:0:0:0:
336,224,77463,2,0,P|299:190|251:181,1,100,2|8,0:0|0:0,0:0:0:0:
212,264,78386,2,0,P|248:297|296:306,1,100,2|8,0:0|0:0,0:0:0:0:
390,292,79309,5,6,0:0:0:0:
336,224,79771,1,8,0:0:0:0:
383,151,80232,1,6,0:0:0:0:
330,83,80694,1,8,0:0:0:0:
246,112,81155,2,0,P|200:120|147:109,1,100,6|8,0:0|0:0,0:0:0:0:
60,104,82078,2,0,P|67:150|57:203,1,100,6|8,0:0|0:3,0:0:0:0:
40,292,83001,6,0,B|93:279|137:303|137:303|133:251|165:211|165:211|221:211|253:259|253:259|281:207|345:191,1,400,6|4,0:0|0:0,0:0:0:0:
408,168,85309,1,0,1:0:0:0:
484,218,85771,2,0,L|472:320,1,100,4|4,1:3|1:2,0:0:0:0:
388,352,86694,5,4,0:0:0:0:
256,192,86925,12,0,89232,0:0:0:0:
