osu file format v14

[General]
AudioFilename: yumeiro.mp3
AudioLeadIn: 0
PreviewTime: 53405
Countdown: 0
SampleSet: Soft
StackLeniency: 0.7
Mode: 0
LetterboxInBreaks: 0
WidescreenStoryboard: 0

[Editor]
DistanceSpacing: 1.5
BeatDivisor: 4
GridSize: 4
TimelineZoom: 1.2

[Metadata]
Title:Yumeiro Compass
TitleUnicode:ユメイロコンパス
Artist:fourfolium
ArtistUnicode:fourfolium
Creator:Doormat
Version:Advanced
Source:NEW GAME!!
Tags:フォーフォリウム ニューゲーム season 2 two ending ed tv size takada yuuki 高田憂希 suzukaze aoba 涼風青葉 yamaguchi megumi 山口愛 takimoto hifumi 滝本ひふみ toda megumi 戸田めぐみ shinoda hazime 篠田はじめ ayumi takeo 竹尾歩美 iizima yun 飯島ゆん
BeatmapID:1398454
BeatmapSetID:658129

[Difficulty]
HPDrainRate:4.5
CircleSize:3.7
OverallDifficulty:5.5
ApproachRate:6
SliderMultiplier:1.3
SliderTickRate:1

[Events]
//Background and Video events
Video,0,"newgame_ed2.avi"
0,0,"newgame_background.jpg",0,0
//Break Periods
//Storyboard Layer 0 (Background)
//Storyboard Layer 1 (Fail)
//Storyboard Layer 2 (Pass)
//Storyboard Layer 3 (Foreground)
//Storyboard Sound Samples

[TimingPoints]
-75,461.538461538462,4,2,2,40,1,0
1771,-111.111111111111,4,2,2,40,0,0
9155,-100,4,2,1,50,0,0
38694,-111.111111111111,4,2,1,40,0,0
46078,-111.111111111111,4,2,1,50,0,0
47925,-111.111111111111,4,2,1,60,0,0
49771,-111.111111111111,4,2,1,70,0,0
53463,-100,4,2,1,80,0,1
68117,-100,4,2,1,80,0,0
68232,-100,4,2,1,80,0,1
83001,-100,4,2,1,60,0,0
86809,-100,4,2,1,30,0,0
89232,-100,4,2,1,5,0,0

[Colours]
Combo1 : 241,142,86
Combo2 : 250,191,27
Combo3 : 149,216,62
Combo4 : 181,178,148
Combo5 : 195,123,177
Combo6 : 149,208,183
Combo7 : 237,121,128
Combo8 : 129,205,219

[HitObjects]
356,172,1771,6,0,L|363:231,1,58.4999982147217,4|0,0:0|0:0,0:0:0:0:
276,240,2232,2,0,L|270:182,1,58.4999982147217,2|0,0:0|0:0,0:0:0:0:
305,103,2694,1,2,0:0:0:0:
305,103,2925,2,0,L|247:97,1,58.4999982147217,2|0,0:0|0:0,0:0:0:0:
184,160,3386,6,0,P|171:216|194:269,1,116.999996429443,2|2,0:0|0:0,0:0:0:0:
258,329,4078,1,2,0:0:0:0:
175,358,4309,2,0,P|117:366|65:338,1,116.999996429443,2|2,0:0|0:0,0:0:0:0:
7,270,5001,1,2,0:0:0:0:
73,210,5232,1,2,0:0:0:0:
131,274,5463,6,0,L|259:258,1,116.999996429443,4|2,0:0|0:0,0:0:0:0:
331,286,6155,2,0,L|335:314,2,29.2499991073609,0|0|2,0:0|0:0|0:3,0:0:0:0:
387,218,6617,2,0,L|377:150,1,58.4999982147217,2|2,0:0|0:0,0:0:0:0:
355,74,7078,6,0,P|295:94|235:78,1,116.999996429443,2|0,0:0|0:0,0:0:0:0:
165,41,7771,1,0,0:0:0:0:
100,100,8001,2,0,P|89:156|108:211,1,116.999996429443,2|0,0:3|3:0,0:0:0:0:
184,256,8694,2,0,L|256:240,1,58.4999982147217,2|0,0:3|0:0,0:0:0:0:
332,208,9155,6,0,L|318:337,2,130,6|8|2,0:0|0:0|0:0,0:0:0:0:
308,112,10309,1,2,0:0:0:0:
209,105,10540,1,8,0:0:0:0:
171,196,10771,6,0,P|112:216|36:168,1,130,2|2,0:0|0:0,0:0:0:0:
60,92,11463,1,8,0:0:0:0:
60,92,11693,2,0,P|120:72|179:98,1,130,0|2,0:0|0:0,0:0:0:0:
254,161,12386,1,8,0:0:0:0:
317,85,12616,1,0,0:0:0:0:
392,148,12848,6,0,P|378:217|374:293,2,130,2|8|2,0:0|0:0|0:0,0:0:0:0:
455,72,14001,1,2,0:0:0:0:
379,8,14232,1,8,0:0:0:0:
317,85,14463,6,0,L|166:65,1,130,2|2,0:0|0:0,0:0:0:0:
98,105,15155,1,8,0:0:0:0:
175,164,15386,2,0,P|194:205|162:289,1,130,2|2,0:3|0:0,0:0:0:0:
82,325,16078,1,8,0:0:0:0:
82,325,16309,1,0,0:0:0:0:
44,234,16540,5,2,0:0:0:0:
174,377,17001,2,0,L|302:359,1,130,8|2,0:0|0:0,0:0:0:0:
362,281,17694,1,2,0:0:0:0:
306,200,17925,1,8,0:0:0:0:
212,228,18155,6,0,P|154:226|78:218,1,130,2|2,0:0|0:0,0:0:0:0:
22,141,18848,1,8,0:0:0:0:
94,73,19078,2,0,P|152:75|228:83,1,130,2|2,0:0|0:0,0:0:0:0:
284,160,19771,2,0,L|354:149,1,65,8|0,0:0|0:0,0:0:0:0:
446,141,20232,6,0,L|438:211,1,65,2|0,0:0|0:0,0:0:0:0:
434,305,20694,2,0,P|394:281|302:301,1,130,8|2,0:0|0:0,0:0:0:0:
242,361,21386,1,2,0:0:0:0:
172,288,21616,1,8,0:0:0:0:
244,218,21848,6,0,L|230:81,1,130,2|2,0:0|0:0,0:0:0:0:
146,37,22540,1,8,0:0:0:0:
78,105,22771,2,0,L|92:242,1,130,2|2,0:0|0:0,0:0:0:0:
172,288,23463,1,8,0:0:0:0:
244,218,23694,1,0,0:0:0:0:
244,218,23809,1,0,0:0:0:0:
244,217,23925,6,0,P|306:204|366:227,1,130,6|8,0:0|0:0,0:0:0:0:
414,313,24617,1,0,0:0:0:0:
475,236,24848,2,0,L|462:161,2,65,2|2|8,0:0|0:0|0:0,0:0:0:0:
414,313,25540,6,0,P|370:289|286:309,1,130,2|2,0:0|0:0,0:0:0:0:
214,357,26232,1,8,0:0:0:0:
137,297,26463,1,2,0:3:0:0:
137,297,26694,2,0,L|142:213,1,65,2|2,0:0|0:0,0:0:0:0:
232,196,27155,2,0,L|235:260,1,65,8|0,0:0|0:0,0:0:0:0:
214,357,27617,5,2,0:0:0:0:
400,300,28078,2,0,L|392:170,1,130,8|2,0:0|0:0,0:0:0:0:
448,88,28771,1,2,0:0:0:0:
387,9,29002,1,8,0:0:0:0:
293,42,29232,6,0,P|240:48|144:48,1,130,2|2,0:0|0:0,0:0:0:0:
68,24,29925,1,8,0:0:0:0:
42,119,30156,1,2,0:3:0:0:
42,119,30386,2,0,L|56:196,1,65,2|2,0:0|0:0,0:0:0:0:
148,212,30848,2,0,L|159:148,1,65,8|0,0:0|0:0,0:0:0:0:
232,84,31309,6,0,P|272:108|360:84,2,130,2|8|2,0:0|0:0|0:0,0:0:0:0:
140,52,32463,1,2,0:0:0:0:
66,115,32693,1,8,0:0:0:0:
159,147,32925,6,0,P|177:207|150:265,1,130,2|2,0:0|0:0,0:0:0:0:
52,276,33617,1,8,0:0:0:0:
48,372,33848,2,0,P|90:366|186:362,1,130,2|2,0:0|0:0,0:0:0:0:
274,372,34540,2,0,L|281:307,1,65,8|0,0:0|0:0,0:0:0:0:
336,228,35001,6,0,P|296:212|200:252,2,130,2|8|2,0:0|0:0|0:0,0:0:0:0:
412,288,36155,1,2,0:0:0:0:
492,234,36386,1,8,0:0:0:0:
465,140,36617,6,0,L|336:132,1,130,6|8,0:0|0:3,0:0:0:0:
260,192,37309,1,8,0:0:0:0:
184,132,37540,2,0,P|158:87|199:11,1,130,6|8,0:0|0:0,0:0:0:0:
284,4,38232,1,8,3:0:0:0:
284,4,38348,1,8,3:0:0:0:
284,4,38463,1,8,3:0:0:0:
358,68,38694,6,0,L|346:204,1,116.999996429443,6|0,0:0|0:0,0:0:0:0:
260,192,39386,2,0,L|124:180,1,116.999996429443,2|2,0:0|0:0,0:0:0:0:
68,228,40078,1,8,0:0:0:0:
68,228,40309,1,0,0:0:0:0:
148,268,40540,6,0,P|169:321|154:376,1,116.999996429443,2|0,0:0|0:0,0:0:0:0:
68,376,41232,2,0,P|46:322|61:267,1,116.999996429443,2|2,0:0|0:0,0:0:0:0:
108,192,41925,1,8,0:0:0:0:
108,192,42155,1,0,0:0:0:0:
148,268,42386,6,0,L|288:256,1,116.999996429443,2|0,0:0|0:0,0:0:0:0:
344,216,43078,1,2,0:0:0:0:
344,216,43309,2,0,P|352:252|348:288,2,58.4999982147217,0|2|8,0:0|0:0|0:0,0:0:0:0:
180,156,44232,6,0,P|155:104|171:49,1,116.999996429443,2|0,0:0|0:0,0:0:0:0:
256,24,44925,2,0,P|304:53|361:43,1,116.999996429443,2|2,0:0|0:0,0:0:0:0:
440,4,45617,1,4,0:3:0:0:
478,82,45848,1,0,0:0:0:0:
399,120,46078,6,0,P|392:172|388:248,1,116.999996429443,6|8,0:0|0:0,0:0:0:0:
423,316,46771,1,4,0:0:0:0:
423,316,47001,2,0,L|343:332,1,58.4999982147217,2|2,0:0|0:0,0:0:0:0:
279,336,47463,1,8,0:0:0:0:
176,196,47925,6,0,L|292:209,1,116.999996429443,6|8,0:0|0:0,0:0:0:0:
376,240,48617,1,4,0:0:0:0:
376,240,48848,2,0,L|384:180,1,58.4999982147217,2|2,0:0|0:0,0:0:0:0:
356,100,49309,1,8,0:0:0:0:
272,124,49540,1,0,0:0:0:0:
272,124,49655,1,0,0:0:0:0:
272,123,49771,6,0,P|216:139|162:120,1,116.999996429443,6|8,0:0|0:0,0:0:0:0:
88,72,50463,1,0,0:0:0:0:
20,128,50694,2,0,L|32:204,1,58.4999982147217,2|0,0:0|0:0,0:0:0:0:
112,216,51155,2,0,L|124:292,1,58.4999982147217,8|0,0:0|0:0,0:0:0:0:
204,308,51617,5,10,0:0:0:0:
204,308,51848,1,4,0:3:0:0:
262,239,52079,1,4,0:3:0:0:
262,239,52309,1,4,0:3:0:0:
215,162,52540,2,0,L|186:165,2,29.2499991073609,8|8|8,3:0|3:0|3:0,0:0:0:0:
240,72,53001,1,4,3:2:0:0:
332,84,53232,1,8,3:0:0:0:
332,84,53348,1,8,3:0:0:0:
332,84,53463,6,0,L|480:64,1,130,6|8,0:0|0:0,0:0:0:0:
368,236,54386,2,0,P|356:280|352:320,1,65,2|2,0:0|0:0,0:0:0:0:
304,384,54848,1,8,0:0:0:0:
232,320,55078,6,0,P|180:300|96:328,1,130,0|0,0:0|0:0,0:0:0:0:
36,384,55771,1,8,0:0:0:0:
1,291,56002,1,0,0:0:0:0:
1,291,56232,2,0,L|4:220,1,65,2|2,0:0|0:0,0:0:0:0:
100,228,56694,2,0,L|97:299,1,65,8|0,0:0|0:0,0:0:0:0:
192,312,57155,6,0,L|261:296,1,65,2|0,0:0|0:0,0:0:0:0:
352,296,57617,2,0,P|328:232|350:168,1,130,8|2,0:0|0:0,0:0:0:0:
420,112,58309,1,2,0:0:0:0:
437,208,58540,1,8,0:0:0:0:
345,175,58771,6,0,P|284:168|200:168,1,130,0|0,0:0|0:0,0:0:0:0:
126,206,59463,2,0,L|114:134,1,65,8|0,0:0|0:0,0:0:0:0:
24,104,59925,2,0,L|2:232,1,130,2|8,0:0|0:0,0:0:0:0:
80,292,60617,1,2,0:0:0:0:
126,206,60848,6,0,P|172:184|248:204,1,130,6|8,0:0|0:0,0:0:0:0:
392,336,61771,2,0,L|468:320,1,65,2|2,0:0|0:0,0:0:0:0:
508,240,62232,1,8,0:0:0:0:
412,224,62463,6,0,P|388:176|416:100,1,130,0|0,0:0|0:0,0:0:0:0:
496,64,63155,1,8,0:0:0:0:
416,10,63386,1,0,0:0:0:0:
416,10,63617,2,0,L|351:3,1,65,2|2,0:0|0:0,0:0:0:0:
252,4,64078,2,0,L|262:68,1,65,8|0,0:0|0:0,0:0:0:0:
220,156,64540,6,0,P|180:136|84:160,1,130,6|8,0:0|0:0,0:0:0:0:
96,248,65232,1,0,0:0:0:0:
96,248,65348,1,8,0:0:0:0:
96,248,65463,2,0,P|136:268|232:244,1,130,6|8,0:0|0:0,0:0:0:0:
220,156,66155,1,2,0:0:0:0:
300,204,66386,6,0,L|308:288,1,65,6|0,0:0|0:0,0:0:0:0:
404,252,66848,2,0,L|410:187,1,65,8|0,0:0|3:0,0:0:0:0:
432,92,67309,2,0,L|367:86,1,65,0|2,3:0|0:0,0:0:0:0:
268,76,67771,1,8,3:0:0:0:
268,76,67886,1,8,3:0:0:0:
268,76,68001,1,8,3:0:0:0:
227,167,68233,5,6,0:0:0:0:
384,280,68694,2,0,L|468:264,1,65,8|0,0:0|0:0,0:0:0:0:
468,364,69155,2,0,L|384:380,1,65,2|2,0:0|0:0,0:0:0:0:
308,348,69617,1,8,0:0:0:0:
384,280,69848,6,0,P|404:219|380:160,1,130,0|0,0:0|0:0,0:0:0:0:
300,104,70540,1,8,0:0:0:0:
240,180,70771,1,0,0:0:0:0:
240,180,70886,1,2,0:0:0:0:
240,180,71001,2,0,L|240:260,1,65,10|2,0:0|0:0,0:0:0:0:
144,220,71463,2,0,L|144:140,1,65,8|2,0:0|0:0,0:0:0:0:
192,68,71925,5,2,0:0:0:0:
372,148,72386,2,0,P|403:152|435:144,1,65,8|0,0:0|0:0,0:0:0:0:
427,47,72848,2,0,P|395:42|363:50,1,65,2|2,0:0|0:0,0:0:0:0:
284,104,73309,1,8,0:0:0:0:
372,148,73540,6,0,L|360:296,1,130,0|0,0:0|0:0,0:0:0:0:
280,332,74232,1,8,0:0:0:0:
225,250,74463,1,0,0:0:0:0:
225,250,74578,1,2,0:0:0:0:
225,250,74694,2,0,L|140:260,1,65,10|2,0:0|0:0,0:0:0:0:
172,160,75155,2,0,L|257:150,1,65,8|2,0:0|0:0,0:0:0:0:
336,152,75617,6,0,P|314:91|332:30,1,130,6|8,0:0|0:0,0:0:0:0:
432,28,76309,1,0,0:0:0:0:
432,28,76425,1,8,0:0:0:0:
432,28,76540,2,0,P|453:88|435:149,1,130,2|8,0:0|0:0,0:0:0:0:
388,236,77232,1,0,0:0:0:0:
336,152,77463,6,0,P|252:152|192:160,1,130,2|8,0:0|0:0,0:0:0:0:
112,188,78155,1,0,0:0:0:0:
112,188,78271,1,8,0:0:0:0:
112,188,78386,2,0,L|104:116,1,65,2|2,0:0|0:0,0:0:0:0:
12,158,78848,2,0,L|20:222,1,65,8|0,0:0|0:0,0:0:0:0:
4,320,79309,6,0,P|52:300|120:328,1,130,6|8,0:0|0:0,0:0:0:0:
208,376,80001,1,0,0:0:0:0:
256,292,80232,2,0,L|248:206,1,65,6|0,0:0|0:0,0:0:0:0:
349,241,80694,2,0,L|356:326,1,65,8|0,0:0|0:0,0:0:0:0:
440,260,81155,6,0,L|452:120,1,130,6|8,0:0|0:0,0:0:0:0:
407,44,81848,1,0,0:0:0:0:
407,44,81963,1,8,0:0:0:0:
407,44,82078,2,0,P|376:51|344:50,1,65,6|4,0:0|0:3,0:0:0:0:
248,48,82540,2,0,P|263:76|270:108,1,65,8|8,0:3|0:3,0:0:0:0:
293,201,83001,1,6,0:0:0:0:
200,172,83232,6,0,L|132:156,1,65,0|2,0:0|0:3,0:0:0:0:
48,200,83694,2,0,L|68:266,1,65,0|0,0:0|0:0,0:0:0:0:
148,317,84155,1,0,0:0:0:0:
148,317,84386,2,0,L|195:266,1,65,2|0,0:3|0:0,0:0:0:0:
260,200,84848,5,4,0:0:0:0:
329,267,85079,1,0,1:0:0:0:
396,197,85309,2,0,L|388:120,1,65,0|2,1:0|0:0,0:0:0:0:
292,112,85771,2,0,L|285:176,2,65,4|2|4,1:3|0:0|1:2,0:0:0:0:
360,40,86463,1,0,0:0:0:0:
360,40,86578,1,2,0:3:0:0:
360,40,86694,5,4,0:0:0:0:
256,192,86809,12,0,89232,0:0:0:0:
