osu file format v14

[General]
AudioFilename: audio.mp3
AudioLeadIn: 0
PreviewTime: -1
Countdown: 1
SampleSet: Normal
StackLeniency: 0.7
Mode: 0
LetterboxInBreaks: 0
WidescreenStoryboard: 0

[Editor]
DistanceSpacing: 1
BeatDivisor: 4
GridSize: 4
TimelineZoom: 1

[Metadata]
Title:Susume Runner!!
TitleUnicode:Susume Runner!!
Artist:fourfolium
ArtistUnicode:fourfolium
Creator:Ricku on osu
Version:Gay
Source:osu!
Tags:osu!
BeatmapID:1944211
BeatmapSetID:931056

[Difficulty]
HPDrainRate:2
CircleSize:5
OverallDifficulty:3
ApproachRate:9
SliderMultiplier:1.4
SliderTickRate:1

[Events]
//Background and Video events
0,0,"maxresdefault.jpg",0,0
//Break Periods
//Storyboard Layer 0 (Background)
//Storyboard Layer 1 (Fail)
//Storyboard Layer 2 (Pass)
//Storyboard Layer 3 (Foreground)
//Storyboard Sound Samples

[TimingPoints]
2250.32763489701,681.818181818182,4,1,0,100,1,0

[HitObjects]
261,251,1057,5,0,0:0:0:0:
86,124,1568,1,0,0:0:0:0:
429,127,1909,1,0,0:0:0:0:
137,292,2250,1,0,0:0:0:0:
240,207,3273,1,0,0:0:0:0:
149,110,3784,1,0,0:0:0:0:
196,258,4295,1,0,0:0:0:0:
281,127,4636,1,0,0:0:0:0:
276,285,4977,1,0,0:0:0:0:
126,108,5659,1,0,0:0:0:0:
175,266,6341,1,0,0:0:0:0:
305,134,6852,1,0,0:0:0:0:
331,284,7193,1,0,0:0:0:0:
172,155,7363,1,0,0:0:0:0:
340,113,7704,1,0,0:0:0:0:
217,280,8045,1,0,0:0:0:0:
240,136,8386,1,0,0:0:0:0:
240,136,8557,1,0,0:0:0:0:
240,136,8727,1,0,0:0:0:0:
240,136,9068,1,0,0:0:0:0:
240,136,9238,1,0,0:0:0:0:
240,136,9409,1,0,0:0:0:0:
190,218,9750,2,0,P|381:127|273:97,1,525
256,192,11625,12,0,12136,0:0:0:0:
181,198,12648,5,0,0:0:0:0:
181,198,12988,1,0,0:0:0:0:
181,198,13159,1,0,0:0:0:0:
181,198,13329,1,0,0:0:0:0:
181,198,13500,1,0,0:0:0:0:
181,198,13670,1,0,0:0:0:0:
181,198,13841,1,0,0:0:0:0:
181,198,14011,1,0,0:0:0:0:
181,198,14182,1,0,0:0:0:0:
190,201,14352,1,0,0:0:0:0:
203,207,14523,1,0,0:0:0:0:
216,216,14693,1,0,0:0:0:0:
227,223,14863,1,0,0:0:0:0:
272,247,15204,1,0,0:0:0:0:
293,249,15375,1,0,0:0:0:0:
331,241,15545,1,0,0:0:0:0:
358,222,15716,1,0,0:0:0:0:
378,198,15886,1,0,0:0:0:0:
393,139,16057,1,0,0:0:0:0:
383,112,16227,1,0,0:0:0:0:
355,85,16568,1,0,0:0:0:0:
322,77,16738,1,0,0:0:0:0:
296,77,16909,1,0,0:0:0:0:
248,103,17079,1,0,0:0:0:0:
284,135,17591,5,0,0:0:0:0:
227,233,17761,1,0,0:0:0:0:
376,157,17932,1,0,0:0:0:0:
171,218,18102,1,0,0:0:0:0:
400,215,18273,1,0,0:0:0:0:
163,149,18443,1,0,0:0:0:0:
363,276,18613,1,0,0:0:0:0:
221,116,18784,1,0,0:0:0:0:
242,292,18954,1,0,0:0:0:0:
297,108,19125,1,0,0:0:0:0:
167,259,19295,1,0,0:0:0:0:
373,137,19466,1,0,0:0:0:0:
153,171,19636,1,0,0:0:0:0:
374,274,19807,1,0,0:0:0:0:
181,116,20148,5,0,0:0:0:0:
180,250,20318,1,0,0:0:0:0:
300,108,20488,1,0,0:0:0:0:
295,247,20659,1,0,0:0:0:0:
153,83,20829,1,0,0:0:0:0:
157,285,21000,1,0,0:0:0:0:
321,66,21170,1,0,0:0:0:0:
316,295,21341,1,0,0:0:0:0:
207,204,21511,1,0,0:0:0:0:
290,185,21682,1,0,0:0:0:0:
153,217,21852,1,0,0:0:0:0:
354,168,22023,1,0,0:0:0:0:
107,236,22193,1,0,0:0:0:0:
353,297,22363,1,0,0:0:0:0:
281,238,22534,1,0,0:0:0:0:
353,297,22704,1,0,0:0:0:0:
216,190,22875,1,0,0:0:0:0:
411,338,23045,1,0,0:0:0:0:
161,145,23216,1,0,0:0:0:0:
310,195,23386,2,0,P|425:175|416:127,1,175
378,76,24409,2,0,L|294:86,1,70
343,118,24920,2,0,L|259:128,1,70
289,167,25432,6,0,L|205:177,1,70
246,177,26113,1,0,0:0:0:0:
219,193,26284,1,0,0:0:0:0:
198,220,26454,1,0,0:0:0:0:
188,241,26625,1,0,0:0:0:0:
183,261,26966,1,0,0:0:0:0:
266,266,27477,1,0,0:0:0:0:
347,184,27818,1,0,0:0:0:0:
196,179,28159,1,0,0:0:0:0:
321,122,28500,1,0,0:0:0:0:
229,211,28841,1,0,0:0:0:0:
248,138,29182,1,0,0:0:0:0:
248,138,29523,1,0,0:0:0:0:
248,138,29863,1,0,0:0:0:0:
248,138,30034,1,0,0:0:0:0:
248,138,30375,1,0,0:0:0:0:
200,225,30716,1,0,0:0:0:0:
304,152,31057,1,0,0:0:0:0:
198,159,31398,1,0,0:0:0:0:
274,218,31568,1,0,0:0:0:0:
263,112,32079,1,0,0:0:0:0:
162,206,32250,1,0,0:0:0:0:
327,143,32591,1,0,0:0:0:0:
136,128,32761,1,0,0:0:0:0:
264,215,32932,1,0,0:0:0:0:
181,81,33102,1,0,0:0:0:0:
241,222,33273,1,0,0:0:0:0:
168,248,33443,1,0,0:0:0:0:
326,122,33784,1,0,0:0:0:0:
240,259,33954,1,0,0:0:0:0:
226,142,34295,1,0,0:0:0:0:
351,188,34636,1,0,0:0:0:0:
188,235,34977,1,0,0:0:0:0:
265,137,35318,1,0,0:0:0:0:
265,137,35488,1,0,0:0:0:0:
265,137,35659,1,0,0:0:0:0:
265,137,35829,1,0,0:0:0:0:
157,165,36170,1,0,0:0:0:0:
296,80,36511,1,0,0:0:0:0:
286,241,37023,1,0,0:0:0:0:
170,142,37534,1,0,0:0:0:0:
366,94,37704,1,0,0:0:0:0:
212,264,38045,1,0,0:0:0:0:
212,264,38216,1,0,0:0:0:0:
212,264,38386,1,0,0:0:0:0:
212,264,38557,1,0,0:0:0:0:
385,303,39068,1,0,0:0:0:0:
221,103,39579,1,0,0:0:0:0:
245,312,39920,1,0,0:0:0:0:
357,118,40091,1,0,0:0:0:0:
137,237,40261,1,0,0:0:0:0:
329,83,40773,1,0,0:0:0:0:
329,83,40943,1,0,0:0:0:0:
329,83,41113,1,0,0:0:0:0:
104,144,41454,1,0,0:0:0:0:
342,263,41795,1,0,0:0:0:0:
338,53,42136,1,0,0:0:0:0:
156,250,42307,1,0,0:0:0:0:
243,56,42477,1,0,0:0:0:0:
322,207,42648,1,0,0:0:0:0:
318,60,42988,1,0,0:0:0:0:
192,225,43159,1,0,0:0:0:0:
178,90,43329,1,0,0:0:0:0:
341,225,43500,1,0,0:0:0:0:
385,54,43670,1,0,0:0:0:0:
192,225,43841,1,0,0:0:0:0:
179,54,44011,1,0,0:0:0:0:
341,225,44182,1,0,0:0:0:0:
424,52,44352,1,0,0:0:0:0:
256,192,44523,12,0,45716,0:0:0:0:
155,188,45886,6,0,L|329:145,1,175
168,214,47420,5,4,0:0:0:0:
178,156,47591,1,4,0:0:0:0:
291,218,47761,1,4,0:0:0:0:
366,113,47932,1,4,0:0:0:0:
411,207,48273,1,0,0:0:0:0:
407,113,48443,1,0,0:0:0:0:
324,150,48613,1,0,0:0:0:0:
281,82,48784,1,0,0:0:0:0:
242,125,48954,1,0,0:0:0:0:
156,71,49125,1,0,0:0:0:0:
183,180,49466,1,0,0:0:0:0:
374,110,49636,1,0,0:0:0:0:
201,248,49807,1,0,0:0:0:0:
205,112,49977,1,0,0:0:0:0:
323,226,50148,1,0,0:0:0:0:
322,87,50318,1,0,0:0:0:0:
176,244,50488,1,0,0:0:0:0:
137,105,50659,1,0,0:0:0:0:
390,168,50829,1,0,0:0:0:0:
136,269,51000,1,0,0:0:0:0:
346,109,51170,1,0,0:0:0:0:
204,283,51341,1,0,0:0:0:0:
151,139,51511,1,0,0:0:0:0:
226,162,51852,2,0,B|265:128|265:128|283:175|283:175|288:225|288:225|215:228|215:228|196:191|196:191|249:192,1,315
181,184,54409,5,0,0:0:0:0:
301,222,54579,1,0,0:0:0:0:
183,163,54920,1,0,0:0:0:0:
262,222,55091,1,0,0:0:0:0:
264,155,55261,1,0,0:0:0:0:
216,226,55432,1,0,0:0:0:0:
197,138,55602,1,0,0:0:0:0:
355,190,55773,1,0,0:0:0:0:
140,247,56284,1,0,0:0:0:0:
305,126,56454,1,0,0:0:0:0:
187,293,56795,1,0,0:0:0:0:
238,113,57136,1,0,0:0:0:0:
291,245,57477,1,0,0:0:0:0:
77,179,57648,1,0,0:0:0:0:
363,113,57818,1,0,0:0:0:0:
225,266,57988,1,0,0:0:0:0:
221,88,58159,1,0,0:0:0:0:
376,245,58329,1,0,0:0:0:0:
109,234,58500,1,0,0:0:0:0:
330,94,58670,1,0,0:0:0:0:
257,301,58841,1,0,0:0:0:0:
116,110,59011,1,0,0:0:0:0:
361,259,59182,1,0,0:0:0:0:
121,310,59352,1,0,0:0:0:0:
206,154,59523,1,0,0:0:0:0:
261,273,59693,1,0,0:0:0:0:
79,220,59863,1,0,0:0:0:0:
334,137,60034,1,0,0:0:0:0:
227,259,60375,1,0,0:0:0:0:
257,117,60545,1,0,0:0:0:0:
297,253,60716,1,0,0:0:0:0:
170,172,61057,1,0,0:0:0:0:
116,136,61398,1,0,0:0:0:0:
116,136,61568,1,0,0:0:0:0:
116,136,61738,1,0,0:0:0:0:
116,136,61909,1,0,0:0:0:0:
116,136,62079,1,0,0:0:0:0:
317,154,62250,1,0,0:0:0:0:
191,231,62761,1,0,0:0:0:0:
257,133,62932,1,0,0:0:0:0:
264,222,63273,1,0,0:0:0:0:
264,222,63443,1,0,0:0:0:0:
264,222,63613,1,0,0:0:0:0:
264,222,63784,1,0,0:0:0:0:
320,123,64125,1,0,0:0:0:0:
203,229,64466,1,0,0:0:0:0:
291,104,64636,1,0,0:0:0:0:
245,216,64807,1,0,0:0:0:0:
166,145,64977,1,0,0:0:0:0:
307,177,65148,1,0,0:0:0:0:
220,240,65488,1,0,0:0:0:0:
291,140,65659,1,0,0:0:0:0:
291,258,66000,1,0,0:0:0:0:
181,145,66170,1,0,0:0:0:0:
359,130,66341,1,0,0:0:0:0:
219,222,66682,1,0,0:0:0:0:
183,239,67023,1,0,0:0:0:0:
183,239,67363,1,0,0:0:0:0:
235,164,67704,1,0,0:0:0:0:
235,164,67875,1,0,0:0:0:0:
235,164,68045,1,0,0:0:0:0:
235,164,68216,1,0,0:0:0:0:
235,164,68386,1,0,0:0:0:0:
340,105,68727,1,0,0:0:0:0:
243,229,68898,1,0,0:0:0:0:
268,99,69068,1,0,0:0:0:0:
382,212,69238,1,0,0:0:0:0:
148,211,69409,1,0,0:0:0:0:
111,263,69750,5,0,0:0:0:0:
421,66,69920,1,0,0:0:0:0:
177,257,70261,5,0,0:0:0:0:
257,103,70432,1,0,0:0:0:0:
123,129,70602,1,0,0:0:0:0:
368,125,70773,1,0,0:0:0:0:
255,302,70943,1,0,0:0:0:0:
216,165,71113,1,0,0:0:0:0:
214,231,71284,1,0,0:0:0:0:
296,159,71454,1,0,0:0:0:0:
296,231,71625,1,0,0:0:0:0:
167,153,71795,1,0,0:0:0:0:
203,280,71966,1,0,0:0:0:0:
294,122,72136,1,0,0:0:0:0:
376,263,72307,1,0,0:0:0:0:
116,154,72477,1,0,0:0:0:0:
262,291,72648,1,0,0:0:0:0:
196,83,72818,1,0,0:0:0:0:
394,191,72988,1,0,0:0:0:0:
57,167,73159,1,0,0:0:0:0:
344,99,73329,1,0,0:0:0:0:
123,232,73500,1,0,0:0:0:0:
274,101,73670,1,0,0:0:0:0:
253,258,73841,1,0,0:0:0:0:
172,143,74011,1,0,0:0:0:0:
326,164,74182,1,0,0:0:0:0:
191,234,74352,1,0,0:0:0:0:
241,162,74523,1,0,0:0:0:0:
299,88,74693,2,0,L|174:100,1,105
213,156,75545,5,8,0:0:0:0:
328,234,75716,1,8,0:0:0:0:
129,157,76057,1,8,0:0:0:0:
233,276,76568,1,8,0:0:0:0:
332,130,77250,1,8,0:0:0:0:
129,237,77932,1,8,0:0:0:0:
316,92,78102,1,8,0:0:0:0:
301,314,78613,1,0,0:0:0:0:
153,137,79295,1,0,0:0:0:0:
181,288,79977,1,0,0:0:0:0:
257,103,80318,1,0,0:0:0:0:
335,245,80659,1,0,0:0:0:0:
158,212,81000,1,0,0:0:0:0:
302,140,81341,1,0,0:0:0:0:
286,238,81682,1,0,0:0:0:0:
201,146,82023,1,0,0:0:0:0:
317,119,82363,1,0,0:0:0:0:
187,275,82704,1,0,0:0:0:0:
248,92,82875,1,0,0:0:0:0:
385,222,83045,1,0,0:0:0:0:
179,227,83216,1,0,0:0:0:0:
326,99,83386,1,0,0:0:0:0:
341,234,83557,1,0,0:0:0:0:
213,224,83727,1,0,0:0:0:0:
171,165,83898,1,0,0:0:0:0:
352,121,84068,1,0,0:0:0:0:
227,273,84409,1,0,0:0:0:0:
120,154,84579,1,0,0:0:0:0:
301,62,85091,1,0,0:0:0:0:
416,99,85432,1,0,0:0:0:0:
445,150,85773,1,0,0:0:0:0:
439,189,86113,1,0,0:0:0:0:
424,228,86454,1,0,0:0:0:0:
378,269,86795,1,0,0:0:0:0:
322,287,87136,1,0,0:0:0:0:
252,287,87477,1,0,0:0:0:0:
182,250,87818,1,0,0:0:0:0:
270,83,88159,1,0,0:0:0:0:
355,233,88329,1,0,0:0:0:0:
164,162,88500,1,0,0:0:0:0:
386,115,88670,1,0,0:0:0:0:
236,263,88841,1,0,0:0:0:0:
161,76,89011,1,0,0:0:0:0:
74,78,89352,1,0,0:0:0:0:
56,210,89523,1,0,0:0:0:0:
45,47,89693,1,0,0:0:0:0:
101,222,90204,1,0,0:0:0:0:
110,63,90545,1,0,0:0:0:0:
254,274,90886,1,0,0:0:0:0:
244,89,91398,1,0,0:0:0:0:
240,243,91738,1,0,0:0:0:0:
118,157,91909,1,0,0:0:0:0:
264,209,92079,1,0,0:0:0:0:
111,276,92250,1,0,0:0:0:0:
213,133,92591,1,0,0:0:0:0:
213,285,92761,1,0,0:0:0:0:
94,63,92932,2,0,B|47:134|47:134|81:192|81:192,1,140
94,63,93784,2,0,B|47:134|47:134|81:192|81:192,1,140
89,248,94807,5,0,0:0:0:0:
330,118,94977,1,0,0:0:0:0:
246,323,95148,1,0,0:0:0:0:
34,237,95318,1,0,0:0:0:0:
370,125,95488,1,0,0:0:0:0:
163,349,95659,1,0,0:0:0:0:
200,159,96000,6,0,L|254:206,1,70
284,191,96511,6,0,L|338:238,1,70
393,235,97023,6,0,L|447:282,1,70
468,331,97363,5,0,0:0:0:0:
425,353,97534,1,0,0:0:0:0:
318,326,97704,1,0,0:0:0:0:
281,219,97875,1,0,0:0:0:0:
453,182,98045,1,0,0:0:0:0:
404,278,98216,1,0,0:0:0:0:
218,116,98386,1,0,0:0:0:0:
269,257,98557,1,0,0:0:0:0:
261,114,98727,1,0,0:0:0:0:
215,257,98898,1,0,0:0:0:0:
309,131,99068,1,0,0:0:0:0:
172,215,99238,1,0,0:0:0:0:
336,172,99409,1,0,0:0:0:0:
170,157,99579,1,0,0:0:0:0:
324,249,99750,1,0,0:0:0:0:
221,116,99920,1,0,0:0:0:0:
271,258,100091,1,0,0:0:0:0:
280,117,100261,1,0,0:0:0:0:
204,253,100432,1,0,0:0:0:0:
346,127,100602,1,0,0:0:0:0:
111,221,100773,1,0,0:0:0:0:
388,169,100943,1,0,0:0:0:0:
112,142,101113,1,0,0:0:0:0:
384,251,101284,1,0,0:0:0:0:
103,232,101454,1,0,0:0:0:0:
358,130,101625,1,0,0:0:0:0:
112,142,101795,1,0,0:0:0:0:
377,252,101966,1,0,0:0:0:0:
96,239,102136,1,0,0:0:0:0:
371,138,102307,1,0,0:0:0:0:
151,104,102477,1,0,0:0:0:0:
287,274,102648,1,0,0:0:0:0:
301,74,102818,1,0,0:0:0:0:
161,269,102988,1,0,0:0:0:0:
330,214,103159,2,0,L|46:137,1,280
114,104,104693,5,0,0:0:0:0:
225,127,105034,1,0,0:0:0:0:
323,103,105204,1,0,0:0:0:0:
240,192,105545,1,0,0:0:0:0:
253,99,105886,1,0,0:0:0:0:
308,183,106057,1,0,0:0:0:0:
171,135,106398,1,0,0:0:0:0:
340,83,106568,1,0,0:0:0:0:
211,181,106738,1,0,0:0:0:0:
270,70,106909,1,0,0:0:0:0:
104,222,107420,1,0,0:0:0:0:
68,80,107761,1,0,0:0:0:0:
298,237,107932,1,0,0:0:0:0:
242,110,108273,1,0,0:0:0:0:
188,241,108613,1,0,0:0:0:0:
332,134,108784,1,0,0:0:0:0:
309,265,108954,1,0,0:0:0:0:
254,200,109125,5,0,0:0:0:0:
363,205,109295,1,0,0:0:0:0:
363,205,109466,1,0,0:0:0:0:
286,283,109977,1,0,0:0:0:0:
181,228,110318,1,0,0:0:0:0:
276,163,110659,1,0,0:0:0:0:
284,255,111000,1,0,0:0:0:0:
361,177,111170,1,0,0:0:0:0:
215,285,111511,1,0,0:0:0:0:
314,142,111682,1,0,0:0:0:0:
332,266,111852,1,0,0:0:0:0:
166,157,112023,1,0,0:0:0:0:
370,190,112193,1,0,0:0:0:0:
176,296,112875,1,0,0:0:0:0:
261,142,113216,1,0,0:0:0:0:
315,272,113557,1,0,0:0:0:0:
375,118,113898,1,0,0:0:0:0:
212,297,114238,1,0,0:0:0:0:
184,112,114409,1,0,0:0:0:0:
411,241,114579,1,0,0:0:0:0:
139,235,114750,1,0,0:0:0:0:
270,115,114920,1,0,0:0:0:0:
118,225,115091,1,0,0:0:0:0:
71,121,115602,1,0,0:0:0:0:
113,248,115773,1,0,0:0:0:0:
140,110,116113,1,0,0:0:0:0:
143,259,116454,1,0,0:0:0:0:
194,124,116795,1,0,0:0:0:0:
205,269,117136,1,0,0:0:0:0:
275,120,117477,1,0,0:0:0:0:
298,273,117818,1,0,0:0:0:0:
348,131,118159,1,0,0:0:0:0:
384,304,118329,1,0,0:0:0:0:
462,285,118500,1,0,0:0:0:0:
465,116,118841,1,0,0:0:0:0:
317,166,119011,1,0,0:0:0:0:
327,282,119352,1,0,0:0:0:0:
256,182,119523,1,0,0:0:0:0:
182,156,119693,1,0,0:0:0:0:
166,308,119863,1,0,0:0:0:0:
110,136,120034,1,0,0:0:0:0:
110,311,120204,1,0,0:0:0:0:
51,132,120375,1,0,0:0:0:0:
307,159,120545,1,0,0:0:0:0:
224,321,120716,1,0,0:0:0:0:
181,283,120886,2,0,L|232:265,1,35
382,295,121227,5,4,0:0:0:0:
208,188,121568,1,4,0:0:0:0:
387,176,121738,1,4,0:0:0:0:
241,272,122250,1,4,0:0:0:0:
394,254,122591,1,4,0:0:0:0:
255,174,122761,1,4,0:0:0:0:
326,265,122932,1,4,0:0:0:0:
351,176,123443,1,0,0:0:0:0:
234,308,123613,1,0,0:0:0:0:
46,183,123954,1,0,0:0:0:0:
231,265,124125,1,0,0:0:0:0:
65,312,124295,1,0,0:0:0:0:
201,177,124466,1,0,0:0:0:0:
146,311,124636,1,0,0:0:0:0:
26,209,124807,1,0,0:0:0:0:
103,40,125318,1,0,0:0:0:0:
1,143,125659,1,0,0:0:0:0:
150,277,126000,1,0,0:0:0:0:
341,105,126341,1,0,0:0:0:0:
365,283,126682,1,0,0:0:0:0:
453,155,127023,1,0,0:0:0:0:
481,276,127363,1,0,0:0:0:0:
334,110,127875,1,0,0:0:0:0:
437,119,128045,1,0,0:0:0:0:
412,242,128216,1,0,0:0:0:0:
245,305,128386,1,0,0:0:0:0:
129,202,128557,1,0,0:0:0:0:
378,192,128727,1,0,0:0:0:0:
138,296,129068,1,0,0:0:0:0:
343,275,129409,1,0,0:0:0:0:
196,114,129579,1,0,0:0:0:0:
324,225,129750,1,0,0:0:0:0:
130,304,130091,1,0,0:0:0:0:
241,78,130261,1,0,0:0:0:0:
206,299,130432,1,0,0:0:0:0:
136,109,130602,1,0,0:0:0:0:
220,334,130773,1,0,0:0:0:0:
381,299,131113,5,0,0:0:0:0:
390,138,131454,1,0,0:0:0:0:
453,310,131625,1,0,0:0:0:0:
451,167,131966,1,0,0:0:0:0:
483,305,132136,1,0,0:0:0:0:
414,131,132307,1,0,0:0:0:0:
456,298,132477,1,0,0:0:0:0:
395,148,132648,1,0,0:0:0:0:
411,305,132818,1,0,0:0:0:0:
302,178,132988,1,0,0:0:0:0:
340,304,133159,1,0,0:0:0:0:
212,264,133500,1,0,0:0:0:0:
164,213,134011,1,8,0:0:0:0:
257,304,134182,1,0,0:0:0:0:
286,181,134352,1,0,0:0:0:0:
446,207,134523,1,0,0:0:0:0:
356,319,134693,1,0,0:0:0:0:
153,169,134863,1,0,0:0:0:0:
291,237,135204,1,0,0:0:0:0:
176,283,135545,1,0,0:0:0:0:
275,275,136057,1,0,0:0:0:0:
300,333,136227,1,0,0:0:0:0:
347,338,136398,1,0,0:0:0:0:
421,321,136568,1,0,0:0:0:0:
464,272,136738,1,0,0:0:0:0:
463,170,136909,1,0,0:0:0:0:
417,259,137079,1,0,0:0:0:0:
253,318,137420,1,0,0:0:0:0:
440,181,137591,1,0,0:0:0:0:
345,322,137761,1,0,0:0:0:0:
322,292,137932,1,0,0:0:0:0:
300,281,138273,1,0,0:0:0:0:
408,316,138443,1,0,0:0:0:0:
386,231,138613,1,0,0:0:0:0:
278,251,138784,1,0,0:0:0:0:
234,321,139125,1,0,0:0:0:0:
256,96,139295,1,0,0:0:0:0:
208,301,139636,1,0,0:0:0:0:
216,131,139807,1,0,0:0:0:0:
358,220,139977,1,0,0:0:0:0:
146,297,140148,1,0,0:0:0:0:
258,148,140659,1,0,0:0:0:0:
207,273,141000,1,0,0:0:0:0:
204,122,141341,1,0,0:0:0:0:
251,259,141511,1,0,0:0:0:0:
278,130,141682,1,0,0:0:0:0:
258,224,141852,1,0,0:0:0:0:
264,253,142023,1,0,0:0:0:0:
319,147,142193,1,0,0:0:0:0:
331,211,142363,1,0,0:0:0:0:
287,271,142534,1,0,0:0:0:0:
103,296,142704,1,0,0:0:0:0:
270,132,142875,1,0,0:0:0:0:
306,236,143216,1,0,0:0:0:0:
110,121,143557,1,0,0:0:0:0:
343,144,143727,1,0,0:0:0:0:
171,278,144068,1,0,0:0:0:0:
98,151,144409,1,0,0:0:0:0:
339,280,144750,1,0,0:0:0:0:
337,133,144920,1,0,0:0:0:0:
203,266,145432,5,2,0:0:0:0:
173,140,145602,1,2,0:0:0:0:
317,275,145773,1,2,0:0:0:0:
141,253,146113,1,2,0:0:0:0:
289,138,146284,1,2,0:0:0:0:
224,329,146454,1,2,0:0:0:0:
126,179,146795,1,0,0:0:0:0:
313,267,146966,1,0,0:0:0:0:
167,130,147136,1,0,0:0:0:0:
337,206,147307,1,0,0:0:0:0:
174,64,147477,1,0,0:0:0:0:
340,134,147648,1,0,0:0:0:0:
114,187,147818,1,0,0:0:0:0:
364,223,147988,1,0,0:0:0:0:
83,114,148159,1,0,0:0:0:0:
349,138,148329,1,0,0:0:0:0:
107,222,148500,1,0,0:0:0:0:
299,102,148670,1,0,0:0:0:0:
318,243,148841,1,0,0:0:0:0:
134,109,149011,1,0,0:0:0:0:
193,234,149693,5,8,0:0:0:0:
290,89,149863,1,8,0:0:0:0:
308,258,150034,1,8,0:0:0:0:
224,87,150204,1,8,0:0:0:0:
170,147,150375,2,8,L|341:194,1,175
269,191,151909,5,8,0:0:0:0:
89,219,152420,1,8,0:0:0:0:
342,143,152761,1,8,0:0:0:0:
276,250,152932,1,8,0:0:0:0:
207,129,153102,1,8,0:0:0:0:
267,214,153273,1,0,0:0:0:0:
138,242,153613,1,0,0:0:0:0:
280,115,153784,1,0,0:0:0:0:
207,269,154295,1,0,0:0:0:0:
357,155,154977,1,0,0:0:0:0:
367,306,155148,1,0,0:0:0:0:
184,167,155318,1,0,0:0:0:0:
371,137,155488,1,0,0:0:0:0:
234,286,155829,1,0,0:0:0:0:
160,123,156000,1,0,0:0:0:0:
279,269,156341,1,0,0:0:0:0:
62,279,156852,1,0,0:0:0:0:
30,111,157193,1,0,0:0:0:0:
183,83,157534,1,0,0:0:0:0:
310,92,157875,1,0,0:0:0:0:
410,90,158045,1,0,0:0:0:0:
477,83,158216,1,0,0:0:0:0:
463,275,158386,1,0,0:0:0:0:
349,344,158727,1,0,0:0:0:0:
326,114,159068,1,0,0:0:0:0:
336,341,159238,1,0,0:0:0:0:
155,137,159409,1,0,0:0:0:0:
311,227,159750,1,0,0:0:0:0:
141,273,160091,1,0,0:0:0:0:
250,128,160261,1,0,0:0:0:0:
279,266,160602,1,0,0:0:0:0:
187,239,160773,1,0,0:0:0:0:
187,239,160943,1,0,0:0:0:0:
187,239,161113,1,0,0:0:0:0:
187,239,161284,1,0,0:0:0:0:
187,239,161454,1,0,0:0:0:0:
317,176,161795,1,0,0:0:0:0:
307,285,161966,1,0,0:0:0:0:
186,201,162136,1,0,0:0:0:0:
185,169,162307,5,8,0:0:0:0:
242,82,162648,1,8,0:0:0:0:
249,204,162818,1,0,0:0:0:0:
209,75,163159,1,0,0:0:0:0:
201,187,163500,1,0,0:0:0:0:
192,189,163670,1,0,0:0:0:0:
39,185,163841,1,0,0:0:0:0:
61,152,164011,1,0,0:0:0:0:
141,75,164182,1,0,0:0:0:0:
117,202,164352,1,0,0:0:0:0:
217,62,164693,1,0,0:0:0:0:
225,243,165034,1,0,0:0:0:0:
209,57,165204,1,0,0:0:0:0:
417,106,165545,1,0,0:0:0:0:
116,221,165886,1,0,0:0:0:0:
247,47,166227,1,0,0:0:0:0:
67,93,166568,1,0,0:0:0:0:
241,194,166909,1,0,0:0:0:0:
271,35,167250,1,0,0:0:0:0:
89,165,167420,1,0,0:0:0:0:
286,156,167591,1,0,0:0:0:0:
88,206,167761,1,0,0:0:0:0:
251,111,168102,1,0,0:0:0:0:
226,247,168273,1,0,0:0:0:0:
360,95,168443,1,0,0:0:0:0:
232,225,168613,1,0,0:0:0:0:
60,198,169125,1,0,0:0:0:0:
268,275,169295,1,0,0:0:0:0:
160,140,169636,1,0,0:0:0:0:
109,338,169977,1,0,0:0:0:0:
168,93,170488,1,0,0:0:0:0:
133,273,170829,1,0,0:0:0:0:
366,92,171170,1,0,0:0:0:0:
121,169,171511,1,0,0:0:0:0:
121,169,171682,1,0,0:0:0:0:
126,173,171852,1,0,0:0:0:0:
190,202,172193,1,0,0:0:0:0:
276,108,172534,1,0,0:0:0:0:
254,276,172704,1,0,0:0:0:0:
369,120,172875,1,0,0:0:0:0:
380,272,173045,1,0,0:0:0:0:
171,212,173216,2,0,L|357:172,1,175
314,93,174238,5,0,0:0:0:0:
301,219,174409,1,0,0:0:0:0:
137,202,174579,1,0,0:0:0:0:
331,134,174920,1,0,0:0:0:0:
305,240,175091,1,0,0:0:0:0:
129,217,175261,1,0,0:0:0:0:
144,225,175432,1,0,0:0:0:0:
26,278,175773,1,0,0:0:0:0:
207,250,176113,1,0,0:0:0:0:
301,73,176454,1,0,0:0:0:0:
315,280,176795,1,0,0:0:0:0:
415,125,177307,1,0,0:0:0:0:
402,289,177477,1,0,0:0:0:0:
204,227,177818,1,0,0:0:0:0:
378,178,178159,1,0,0:0:0:0:
357,205,178329,1,0,0:0:0:0:
312,261,178670,1,0,0:0:0:0:
390,174,179182,1,0,0:0:0:0:
177,221,179523,1,0,0:0:0:0:
321,131,179863,1,0,0:0:0:0:
296,251,180204,1,0,0:0:0:0:
226,170,180545,1,0,0:0:0:0:
336,135,180886,1,0,0:0:0:0:
185,273,181057,1,0,0:0:0:0:
248,97,181227,1,0,0:0:0:0:
364,243,181398,1,0,0:0:0:0:
264,287,181568,5,0,0:0:0:0:
295,210,181909,1,0,0:0:0:0:
143,221,182250,1,0,0:0:0:0:
298,138,182591,1,0,0:0:0:0:
235,225,182932,1,0,0:0:0:0:
359,163,183443,1,0,0:0:0:0:
375,265,183613,1,0,0:0:0:0:
155,154,183784,1,0,0:0:0:0:
336,156,184125,1,0,0:0:0:0:
214,279,184466,1,0,0:0:0:0:
216,125,184636,1,0,0:0:0:0:
336,239,184807,1,0,0:0:0:0:
339,97,185148,1,0,0:0:0:0:
146,236,185318,1,0,0:0:0:0:
151,121,185488,1,0,0:0:0:0:
316,251,185659,1,0,0:0:0:0:
222,74,185829,1,0,0:0:0:0:
80,232,186000,1,0,0:0:0:0:
40,47,186341,1,0,0:0:0:0:
311,154,186511,1,0,0:0:0:0:
114,261,186852,1,0,0:0:0:0:
243,94,187193,1,0,0:0:0:0:
258,180,187534,1,0,0:0:0:0:
376,187,187704,1,0,0:0:0:0:
376,187,188045,1,0,0:0:0:0:
337,204,188386,1,0,0:0:0:0:
312,220,188727,1,0,0:0:0:0:
312,220,188898,1,0,0:0:0:0:
298,228,189068,1,0,0:0:0:0:
233,247,189409,1,0,0:0:0:0:
233,247,189579,1,0,0:0:0:0:
43,242,189920,1,0,0:0:0:0:
43,242,190091,1,0,0:0:0:0:
289,116,190432,1,0,0:0:0:0:
220,265,190773,1,0,0:0:0:0:
345,167,191113,1,0,0:0:0:0:
367,250,191454,1,0,0:0:0:0:
103,195,191795,1,0,0:0:0:0:
262,85,191966,1,0,0:0:0:0:
256,258,192136,1,0,0:0:0:0:
101,147,192307,1,0,0:0:0:0:
303,204,192477,1,0,0:0:0:0:
143,301,192818,1,0,0:0:0:0:
210,94,192988,1,0,0:0:0:0:
267,266,193159,1,0,0:0:0:0:
99,142,193500,1,0,0:0:0:0:
331,116,193841,1,0,0:0:0:0:
202,269,194182,1,0,0:0:0:0:
265,88,194523,1,0,0:0:0:0:
196,253,194693,1,0,0:0:0:0:
364,105,194863,1,0,0:0:0:0:
121,250,195034,1,0,0:0:0:0:
353,99,195204,1,0,0:0:0:0:
26,232,195545,1,0,0:0:0:0:
406,128,195716,1,0,0:0:0:0:
63,195,196057,1,0,0:0:0:0:
306,113,196398,1,0,0:0:0:0:
156,213,196568,1,0,0:0:0:0:
269,91,196738,1,0,0:0:0:0:
255,207,196909,1,0,0:0:0:0:
160,123,197250,1,0,0:0:0:0:
350,174,197420,1,0,0:0:0:0:
167,276,197591,1,0,0:0:0:0:
292,119,198102,1,0,0:0:0:0:
286,258,198273,1,0,0:0:0:0:
192,129,198613,1,0,0:0:0:0:
192,129,198954,1,0,0:0:0:0:
192,129,199295,1,0,0:0:0:0:
341,107,199636,1,0,0:0:0:0:
207,233,199807,1,0,0:0:0:0:
325,90,200148,1,0,0:0:0:0:
294,227,200318,1,0,0:0:0:0:
283,92,200659,1,0,0:0:0:0:
320,204,200829,1,0,0:0:0:0:
181,132,201000,1,0,0:0:0:0:
385,152,201170,1,0,0:0:0:0:
141,272,201341,1,0,0:0:0:0:
266,123,201511,1,0,0:0:0:0:
242,212,201852,1,0,0:0:0:0:
124,229,202193,1,0,0:0:0:0:
40,102,202534,1,0,0:0:0:0:
352,248,203557,5,4,0:0:0:0:
339,153,204068,1,4,0:0:0:0:
219,268,204750,1,0,0:0:0:0:
258,107,204920,1,0,0:0:0:0:
211,265,205432,1,0,0:0:0:0:
245,169,205773,1,0,0:0:0:0:
246,163,206113,1,0,0:0:0:0:
246,163,206454,1,0,0:0:0:0:
361,190,206795,1,0,0:0:0:0:
241,292,207136,1,0,0:0:0:0:
228,166,207477,1,0,0:0:0:0:
174,231,207988,1,0,0:0:0:0:
106,237,208329,1,0,0:0:0:0:
39,166,208500,1,0,0:0:0:0:
81,90,208670,1,0,0:0:0:0:
204,73,208841,1,0,0:0:0:0:
321,132,209011,1,0,0:0:0:0:
364,219,209182,1,0,0:0:0:0:
432,198,209352,1,0,0:0:0:0:
424,59,209693,1,0,0:0:0:0:
237,151,209863,1,0,0:0:0:0:
336,127,210034,1,0,0:0:0:0:
280,217,210204,1,0,0:0:0:0:
196,145,210375,1,0,0:0:0:0:
322,218,210545,1,0,0:0:0:0:
256,192,210886,12,0,211568,0:0:0:0:
124,188,211738,6,0,L|328:146,1,175
256,192,212932,12,0,215659,0:0:0:0:
