osu file format v14

[General]
AudioFilename: audio.mp3
AudioLeadIn: 0
PreviewTime: 185530
Countdown: 0
SampleSet: Soft
StackLeniency: 0.4
Mode: 0
LetterboxInBreaks: 0
WidescreenStoryboard: 1

[Editor]
DistanceSpacing: 0.4
BeatDivisor: 4
GridSize: 32
TimelineZoom: 1

[Metadata]
Title:STEP by STEP UP
TitleUnicode:STEP by STEP UP↑↑↑↑
Artist:fourfolium
ArtistUnicode:fourfolium
Creator:sanairrt
Version:Gaming
Source:NEW GAME!!
Tags:フォーフォリウム ニューゲーム season 2 opening op Sightread FreezingAnimenz akitoshi corinn -laura- ItsCactus [Yoshino] anime pop jpop japanese takeda yuuki 高田憂希 suzukaze aoba 涼風青葉 yamaguchi megumi 山口愛 takimoto hifumi 滝本ひふみ toda megumi 戸田めぐみ shinoda hajime 篠田はじめ ayumi takeo 竹尾歩美 iijima yun 飯島ゆん
BeatmapID:4245269
BeatmapSetID:2035811

[Difficulty]
HPDrainRate:5.5
CircleSize:4
OverallDifficulty:8.5
ApproachRate:9.2
SliderMultiplier:1.8
SliderTickRate:1

[Events]
//Background and Video events
0,0,"bgbgfbdf.jpg",0,0
//Break Periods
2,186252,196660
//Storyboard Layer 0 (Background)
//Storyboard Layer 1 (Fail)
//Storyboard Layer 2 (Pass)
//Storyboard Layer 3 (Foreground)
//Storyboard Layer 4 (Overlay)
//Storyboard Sound Samples

[TimingPoints]
1116,342.857142857143,4,2,1,40,1,0
1116,-125,4,2,1,50,0,0
14487,-125,4,2,2,75,0,0
14830,-100,4,2,1,80,0,0
24944,-100,4,2,1,50,0,0
25801,-125,4,2,1,60,0,0
35401,-125,4,2,1,70,0,0
36773,-111.111111111111,4,2,1,70,0,0
47401,-166.666666666666,4,2,1,60,0,0
47744,-111.111111111111,4,2,1,75,0,0
53058,-99.9999999999999,4,2,1,80,0,0
58030,-99.9999999999999,4,2,1,70,0,0
58716,-90.9090909090909,4,2,1,85,0,0
80658,-111.111111111111,4,2,1,75,0,0
83573,-111.111111111111,4,2,1,85,0,0
84944,-100,4,2,1,80,0,0
96258,-100,4,2,1,50,0,0
96601,-166.666666666667,4,2,1,50,0,0
97116,-125,4,2,1,60,0,0
108087,-111.111111111111,4,2,1,70,0,0
118716,-166.666666666666,4,2,1,60,0,0
119058,-111.111111111111,4,2,1,75,0,0
124373,-100,4,2,1,80,0,0
129001,-100,4,2,1,50,0,0
129516,-100,4,2,1,70,0,0
130030,-90.9090909090909,4,2,1,85,0,0
151973,-111.111111111111,4,2,1,75,0,0
154716,-111.111111111111,4,2,1,80,0,0
156087,-111.111111111111,4,2,1,75,0,0
156258,-99.9999999999999,4,2,1,75,0,0
157458,-99.9999999999999,4,2,1,85,0,0
168430,-99.9999999999999,4,2,1,75,0,0
173916,-99.9999999999999,4,2,1,85,0,0
184716,-166.666666666667,4,2,1,85,0,0
185401,-166.666666666667,4,2,1,5,0,0
185573,-166.666666666667,4,2,1,40,0,0
186258,-166.666666666667,4,2,1,60,0,0
197230,-142.857142857143,4,2,1,45,0,0
206830,-166.666666666667,4,2,1,45,0,0
210258,-100,4,2,1,70,0,0
210944,-90.9090909090909,4,2,1,85,0,0
242487,-90.9090909090909,4,2,1,60,0,0
243173,-500,4,2,1,60,0,0

[Colours]
Combo1 : 213,0,0
Combo2 : 0,128,255
Combo3 : 128,64,64
Combo4 : 128,128,192

[HitObjects]
95,277,1116,5,6,0:0:0:0:
159,222,1458,1,2,0:0:0:0:
238,256,1801,2,0,B|268:212|268:212|254:166|232:102,1,144,2|2,0:0|0:0,0:0:0:0:
137,9,2316,6,0,P|122:62|98:157,1,144,2|2,0:0|0:0,0:0:0:0:
159,222,2830,1,2,0:0:0:0:
11,384,3001,2,0,B|-5:361|-31:313|33:246|86:274|113:296|113:296|159:324|211:292,1,288,2|0,0:0|0:0,0:0:0:0:
100,148,3858,5,2,0:0:0:0:
100,148,4201,2,0,P|113:104|129:57,1,72,2|0,0:0|0:0,0:0:0:0:
223,4,4544,1,2,0:0:0:0:
223,4,4716,2,0,P|233:38|244:72,1,72,2|0,0:0|0:0,0:0:0:0:
159,222,5058,6,0,B|215:208|215:208|247:220|247:220|297:208,1,144,2|0,0:0|0:0,0:0:0:0:
480,128,5573,1,2,0:0:0:0:
480,128,5744,2,0,P|408:114|308:95,1,144,2|0,0:0|0:0,0:0:0:0:
271,160,6258,1,2,0:0:0:0:
316,238,6430,1,2,0:0:0:0:
402,213,6601,6,0,P|415:262|440:360,1,144,2|0,0:0|0:0,0:0:0:0:
271,160,7116,1,2,0:0:0:0:
271,160,7287,2,0,P|288:90|307:20,1,144,2|0,0:0|0:0,0:0:0:0:
168,152,7801,6,0,P|179:186|196:249,1,72,2|0,0:0|0:0,0:0:0:0:
271,160,8144,1,2,0:0:0:0:
129,301,8316,1,2,0:0:0:0:
129,301,8487,2,0,P|81:259|7:276,1,144,2|0,0:0|0:0,0:0:0:0:
190,380,9001,2,0,P|225:364|271:350,1,72,2|0,0:0|0:0,0:0:0:0:
382,264,9344,6,0,P|347:252|315:237,1,72,2|0,0:0|0:0,0:0:0:0:
392,374,9687,1,0,0:0:0:0:
481,233,9858,2,0,P|497:180|450:97,1,144
343,77,10373,2,0,P|354:123|364:176,1,72,2|0,0:0|0:0,0:0:0:0:
292,236,10716,6,0,B|180:270|200:187|78:240,1,216,2|0,0:0|0:0,0:0:0:0:
149,56,11401,2,0,P|178:88|190:141,1,72,2|0,0:0|0:0,0:0:0:0:
93,134,11744,1,0,0:0:0:0:
255,13,11916,5,2,0:0:0:0:
256,192,12001,12,0,14144,0:0:0:0:
82,237,14487,5,8,0:1:0:0:
263,374,14830,6,0,P|276:319|290:271,1,90,6|0,1:2|0:0,0:0:0:0:
176,109,15173,2,0,P|187:152|198:196,1,90,10|2,0:0|0:0,0:0:0:0:
195,206,15430,1,8,0:0:0:0:
192,216,15516,1,2,1:2:0:0:
250,17,15687,1,2,1:2:0:0:
72,139,15858,1,10,0:0:0:0:
307,145,16030,6,0,B|358:128|404:114|404:114|452:144|423:196,1,180,2|2,1:2|1:2,0:0:0:0:
176,109,16544,1,10,0:0:0:0:
285,286,16716,2,0,P|238:274|129:249,1,135,2|0,1:2|0:0,0:0:0:0:
145,260,17058,1,0,1:2:0:0:
413,221,17230,2,0,P|423:260|440:325,1,90,8|0,0:0|0:0,0:0:0:0:
324,110,17573,6,0,P|308:174|282:295,1,180,6|10,1:2|0:0,0:0:0:0:
176,109,18087,1,2,0:0:0:0:
176,109,18173,1,8,0:0:0:0:
176,109,18258,1,2,1:2:0:0:
50,261,18430,2,0,P|89:249|150:233,1,90,2|10,1:2|0:0,0:0:0:0:
280,73,18773,6,0,P|192:81|140:12,1,180,2|2,1:2|1:2,0:0:0:0:
411,221,19287,1,10,0:0:0:0:
399,0,19458,2,0,P|387:39|371:100,1,90,2|0,1:2|0:0,0:0:0:0:
231,1,19801,1,8,0:0:0:0:
305,225,19973,2,0,P|348:214|411:199,1,90,8|0,0:0|0:0,0:0:0:0:
295,362,20316,6,0,P|250:317|178:330,1,135,6|0,1:2|0:0,0:0:0:0:
175,334,20658,2,0,P|162:290|147:243,1,90,10|2,0:0|0:0,0:0:0:0:
141,242,20916,1,8,0:0:0:0:
134,237,21001,1,2,1:2:0:0:
69,359,21173,1,2,1:2:0:0:
276,146,21344,2,0,P|262:188|249:232,1,90,10|0,0:0|0:0,0:0:0:0:
215,55,21687,5,6,1:2:0:0:
374,204,21858,1,0,1:2:0:0:
116,124,22030,1,10,0:0:0:0:
330,0,22201,2,0,P|403:18|478:37,1,135,4|0,1:2|0:0,0:0:0:0:
468,40,22544,1,0,1:2:0:0:
240,141,22716,2,0,P|225:90|209:38,1,90,10|2,0:0|0:0,0:0:0:0:
217,47,22973,1,2,0:0:0:0:
221,38,23058,5,12,0:0:0:0:
374,204,23230,1,0,1:2:0:0:
116,124,23401,1,2,1:2:0:0:
330,0,23573,2,0,P|311:67|280:183,1,180,14|0,0:0|1:2,0:0:0:0:
217,47,24087,1,10,0:0:0:0:
217,47,24173,1,8,0:0:0:0:
217,47,24258,1,8,0:3:0:0:
428,122,24430,5,10,0:0:0:0:
183,241,24601,1,10,0:0:0:0:
352,20,24773,1,10,0:0:0:0:
281,173,24944,6,0,P|274:152|267:131,2,45,2|2|2,0:0|0:0|0:0,0:0:0:0:
352,230,25287,1,2,0:0:0:0:
437,198,25458,1,2,0:0:0:0:
451,108,25630,1,2,0:0:0:0:
329,316,25801,6,0,P|259:297|165:275,1,144,6|2,1:2|1:2,0:0:0:0:
281,173,26316,1,2,0:0:0:0:
102,232,26487,1,2,1:2:0:0:
102,232,26658,2,0,P|91:193|80:153,1,72,2|0,0:0|1:2,0:0:0:0:
220,3,27001,6,0,P|201:72|179:167,1,144,2|2,0:0|0:0,0:0:0:0:
281,173,27516,1,2,1:2:0:0:
102,232,27687,2,0,P|85:162|66:92,1,144,2|2,0:0|0:0,0:0:0:0:
184,142,28201,1,2,1:2:0:0:
184,142,28373,1,2,0:0:0:0:
97,340,28544,6,0,P|58:328|3:315,1,72,0|0,1:2|0:0,0:0:0:0:
197,241,28887,2,0,P|235:229|291:216,1,72,2|0,1:2|0:0,0:0:0:0:
184,142,29230,1,2,1:2:0:0:
271,315,29401,2,0,P|259:353|246:409,1,72,2|0,0:0|1:2,0:0:0:0:
392,318,29744,6,0,B|412:272|412:272|398:230|381:178,1,144,2|2,0:0|0:0,0:0:0:0:
321,1,30258,2,0,P|310:44|289:132,1,108,2|0,1:2|0:0,0:0:0:0:
298,116,30601,1,0,1:2:0:0:
197,241,30773,1,10,0:0:0:0:
386,166,30944,1,0,1:2:0:0:
211,65,31116,1,10,0:0:0:0:
411,271,31287,6,0,P|368:260|280:239,1,108,6|0,1:2|0:0,0:0:0:0:
297,255,31630,2,0,P|307:293|321:342,1,72,2|0,1:2|0:0,0:0:0:0:
216,171,31973,2,0,P|205:209|192:258,1,72,2|0,1:2|0:0,0:0:0:0:
92,267,32316,2,0,P|52:253|10:240,1,72,2|0,1:2|0:0,0:0:0:0:
196,240,32658,5,2,1:2:0:0:
196,240,32830,1,2,0:0:0:0:
67,384,33001,1,2,1:2:0:0:
67,384,33173,2,0,P|99:374|149:359,1,72,2|0,0:0|1:2,0:0:0:0:
284,286,33516,2,0,P|252:276|202:261,2,72,2|2|2,0:0|1:2|0:0,0:0:0:0:
450,275,34030,6,0,P|461:308|481:366,1,72,2|0,1:2|0:0,0:0:0:0:
390,146,34373,2,0,P|377:179|366:214,1,72,0|0,1:2|0:0,0:0:0:0:
299,71,34716,1,0,1:2:0:0:
299,71,34887,1,0,0:0:0:0:
196,240,35058,2,0,P|229:227|264:216,1,72,0|0,1:2|0:0,0:0:0:0:
26,5,35401,6,0,P|17:33|-2:93,1,72,6|0,1:2|0:0,0:0:0:0:
126,123,35744,2,0,P|115:88|103:52,1,72,2|0,0:0|0:0,0:0:0:0:
201,41,36087,1,2,0:0:0:0:
74,206,36258,1,0,1:2:0:0:
299,71,36430,2,0,P|340:82|427:105,1,108,14|0,0:0|0:0,0:0:0:0:
410,109,36773,6,0,B|377:156|377:156|389:198|410:262,1,161.999995056153,6|10,0:0|0:0,0:0:0:0:
363,361,37287,1,2,0:0:0:0:
363,361,37373,1,0,0:0:0:0:
363,361,37458,1,2,1:2:0:0:
230,198,37630,1,2,1:2:0:0:
408,255,37801,1,8,0:0:0:0:
222,341,37973,6,0,B|172:321|131:306|131:306|104:339|56:348,1,161.999995056153,2|2,1:2|1:2,0:0:0:0:
230,198,38487,1,8,0:0:0:0:
59,250,38658,2,0,P|43:200|26:159,1,80.9999975280763,2|0,0:0|1:2,0:0:0:0:
230,198,39001,1,2,1:2:0:0:
168,24,39173,2,0,P|153:61|141:100,1,80.9999975280763,8|2,0:0|0:0,0:0:0:0:
147,109,39430,1,0,0:0:0:0:
151,116,39516,6,0,P|225:100|298:86,1,121.499996292114,2|0,1:2|0:0,0:0:0:0:
278,97,39858,1,10,0:0:0:0:
408,255,40030,2,0,P|366:242|309:226,1,80.9999975280763,2|2,0:0|1:2,0:0:0:0:
398,149,40373,1,2,1:2:0:0:
254,299,40544,1,8,0:0:0:0:
494,215,40716,6,0,P|506:265|534:378,1,161.999995056153,2|2,1:2|1:2,0:0:0:0:
330,231,41230,1,10,0:0:0:0:
385,378,41401,2,0,P|397:336|417:277,1,80.9999975280763,0|0,1:2|0:0,0:0:0:0:
282,139,41744,1,0,1:2:0:0:
288,333,41916,2,0,P|251:321|194:304,1,80.9999975280763,8|0,0:0|0:0,0:0:0:0:
8,225,42258,6,0,P|62:211|138:191,1,121.499996292114,6|0,1:2|0:0,0:0:0:0:
133,202,42601,2,0,P|120:236|102:286,1,80.9999975280763,10|0,0:0|0:0,0:0:0:0:
79,110,42944,1,2,1:2:0:0:
234,249,43116,1,2,1:2:0:0:
165,34,43287,1,8,0:0:0:0:
282,139,43458,6,0,P|346:122|460:93,1,161.999995056153,2|2,1:2|1:2,0:0:0:0:
234,249,43973,1,8,0:0:0:0:
498,180,44144,2,0,P|487:210|468:275,1,80.9999975280763,2|0,1:2|0:0,0:0:0:0:
373,353,44487,2,0,P|361:314|347:276,1,80.9999975280763,2|8,1:2|0:0,0:0:0:0:
133,202,44830,6,0,B|93:216|39:236|39:236|2:215|9:163,1,161.999995056153,2|2,1:2|1:2,0:0:0:0:
234,249,45344,2,0,P|221:287|208:325,1,80.9999975280763,8|2,0:0|0:0,0:0:0:0:
133,202,45687,1,2,1:2:0:0:
133,202,45858,1,0,1:2:0:0:
327,333,46030,1,8,0:0:0:0:
206,105,46201,1,2,1:2:0:0:
206,105,46544,5,10,0:0:0:0:
63,329,46716,1,10,0:0:0:0:
342,194,46887,1,10,0:0:0:0:
55,59,47058,1,10,0:0:0:0:
47,70,47401,6,0,P|59:106|75:158,1,80.9999975280763,0|0,1:2|0:0,0:0:0:0:
21,221,47744,6,0,B|62:187|62:187|116:195|183:206,1,161.999995056153,6|10,0:0|0:1,0:0:0:0:
325,60,48258,1,0,1:2:0:0:
290,235,48430,2,0,P|277:190|259:131,1,80.9999975280763,2|2,1:2|0:0,0:0:0:0:
169,203,48773,1,10,0:1:0:0:
325,60,48944,6,0,P|402:78|505:102,1,161.999995056153,2|2,1:2|1:2,0:0:0:0:
267,157,49458,1,10,0:1:0:0:
163,10,49630,2,0,P|104:4|58:41,1,121.499996292114,2|0,1:2|0:0,0:0:0:0:
51,54,49973,2,0,P|56:73|64:102,1,40.4999987640381,10|0,0:1|0:0,0:0:0:0:
144,165,50144,2,0,P|149:145|156:123,1,40.4999987640381,10|0,0:1|0:0,0:0:0:0:
325,60,50316,1,2,0:0:0:0:
153,262,50487,6,0,B|110:247|69:233|69:233|31:249|33:291,1,161.999995056153,2|10,1:2|0:1,0:0:0:0:
144,165,51001,1,0,1:2:0:0:
135,366,51173,2,0,P|174:354|230:340,1,80.9999975280763,2|2,1:2|0:0,0:0:0:0:
153,262,51516,1,10,0:1:0:0:
319,375,51687,6,0,P|342:279|362:204,1,161.999995056153,2|2,1:2|1:2,0:0:0:0:
341,111,52201,1,10,0:1:0:0:
453,259,52373,1,2,0:0:0:0:
453,259,52458,1,8,0:0:0:0:
453,259,52544,1,0,1:2:0:0:
241,177,52716,1,10,0:1:0:0:
433,55,52887,1,10,0:1:0:0:
214,278,53058,6,0,P|153:260|64:235,1,135,6|0,1:2|0:0,0:0:0:0:
77,246,53401,1,2,1:2:0:0:
312,177,53573,1,10,0:0:0:0:
115,367,53744,1,2,1:2:0:0:
165,66,53916,2,0,P|175:101|196:175,1,90,10|0,0:0|0:0,0:0:0:0:
310,24,54258,1,8,0:0:0:0:
379,304,54430,6,0,B|269:264|269:264|244:284|213:311,1,180,2|2,1:2|1:2,0:0:0:0:
470,235,54944,1,10,0:0:0:0:
282,380,55116,1,2,1:2:0:0:
368,178,55287,1,10,0:3:0:0:
368,178,55373,1,10,0:3:0:0:
368,178,55458,1,2,0:0:0:0:
469,356,55630,1,8,0:0:0:0:
292,60,55801,6,0,P|270:148|248:235,1,180,6|2,0:0|1:2,0:0:0:0:
149,143,56316,1,10,0:0:0:0:
351,271,56487,1,2,1:2:0:0:
194,4,56658,1,10,0:0:0:0:
57,269,56830,1,2,1:2:0:0:
292,60,57001,1,10,0:0:0:0:
172,354,57173,2,0,P|159:300|142:237,1,90,2|0,1:2|0:0,0:0:0:0:
402,41,57516,5,8,0:0:0:0:
402,41,57687,2,0,P|390:84|380:128,1,90,10|0,0:0|0:0,0:0:0:0:
292,60,58030,1,2,0:0:0:0:
351,271,58201,5,0,1:2:0:0:
351,271,58287,1,0,1:2:0:0:
351,271,58373,2,0,P|415:253|483:235,1,135,10|0,0:0|0:0,0:0:0:0:
387,359,58716,6,0,P|339:306|244:338,1,148.50000453186,6|0,1:2|0:0,0:0:0:0:
257,321,59058,2,0,P|242:271|227:217,1,99.0000030212403,10|2,0:0|0:0,0:0:0:0:
232,218,59316,1,8,0:0:0:0:
235,209,59401,1,2,1:2:0:0:
146,374,59573,1,0,1:2:0:0:
351,186,59744,1,8,0:0:0:0:
145,269,59916,6,0,P|75:249|-13:226,1,148.50000453186,6|0,1:2|0:0,0:0:0:0:
0,220,60258,1,2,1:2:0:0:
146,374,60430,1,8,0:0:0:0:
235,209,60601,2,0,B|256:164|256:164|234:109|214:61,1,148.50000453186,6|0,1:2|0:0,0:0:0:0:
210,63,60944,2,0,P|186:55|162:49,1,49.5000015106202,2|0,1:2|0:0,0:0:0:0:
351,186,61116,2,0,P|374:178|453:157,1,99.0000030212403,8|0,0:0|0:0,0:0:0:0:
374,384,61458,6,0,P|325:331|254:341,1,148.50000453186,6|0,1:2|0:0,0:0:0:0:
245,347,61801,1,10,0:0:0:0:
351,186,61973,1,2,0:0:0:0:
351,186,62058,1,8,0:0:0:0:
351,186,62144,1,2,1:2:0:0:
144,253,62316,1,0,1:2:0:0:
374,384,62487,1,8,0:0:0:0:
197,154,62658,6,0,P|185:206|153:353,1,198.000006042481,6|2,1:2|1:2,0:0:0:0:
351,186,63173,1,8,0:0:0:0:
265,362,63344,2,0,P|334:343|444:316,1,148.50000453186,6|0,1:2|0:0,0:0:0:0:
420,329,63687,2,0,P|413:350|403:382,1,49.5000015106202,2|0,1:2|0:0,0:0:0:0:
512,211,63858,1,8,0:0:0:0:
507,196,63943,1,8,0:3:0:0:
502,182,64029,1,8,0:3:0:0:
257,154,64201,6,0,P|300:167|362:190,1,99.0000030212403,6|0,1:2|0:0,0:0:0:0:
508,14,64544,2,0,P|461:30|414:45,1,99.0000030212403,10|0,0:0|0:0,0:0:0:0:
420,329,64887,2,0,P|437:270|456:214,1,99.0000030212403,2|0,1:2|0:0,0:0:0:0:
247,275,65230,2,0,P|261:322|276:369,1,99.0000030212403,10|0,0:0|0:0,0:0:0:0:
296,151,65573,5,6,1:2:0:0:
141,336,65744,1,0,1:2:0:0:
415,215,65916,1,10,0:0:0:0:
171,109,66087,2,0,B|121:124|68:141|68:141|27:115|43:53,1,198.000006042481,6|0,1:2|1:2,0:0:0:0:
247,275,66601,1,8,0:0:0:0:
330,24,66773,6,0,P|424:19|479:97,1,198.000006042481,6|10,1:2|0:0,0:0:0:0:
478,106,67201,1,8,0:0:0:0:
475,115,67287,1,10,0:0:0:0:
284,248,67458,2,0,P|256:238|219:226,1,49.5000015106202,10|8,0:0|0:0,0:0:0:0:
385,104,67630,1,10,0:0:0:0:
160,82,67801,1,10,0:0:0:0:
166,95,67886,1,8,0:0:0:0:
171,109,67972,1,10,0:0:0:0:
316,333,68144,6,0,P|268:279|197:289,1,148.50000453186,6|0,1:2|0:0,0:0:0:0:
190,299,68487,1,8,0:0:0:0:
385,104,68658,2,0,P|373:142|352:216,1,99.0000030212403,10|0,0:0|0:0,0:0:0:0:
297,51,69001,1,10,0:0:0:0:
469,227,69173,1,0,1:2:0:0:
110,163,69344,2,0,P|154:151|231:133,1,99.0000030212403,10|0,0:0|0:0,0:0:0:0:
459,370,69687,6,0,P|415:358|286:325,1,148.50000453186,6|0,1:2|0:0,0:0:0:0:
302,339,70030,2,0,P|290:290|277:243,1,99.0000030212403,10|2,0:0|0:0,0:0:0:0:
270,237,70287,1,8,0:0:0:0:
262,232,70373,1,2,1:2:0:0:
414,134,70544,1,0,1:2:0:0:
302,339,70716,1,8,0:0:0:0:
205,138,70887,6,0,B|161:150|119:165|119:165|96:133|43:126,1,148.50000453186,6|0,1:2|0:0,0:0:0:0:
62,136,71230,1,2,1:2:0:0:
262,232,71401,1,8,0:0:0:0:
172,48,71573,2,0,P|214:100|311:81,1,148.50000453186,6|0,1:2|0:0,0:0:0:0:
298,87,71916,2,0,P|287:44|278:15,1,49.5000015106202,2|0,1:2|0:0,0:0:0:0:
461,127,72087,2,0,P|454:150|432:242,1,99.0000030212403,8|0,0:0|0:0,0:0:0:0:
302,339,72430,6,0,P|238:318|154:292,1,148.50000453186,6|0,1:2|0:0,0:0:0:0:
151,299,72773,1,10,0:0:0:0:
62,136,72944,1,2,0:0:0:0:
62,136,73030,1,8,0:0:0:0:
62,136,73116,1,2,1:2:0:0:
254,214,73287,1,0,1:2:0:0:
25,350,73458,1,8,0:0:0:0:
197,137,73630,6,0,P|291:124|353:196,1,198.000006042481,6|2,1:2|1:2,0:0:0:0:
162,384,74144,1,8,0:0:0:0:
405,335,74316,2,0,P|341:314|257:288,1,148.50000453186,6|0,1:2|0:0,0:0:0:0:
257,281,74658,1,2,1:2:0:0:
37,339,74830,1,10,0:0:0:0:
197,137,75001,1,2,1:2:0:0:
161,383,75173,6,0,P|135:285|101:173,1,198.000006042481,6|10,1:2|0:0,0:0:0:0:
160,15,75687,1,2,0:0:0:0:
160,15,75773,1,8,0:0:0:0:
160,15,75858,1,2,1:2:0:0:
2,200,76030,1,0,1:2:0:0:
256,70,76201,1,8,0:0:0:0:
126,252,76373,6,0,B|235:211|208:298|328:252,1,198.000006042481,6|2,1:2|1:2,0:0:0:0:
67,90,76887,1,8,0:0:0:0:
312,6,77058,2,0,P|299:55|276:160,1,148.50000453186,6|0,1:2|0:0,0:0:0:0:
281,160,77401,1,2,1:2:0:0:
155,346,77573,2,0,P|135:284|116:225,1,99.0000030212403,8|0,0:0|1:2,0:0:0:0:
366,249,77916,5,14,0:0:0:0:
174,112,78087,1,2,1:2:0:0:
288,358,78258,1,2,1:2:0:0:
510,150,78430,2,0,P|460:135|403:120,1,99.0000030212403,14|0,0:0|0:0,0:0:0:0:
125,243,78773,1,2,1:2:0:0:
283,39,78944,1,10,0:0:0:0:
167,326,79116,6,0,P|67:318|34:252,1,148.50000453186,6|0,1:2|0:0,0:0:0:0:
32,284,79458,1,2,1:2:0:0:
146,16,79630,2,0,P|160:63|173:111,1,99.0000030212403,2|0,1:2|0:0,0:0:0:0:
366,249,79973,1,10,0:3:0:0:
413,244,80058,1,8,0:3:0:0:
446,208,80144,1,8,0:3:0:0:
447,159,80230,1,8,0:3:0:0:
415,123,80316,2,0,P|358:138|256:167,1,148.50000453186,14|0,0:0|0:0,0:0:0:0:
368,33,80658,6,0,P|426:87|523:63,1,161.999995056153,6|0,1:2|0:0,0:0:0:0:
271,162,81173,1,0,1:2:0:0:
495,183,81344,2,0,P|485:211|462:292,1,80.9999975280763,0|0,1:2|0:0,0:0:0:0:
383,358,81687,2,0,P|371:319|358:280,1,80.9999975280763,10|0,0:0|0:0,0:0:0:0:
267,76,82030,6,0,P|251:134|224:239,1,161.999995056153,2|0,1:2|0:0,0:0:0:0:
156,134,82544,1,0,1:2:0:0:
260,323,82716,2,0,P|217:263|111:292,1,161.999995056153,2|8,1:2|0:0,0:0:0:0:
26,165,83230,6,0,P|95:147|170:128,1,121.499996292114,2|0,1:2|0:0,0:0:0:0:
156,134,83573,1,8,0:0:0:0:
260,323,83744,1,8,0:0:0:0:
291,77,83916,1,8,0:0:0:0:
102,279,84087,1,8,0:0:0:0:
396,178,84258,1,8,0:0:0:0:
164,10,84430,1,8,0:0:0:0:
393,308,84601,1,8,0:0:0:0:
393,308,84944,5,0,1:2:0:0:
254,175,85116,1,10,0:0:0:0:
248,190,85201,1,8,0:0:0:0:
243,204,85287,1,0,1:2:0:0:
88,327,85458,1,10,0:0:0:0:
130,312,85543,1,8,0:0:0:0:
174,317,85629,1,0,1:2:0:0:
216,332,85715,1,8,0:0:0:0:
260,323,85800,1,10,0:0:0:0:
512,217,85973,1,8,0:0:0:0:
509,224,86058,1,8,0:0:0:0:
504,229,86144,6,0,P|458:217|355:188,1,135,6|0,1:2|0:0,0:0:0:0:
363,199,86487,2,0,P|348:147|333:96,1,90,10|2,0:0|0:0,0:0:0:0:
341,105,86744,1,8,0:0:0:0:
345,97,86830,1,2,1:2:0:0:
249,267,87001,1,2,1:2:0:0:
465,117,87173,1,10,0:0:0:0:
190,170,87344,6,0,B|138:152|81:133|81:133|131:199,1,180,2|2,1:2|1:2,0:0:0:0:
249,267,87858,1,10,0:0:0:0:
153,52,88030,2,0,P|208:40|313:21,1,135,2|0,1:2|0:0,0:0:0:0:
294,31,88373,1,0,1:2:0:0:
449,223,88544,2,0,P|405:210|356:197,1,90,8|0,0:0|0:0,0:0:0:0:
190,170,88887,6,0,P|203:240|223:352,1,180,6|10,1:2|0:0,0:0:0:0:
317,287,89401,1,2,0:0:0:0:
317,287,89487,1,8,0:0:0:0:
317,287,89573,1,2,1:2:0:0:
106,250,89744,2,0,P|62:261|19:274,1,90,2|10,1:2|0:0,0:0:0:0:
147,73,90087,6,0,P|208:134|293:118,1,180,2|2,1:2|1:2,0:0:0:0:
106,250,90601,1,10,0:0:0:0:
273,353,90773,2,0,P|261:309|248:266,1,90,2|0,1:2|0:0,0:0:0:0:
150,360,91116,1,8,0:0:0:0:
358,197,91287,2,0,P|402:209|444:221,1,90,8|0,0:0|0:0,0:0:0:0:
284,33,91630,6,0,P|216:48|128:70,1,135,6|0,1:2|0:0,0:0:0:0:
147,73,91973,2,0,P|158:104|183:180,1,90,10|2,0:0|0:0,0:0:0:0:
173,167,92230,1,8,0:0:0:0:
168,174,92316,1,2,1:2:0:0:
284,33,92487,1,2,1:2:0:0:
33,97,92658,2,0,P|47:54|62:11,1,90,10|0,0:0|0:0,0:0:0:0:
278,137,93001,5,6,1:2:0:0:
34,258,93173,1,0,1:2:0:0:
147,73,93344,1,10,0:0:0:0:
125,342,93516,2,0,P|186:326|285:304,1,135,4|0,1:2|0:0,0:0:0:0:
266,315,93858,1,0,1:2:0:0:
363,165,94030,2,0,P|320:150|277:136,1,90,10|2,0:0|0:0,0:0:0:0:
271,140,94287,1,2,0:0:0:0:
264,145,94373,5,12,0:0:0:0:
478,239,94544,1,0,1:2:0:0:
358,26,94716,1,2,1:2:0:0:
417,315,94887,2,0,P|444:220|477:115,1,180,14|0,0:0|1:2,0:0:0:0:
266,315,95401,1,10,0:0:0:0:
266,315,95487,1,8,0:0:0:0:
266,315,95573,1,8,0:3:0:0:
234,103,95744,5,10,0:0:0:0:
405,301,95916,1,10,0:0:0:0:
127,190,96087,1,10,0:0:0:0:
304,173,96258,6,0,P|298:195|292:216,2,45,2|2|2,0:0|0:0|0:0,0:0:0:0:
234,103,96601,1,2,0:0:0:0:
410,185,96773,2,0,P|399:143|391:110,1,53.9999983520508,2|2,0:0|0:0,0:0:0:0:
286,352,97116,6,0,P|238:311|159:324,1,144,6|2,1:2|1:2,0:0:0:0:
176,201,97630,1,2,0:0:0:0:
68,365,97801,1,2,1:2:0:0:
68,365,97973,2,0,P|55:323|41:277,1,72,2|0,0:0|1:2,0:0:0:0:
176,201,98316,1,2,0:0:0:0:
97,117,98487,6,0,P|86:151|76:185,1,72,0|2,1:2|0:0,0:0:0:0:
176,201,98830,1,2,1:2:0:0:
56,36,99001,2,0,P|106:83|176:75,1,144,2|2,0:0|0:0,0:0:0:0:
176,201,99516,1,2,1:2:0:0:
309,22,99687,1,2,0:0:0:0:
309,22,99858,6,0,P|299:56|276:140,1,108,0|0,1:2|0:0,0:0:0:0:
286,136,100201,2,0,P|323:125|378:111,1,72,2|2,1:2|0:0,0:0:0:0:
176,75,100544,1,2,1:2:0:0:
279,246,100716,2,0,P|241:235|187:221,1,72,2|0,0:0|1:2,0:0:0:0:
344,336,101058,6,0,P|391:291|475:311,1,144,2|2,0:0|0:0,0:0:0:0:
279,246,101573,1,2,1:2:0:0:
132,374,101744,2,0,P|120:333|93:245,1,108,10|0,0:0|0:0,0:0:0:0:
105,263,102087,1,10,0:0:0:0:
213,108,102258,2,0,P|204:135|187:197,1,72,0|2,1:2|1:2,0:0:0:0:
344,336,102601,6,0,P|412:317|473:302,1,108,6|0,1:2|0:0,0:0:0:0:
454,298,102944,2,0,P|443:263|431:229,1,72,2|0,1:2|0:0,0:0:0:0:
334,133,103287,2,0,P|368:122|402:110,1,72,2|0,1:2|0:0,0:0:0:0:
279,246,103630,2,0,P|244:235|210:223,1,72,2|0,1:2|0:0,0:0:0:0:
334,133,103973,5,2,1:2:0:0:
334,133,104144,1,2,0:0:0:0:
195,38,104316,1,2,1:2:0:0:
195,38,104487,2,0,P|203:69|215:118,1,72,2|0,0:0|1:2,0:0:0:0:
333,42,104830,1,10,0:0:0:0:
276,217,105001,1,2,1:2:0:0:
446,107,105173,1,10,0:0:0:0:
481,228,105344,6,0,P|444:216|384:198,1,72,2|0,1:2|0:0,0:0:0:0:
446,107,105687,1,0,1:2:0:0:
285,319,105858,2,0,P|321:307|382:289,1,72,8|0,0:0|1:2,0:0:0:0:
424,375,106201,1,8,0:3:0:0:
297,209,106373,1,0,1:2:0:0:
297,209,106544,1,8,0:3:0:0:
144,327,106716,6,0,P|129:279|117:239,1,72,6|0,1:2|0:0,0:0:0:0:
222,90,107058,2,0,P|211:124|201:158,1,72,2|0,0:0|0:0,0:0:0:0:
291,224,107401,1,2,0:0:0:0:
107,95,107573,1,0,1:2:0:0:
107,95,107658,1,0,1:2:0:0:
107,95,107744,2,0,P|63:106|-27:131,1,108,14|0,0:0|0:0,0:0:0:0:
0,135,108087,6,0,B|33:182|33:182|3:274,1,121.499996292114,6|0,0:0|0:0,0:0:0:0:
19,253,108430,2,0,P|57:265|114:287,1,80.9999975280763,10|2,0:0|0:0,0:0:0:0:
214,253,108773,1,2,1:2:0:0:
57,384,108944,1,2,1:2:0:0:
161,171,109116,1,8,0:0:0:0:
215,359,109287,6,0,B|269:341|312:328|312:328|370:363,1,161.999995056153,2|2,1:2|1:2,0:0:0:0:
214,253,109801,1,8,0:0:0:0:
319,155,109973,2,0,P|280:145|222:130,1,80.9999975280763,2|0,0:0|1:2,0:0:0:0:
214,253,110316,1,2,1:2:0:0:
424,97,110487,2,0,P|434:136|444:175,1,80.9999975280763,8|2,0:0|0:0,0:0:0:0:
450,180,110744,1,0,0:0:0:0:
455,186,110830,6,0,P|442:237|422:325,1,121.499996292114,2|0,1:2|0:0,0:0:0:0:
420,310,111173,2,0,P|380:297|330:283,1,80.9999975280763,10|2,0:0|0:0,0:0:0:0:
164,335,111516,1,2,1:2:0:0:
311,182,111687,1,2,1:2:0:0:
245,384,111858,1,8,0:0:0:0:
67,257,112030,6,0,B|133:239|133:239|170:250|170:250|223:235,1,161.999995056153,2|2,1:2|1:2,0:0:0:0:
164,335,112544,1,10,0:0:0:0:
344,156,112716,2,0,P|304:145|249:131,1,80.9999975280763,0|0,1:2|0:0,0:0:0:0:
342,286,113058,1,0,1:2:0:0:
159,116,113230,2,0,P|171:156|181:195,1,80.9999975280763,8|0,0:0|0:0,0:0:0:0:
382,361,113573,6,0,P|347:325|268:340,1,121.499996292114,6|0,1:2|0:0,0:0:0:0:
270,336,113916,2,0,P|230:325|184:314,1,80.9999975280763,10|2,0:0|0:0,0:0:0:0:
10,269,114258,1,2,1:2:0:0:
213,199,114430,1,2,1:2:0:0:
71,379,114601,1,8,0:0:0:0:
129,167,114773,6,0,P|187:110|265:119,1,161.999995056153,2|2,1:2|1:2,0:0:0:0:
342,286,115287,1,8,0:0:0:0:
463,187,115458,2,0,P|423:177|381:167,1,80.9999975280763,2|0,1:2|0:0,0:0:0:0:
265,335,115801,2,0,P|304:325|347:315,1,80.9999975280763,2|8,1:2|0:0,0:0:0:0:
174,193,116144,6,0,P|161:243|133:363,1,161.999995056153,2|2,1:2|1:2,0:0:0:0:
263,122,116658,2,0,P|272:156|293:228,1,80.9999975280763,8|2,0:0|0:0,0:0:0:0:
174,193,117001,1,2,1:2:0:0:
370,55,117173,1,0,1:2:0:0:
141,38,117344,1,8,0:0:0:0:
401,208,117516,1,2,1:2:0:0:
391,219,117858,5,10,0:0:0:0:
257,14,118029,1,10,0:0:0:0:
504,109,118201,1,10,0:0:0:0:
242,277,118372,1,10,0:0:0:0:
252,263,118716,6,0,P|262:222|277:164,1,80.9999975280763,0|0,1:2|0:0,0:0:0:0:
193,126,119058,6,0,B|234:158|234:158|277:149|344:136,1,161.999995056153,6|10,0:0|0:1,0:0:0:0:
280,35,119573,1,0,1:2:0:0:
430,199,119744,2,0,P|443:143|457:91,1,80.9999975280763,2|2,1:2|0:0,0:0:0:0:
341,136,120087,1,10,0:1:0:0:
482,360,120258,6,0,P|431:305|334:324,1,161.999995056153,2|2,1:2|1:2,0:0:0:0:
430,199,120773,1,10,0:1:0:0:
258,356,120944,2,0,P|243:298|226:232,1,121.499996292114,2|0,1:2|0:0,0:0:0:0:
233,226,121287,2,0,P|262:217|302:206,1,40.4999987640381,10|0,0:1|0:0,0:0:0:0:
341,136,121458,2,0,P|312:127|272:116,1,40.4999987640381,10|0,0:1|0:0,0:0:0:0:
116,210,121630,1,2,0:0:0:0:
400,215,121801,6,0,P|434:162|408:66,1,161.999995056153,2|10,1:2|0:1,0:0:0:0:
198,129,122316,1,0,1:2:0:0:
321,20,122487,2,0,P|312:53|292:134,1,80.9999975280763,2|2,1:2|0:0,0:0:0:0:
204,10,122830,1,10,0:1:0:0:
108,213,123001,6,0,P|98:173|65:45,1,161.999995056153,2|2,1:2|1:2,0:0:0:0:
198,129,123516,1,10,0:1:0:0:
0,249,123687,1,2,0:0:0:0:
241,287,123858,1,0,1:2:0:0:
55,127,124030,1,10,0:1:0:0:
55,127,124116,1,8,0:0:0:0:
55,127,124201,1,10,0:1:0:0:
169,347,124373,6,0,P|234:329|322:308,1,135,6|0,1:2|0:0,0:0:0:0:
307,319,124716,1,2,1:2:0:0:
419,105,124887,1,10,0:0:0:0:
187,207,125058,1,2,1:2:0:0:
442,335,125230,2,0,P|430:291|419:247,1,90,10|2,0:0|0:0,0:0:0:0:
307,319,125573,1,8,0:0:0:0:
504,157,125744,6,0,P|420:138|297:111,1,180,2|2,1:2|1:2,0:0:0:0:
102,242,126258,1,10,0:0:0:0:
196,17,126430,1,2,1:2:0:0:
196,17,126516,1,0,1:2:0:0:
196,17,126601,2,0,P|203:41|217:89,1,45,10|10,0:3|0:3,0:0:0:0:
314,160,126773,2,0,P|320:141|329:114,1,45,2|0,0:0|0:0,0:0:0:0:
102,242,126944,1,8,0:0:0:0:
266,338,127116,6,0,B|362:300|349:367|447:332,1,180,6|2,0:0|1:2,0:0:0:0:
192,113,127630,1,10,0:0:0:0:
429,209,127801,1,2,1:2:0:0:
102,242,127973,1,10,0:0:0:0:
303,21,128144,1,2,1:2:0:0:
303,21,128230,1,8,0:0:0:0:
303,21,128316,1,10,0:0:0:0:
266,338,128487,6,0,P|196:354|236:263,1,180,2|0,1:2|0:0,0:0:0:0:
326,274,129001,6,0,P|353:314|348:375,1,90,2|0,0:0|0:0,0:0:0:0:
266,338,129344,1,2,0:0:0:0:
459,145,129516,5,0,1:2:0:0:
459,145,129601,1,0,1:2:0:0:
459,145,129687,2,0,P|393:130|302:112,1,135,10|0,0:0|0:0,0:0:0:0:
262,43,130030,6,0,B|297:88|297:88|287:123|268:194,1,148.50000453186,6|0,1:2|0:0,0:0:0:0:
265,188,130373,2,0,P|278:225|304:301,1,99.0000030212403,10|2,0:0|0:0,0:0:0:0:
295,288,130630,1,8,0:0:0:0:
294,295,130716,1,2,1:2:0:0:
160,174,130887,1,0,1:2:0:0:
403,253,131058,1,8,0:0:0:0:
163,323,131230,6,0,B|119:308|76:293|76:293|43:307|-7:342,1,148.50000453186,6|0,1:2|0:0,0:0:0:0:
22,330,131573,1,2,1:2:0:0:
159,174,131744,1,8,0:0:0:0:
256,378,131916,2,0,P|309:329|397:359,1,148.50000453186,6|0,1:2|0:0,0:0:0:0:
391,348,132258,2,0,P|402:313|413:284,1,49.5000015106202,2|0,1:2|0:0,0:0:0:0:
232,94,132430,2,0,P|245:131|271:207,1,99.0000030212403,8|0,0:0|0:0,0:0:0:0:
503,57,132773,6,0,P|445:41|353:17,1,148.50000453186,6|0,1:2|0:0,0:0:0:0:
351,25,133116,1,10,0:0:0:0:
264,187,133287,1,2,0:0:0:0:
264,187,133373,1,8,0:0:0:0:
264,187,133458,1,2,1:2:0:0:
140,2,133630,1,0,1:2:0:0:
369,138,133801,1,8,0:0:0:0:
134,102,133973,6,0,B|78:147|16:122|16:122|48:97|62:62,1,198.000006042481,6|2,1:2|1:2,0:0:0:0:
264,187,134487,1,8,0:0:0:0:
22,272,134658,2,0,P|106:259|152:314,1,148.50000453186,6|0,1:2|0:0,0:0:0:0:
158,306,135001,2,0,P|169:271|181:236,1,49.5000015106202,2|0,1:2|0:0,0:0:0:0:
382,257,135173,1,8,0:0:0:0:
260,173,135344,1,8,0:3:0:0:
264,187,135429,1,8,0:3:0:0:
269,201,135516,6,0,P|309:187|390:161,1,99.0000030212403,6|0,1:2|0:0,0:0:0:0:
440,371,135858,2,0,P|399:357|319:331,1,99.0000030212403,10|0,0:0|0:0,0:0:0:0:
471,159,136201,2,0,P|456:194|433:258,1,99.0000030212403,2|0,1:2|0:0,0:0:0:0:
324,36,136544,2,0,P|339:71|362:135,1,99.0000030212403,10|0,0:0|0:0,0:0:0:0:
238,175,136887,5,6,1:2:0:0:
450,35,137058,1,0,1:2:0:0:
320,261,137230,1,10,0:0:0:0:
149,36,137401,2,0,B|184:81|250:70|250:70|280:27|338:37,1,198.000006042481,6|0,1:2|1:2,0:0:0:0:
238,175,137916,1,8,0:0:0:0:
450,35,138087,6,0,B|410:83|410:83|422:123|453:232,1,198.000006042481,6|10,1:2|0:0,0:0:0:0:
445,224,138516,1,8,0:0:0:0:
443,234,138601,2,0,P|412:224|368:213,1,49.5000015106202,10|0,0:0|0:0,0:0:0:0:
238,175,138773,2,0,P|269:165|313:154,1,49.5000015106202,10|8,0:0|0:0,0:0:0:0:
168,307,138944,1,10,0:0:0:0:
134,315,139029,1,8,0:3:0:0:
101,307,139115,1,10,0:0:0:0:
75,284,139201,1,8,0:0:0:0:
62,252,139286,1,10,0:0:0:0:
282,383,139458,6,0,P|303:346|423:357,1,148.50000453186,6|0,1:2|0:0,0:0:0:0:
407,343,139801,1,8,0:0:0:0:
264,79,139973,2,0,P|252:119|232:196,1,99.0000030212403,10|0,0:0|1:2,0:0:0:0:
368,11,140316,1,10,0:0:0:0:
140,79,140487,1,0,1:2:0:0:
360,199,140658,2,0,P|405:185|484:166,1,99.0000030212403,10|0,0:0|0:0,0:0:0:0:
257,351,141001,6,0,P|218:308|123:324,1,148.50000453186,6|0,1:2|0:0,0:0:0:0:
125,324,141344,2,0,P|107:265|91:213,1,99.0000030212403,10|2,0:0|0:0,0:0:0:0:
99,222,141601,1,8,0:0:0:0:
104,214,141687,1,2,1:2:0:0:
257,351,141858,1,0,1:2:0:0:
191,131,142030,1,8,0:0:0:0:
4,349,142201,6,0,P|89:318|174:286,1,148.50000453186,6|0,1:2|0:0,0:0:0:0:
151,301,142544,1,2,1:2:0:0:
20,167,142716,1,8,0:0:0:0:
257,351,142887,2,0,B|270:303|270:303|264:277|264:277|283:202,1,148.50000453186,6|0,1:2|0:0,0:0:0:0:
276,197,143230,2,0,P|238:206|200:217,1,49.5000015106202,2|0,1:2|0:0,0:0:0:0:
388,329,143401,2,0,P|438:346|503:369,1,99.0000030212403,8|0,0:0|0:0,0:0:0:0:
363,154,143744,6,0,P|311:108|215:124,1,148.50000453186,6|0,1:2|0:0,0:0:0:0:
231,119,144087,1,10,0:0:0:0:
143,297,144258,1,2,0:0:0:0:
143,297,144344,1,8,0:0:0:0:
143,297,144430,1,2,1:2:0:0:
123,62,144601,1,0,1:2:0:0:
275,245,144773,1,8,0:0:0:0:
19,193,144944,6,0,P|103:167|209:137,1,198.000006042481,6|2,1:2|1:2,0:0:0:0:
388,329,145458,1,8,0:0:0:0:
322,93,145630,2,0,P|311:131|279:258,1,148.50000453186,6|0,1:2|0:0,0:0:0:0:
275,245,145973,1,2,1:2:0:0:
466,215,146144,1,10,0:0:0:0:
461,201,146229,1,8,0:0:0:0:
456,187,146315,1,2,1:2:0:0:
287,337,146487,6,0,P|228:272|128:302,1,198.000006042481,6|10,1:2|0:0,0:0:0:0:
208,137,147001,1,2,0:0:0:0:
208,137,147087,1,8,0:0:0:0:
208,137,147173,1,2,1:2:0:0:
41,305,147344,1,0,1:2:0:0:
300,199,147516,1,8,0:0:0:0:
126,60,147687,6,0,B|80:114|80:114|102:172|135:259,1,198.000006042481,6|2,1:2|1:2,0:0:0:0:
208,137,148201,1,8,0:0:0:0:
269,351,148373,2,0,P|291:267|312:192,1,148.50000453186,6|0,1:2|0:0,0:0:0:0:
300,199,148716,1,2,1:2:0:0:
41,305,148887,2,0,P|88:321|154:345,1,99.0000030212403,8|0,0:0|1:2,0:0:0:0:
394,287,149230,5,14,0:0:0:0:
187,128,149401,1,2,1:2:0:0:
269,351,149573,1,2,1:2:0:0:
372,97,149744,2,0,P|355:50|335:-8,1,99.0000030212403,14|0,0:0|0:0,0:0:0:0:
293,211,150087,1,2,1:2:0:0:
488,36,150258,1,10,0:0:0:0:
187,128,150430,6,0,P|119:111|16:88,1,148.50000453186,6|0,1:2|0:0,0:0:0:0:
35,100,150773,1,2,1:2:0:0:
179,261,150944,2,0,P|223:245|292:224,1,99.0000030212403,2|0,1:2|1:2,0:0:0:0:
187,128,151287,1,10,0:3:0:0:
394,287,151458,1,8,0:3:0:0:
398,272,151543,1,8,0:3:0:0:
403,258,151629,1,8,0:3:0:0:
291,329,151801,1,0,1:2:0:0:
423,172,151973,6,0,P|440:240|468:366,1,161.999995056153,6|0,1:2|0:0,0:0:0:0:
299,206,152487,1,0,1:2:0:0:
214,354,152658,2,0,P|249:341|307:324,1,80.9999975280763,0|0,1:2|0:0,0:0:0:0:
151,252,153001,2,0,P|115:239|58:222,1,80.9999975280763,10|0,0:0|0:0,0:0:0:0:
251,131,153344,6,0,P|340:125|393:200,1,161.999995056153,2|0,1:2|0:0,0:0:0:0:
299,206,153858,1,0,1:2:0:0:
166,33,154030,2,0,B|136:67|136:67|144:94|161:163,1,121.499996292114,2|0,1:2|0:0,0:0:0:0:
151,150,154373,1,8,0:0:0:0:
11,330,154544,6,0,P|66:312|164:282,1,121.499996292114,2|0,1:2|0:0,0:0:0:0:
134,298,154887,1,8,0:0:0:0:
251,131,155058,1,8,0:0:0:0:
14,221,155230,1,8,0:0:0:0:
276,343,155401,1,8,0:0:0:0:
101,122,155573,1,8,0:0:0:0:
364,42,155744,1,8,0:0:0:0:
134,298,155916,1,8,0:0:0:0:
134,298,156258,5,0,1:2:0:0:
281,184,156430,1,2,0:0:0:0:
268,180,156515,1,8,0:0:0:0:
255,176,156601,1,8,0:0:0:0:
276,343,156773,1,10,0:0:0:0:
318,356,156858,1,8,0:0:0:0:
361,345,156944,1,8,0:0:0:0:
392,314,157030,1,8,0:0:0:0:
403,271,157116,2,0,P|393:240|382:210,2,45,10|8|8,0:0|0:0|0:3,0:0:0:0:
178,384,157458,6,0,P|131:326|27:352,1,180,6|10,1:2|0:0,0:0:0:0:
225,214,157973,1,2,0:0:0:0:
33,124,158144,1,2,1:2:0:0:
33,124,158316,1,2,1:2:0:0:
88,285,158487,2,0,P|105:229|125:168,1,90,10|2,0:0|1:2,0:0:0:0:
247,0,158830,6,0,P|260:52|289:170,1,135,2|0,0:0|0:0,0:0:0:0:
276,139,159173,1,10,0:0:0:0:
238,278,159344,2,0,B|291:257|337:240|337:240|361:269|410:271,1,180,2|2,0:0|1:2,0:0:0:0:
276,139,159858,1,10,0:0:0:0:
276,139,160030,1,2,0:0:0:0:
503,16,160201,6,0,P|470:58|384:45,1,135,2|0,1:2|0:0,0:0:0:0:
383,60,160544,2,0,P|395:99|417:163,1,90,10|2,0:0|0:0,0:0:0:0:
251,225,160887,2,0,P|264:177|276:133,1,90,2|2,1:2|1:2,0:0:0:0:
317,318,161230,1,10,0:0:0:0:
143,191,161401,1,2,1:2:0:0:
391,225,161573,5,2,0:0:0:0:
187,357,161744,1,2,1:2:0:0:
251,225,161916,1,10,0:0:0:0:
339,350,162087,2,0,B|443:311|413:404|543:347,1,180,2|0,1:2|1:2,0:0:0:0:
415,138,162601,2,0,P|403:177|385:245,1,90,8|0,0:0|0:0,0:0:0:0:
187,357,162944,6,0,P|162:320|64:338,1,135,6|0,1:2|0:0,0:0:0:0:
64,315,163287,2,0,P|75:271|88:228,1,90,10|0,0:0|0:0,0:0:0:0:
209,210,163630,1,2,1:2:0:0:
35,125,163801,1,2,1:2:0:0:
187,357,163973,2,0,P|229:341|271:326,1,90,10|0,0:0|0:0,0:0:0:0:
257,83,164316,5,6,1:2:0:0:
88,228,164487,1,0,1:2:0:0:
385,163,164658,1,10,0:0:0:0:
140,26,164830,2,0,P|161:95|193:208,1,180,6|2,1:2|1:2,0:0:0:0:
271,326,165344,2,0,P|282:281|298:224,1,90,10|0,0:0|1:2,0:0:0:0:
494,65,165687,6,0,B|455:90|455:90|401:75|351:64,1,135,2|0,1:2|0:0,0:0:0:0:
357,77,166030,2,0,P|369:114|389:179,1,90,10|0,0:0|0:0,0:0:0:0:
271,326,166373,1,2,1:2:0:0:
446,314,166544,1,2,1:2:0:0:
263,205,166716,1,10,0:0:0:0:
134,337,166887,6,0,B|93:325|37:307|37:307|-6:335|12:388,1,180,2|0,1:2|1:2,0:0:0:0:
183,116,167401,1,10,0:0:0:0:
271,326,167573,1,0,1:2:0:0:
137,228,167744,2,0,P|177:216|252:196,1,90,0|0,1:2|0:0,0:0:0:0:
328,62,168087,2,0,P|287:50|213:30,1,90,10|0,0:0|0:0,0:0:0:0:
444,151,168430,6,0,B|408:201|408:201|422:242|452:332,1,180,6|10,1:2|0:1,0:0:0:0:
263,205,168944,1,10,0:1:0:0:
298,374,169116,1,2,1:2:0:0:
298,374,169287,2,0,P|314:321|332:271,1,90,2|8,1:2|0:1,0:0:0:0:
167,153,169630,6,0,P|98:209|13:190,1,180,6|2,1:2|1:2,0:0:0:0:
263,205,170144,1,10,0:1:0:0:
123,337,170316,2,0,B|222:293|201:383|318:325,1,180,10|2,0:1|1:2,0:0:0:0:
386,207,170830,2,0,P|339:194|260:175,1,90,10|2,0:1|0:0,0:0:0:0:
480,293,171173,5,6,1:2:0:0:
384,82,171344,1,2,0:0:0:0:
271,277,171516,1,10,0:1:0:0:
498,151,171687,1,10,0:1:0:0:
376,296,171858,1,2,1:2:0:0:
376,296,172030,2,0,P|361:246|344:193,1,90,2|10,1:2|0:1,0:0:0:0:
250,23,172373,6,0,P|224:109|201:198,1,180,6|2,1:2|1:2,0:0:0:0:
339,86,172887,1,10,0:1:0:0:
113,117,173058,2,0,P|61:99|5:83,1,90,10|0,0:1|0:0,0:0:0:0:
250,23,173401,1,0,1:2:0:0:
115,223,173573,2,0,P|168:205|225:189,1,90,10|0,0:1|0:0,0:0:0:0:
468,339,173916,6,0,P|420:288|339:311,1,135,6|0,1:2|0:0,0:0:0:0:
355,302,174258,1,10,0:0:0:0:
200,195,174430,1,8,0:0:0:0:
236,359,174601,2,0,P|249:315|263:273,1,90,2|0,1:2|1:2,0:0:0:0:
378,117,174944,2,0,P|392:159|405:202,1,90,10|0,0:0|0:0,0:0:0:0:
200,195,175287,6,0,B|131:178|131:178|106:143|106:143|67:132|32:121,1,180,6|10,1:2|0:0,0:0:0:0:
242,339,175801,2,0,P|290:288|371:311,1,135,8|0,0:0|0:0,0:0:0:0:
355,302,176143,1,0,1:2:0:0:
200,195,176316,1,10,0:0:0:0:
377,62,176487,6,0,P|389:111|412:200,1,135,6|0,1:2|0:0,0:0:0:0:
405,202,176830,1,0,1:2:0:0:
286,2,177001,2,0,P|273:41|257:100,1,90,8|8,0:0|0:0,0:0:0:0:
96,133,177344,1,2,1:2:0:0:
278,248,177516,1,2,1:2:0:0:
164,56,177687,1,10,0:0:0:0:
25,239,177858,6,0,P|117:215|233:186,1,180,2|2,1:2|1:2,0:0:0:0:
329,361,178373,2,0,P|284:349|226:335,1,90,8|0,0:0|1:2,0:0:0:0:
199,194,178716,1,10,0:3:0:0:
73,368,178887,1,10,0:0:0:0:
73,368,178973,1,8,0:0:0:0:
73,368,179058,1,8,0:0:0:0:
292,249,179230,6,0,B|309:190|322:150|322:150|272:124|265:55,1,180,6|2,1:2|1:2,0:0:0:0:
150,4,179744,2,0,P|137:39|111:113,1,90,8|0,0:0|0:0,0:0:0:0:
164,249,180087,1,10,0:0:0:0:
0,69,180258,1,0,1:2:0:0:
261,129,180430,1,10,0:0:0:0:
18,283,180601,1,2,1:2:0:0:
376,279,180773,6,0,P|327:261|273:243,1,90,10|0,0:0|0:0,0:0:0:0:
133,44,181116,2,0,P|182:26|236:8,1,90,8|0,0:0|1:2,0:0:0:0:
164,249,181458,1,8,0:3:0:0:
400,32,181630,1,8,0:3:0:0:
405,40,181716,1,8,0:3:0:0:
411,47,181801,2,0,P|403:77|382:160,1,90,8|0,0:0|1:2,0:0:0:0:
301,313,182144,5,10,0:0:0:0:
284,270,182229,1,8,0:0:0:0:
250,243,182315,1,8,0:3:0:0:
206,235,182401,1,8,0:3:0:0:
164,249,182486,1,10,0:0:0:0:
122,263,182572,1,8,0:0:0:0:
78,255,182658,1,8,0:3:0:0:
44,227,182744,1,8,0:3:0:0:
27,185,182829,1,10,0:0:0:0:
40,142,182915,1,8,0:0:0:0:
73,112,183001,1,8,0:3:0:0:
117,103,183087,1,8,0:3:0:0:
159,116,183173,2,0,P|150:143|139:179,1,45,10|0,0:0|0:0,0:0:0:0:
420,272,183344,6,0,P|401:171|388:100,1,135,6|0,1:2|0:0,0:0:0:0:
388,133,183687,1,8,0:0:0:0:
251,267,183858,1,8,0:0:0:0:
512,185,184030,1,8,0:0:0:0:
292,40,184201,1,8,0:0:0:0:
420,272,184373,1,8,0:3:0:0:
512,0,184544,1,8,0:3:0:0:
335,268,184716,6,0,P|377:351|490:322,1,215.999993408203,4|0,1:2|0:0,0:0:0:0:
420,272,185573,1,2,0:0:0:0:
44,227,197230,6,0,P|93:187|162:202,1,125.999996154785,2|2,0:0|0:0,0:0:0:0:
295,125,197916,2,0,P|280:174|260:259,1,125.999996154785,2|2,0:0|0:0,0:0:0:0:
184,316,198430,2,0,P|168:254|151:194,1,125.999996154785,2|2,0:0|0:0,0:0:0:0:
31,75,198944,5,2,0:0:0:0:
31,75,199116,2,0,B|179:22|137:137|281:84,1,251.999992309571,2|0,0:0|0:0,0:0:0:0:
394,18,199973,5,2,0:0:0:0:
394,18,200316,2,0,P|385:43|367:102,1,62.9999980773926,2|0,0:0|0:0,0:0:0:0:
304,208,200658,2,0,P|286:141|269:79,1,125.999996154785,2|2,0:0|0:0,0:0:0:0:
356,283,201173,6,0,P|310:248|234:273,1,125.999996154785,2|2,0:0|0:0,0:0:0:0:
174,202,201687,1,2,0:0:0:0:
174,202,201858,2,0,P|128:237|52:212,1,125.999996154785,2|0,0:0|0:0,0:0:0:0:
0,310,202373,2,0,P|8:337|21:383,1,62.9999980773926,2|2,0:0|0:0,0:0:0:0:
139,372,202716,6,0,P|194:352|275:326,1,125.999996154785,2|0,0:0|0:0,0:0:0:0:
368,249,203230,1,2,0:0:0:0:
368,249,203401,2,0,P|308:229|248:208,1,125.999996154785,2|0,0:0|0:0,0:0:0:0:
119,201,203916,1,2,0:0:0:0:
119,201,204258,6,0,P|129:230|143:275,1,62.9999980773926,2|2,0:0|0:0,0:0:0:0:
248,208,204601,2,0,P|270:164|235:84,1,125.999996154785,2|0,0:0|0:0,0:0:0:0:
134,30,205116,2,0,P|164:20|193:10,1,62.9999980773926,2|0,0:0|0:0,0:0:0:0:
488,106,205458,6,0,B|340:159|382:44|238:97,1,251.999992309571,2|0,0:0|0:0,0:0:0:0:
119,201,206487,1,2,0:0:0:0:
144,289,206830,6,0,P|206:227|34:235,1,431.999986816407,2|0,0:0|0:0,0:0:0:0:
256,192,208287,12,0,209916,0:0:0:0:
119,201,210258,5,2,0:0:0:0:
288,110,210430,1,0,1:2:0:0:
288,110,210516,1,0,1:2:0:0:
288,110,210601,2,0,P|225:95|142:77,1,135,10|0,0:0|0:0,0:0:0:0:
258,195,210944,6,0,P|285:151|385:153,1,148.50000453186,6|0,1:2|0:0,0:0:0:0:
384,158,211287,2,0,P|398:103|413:50,1,99.0000030212403,10|2,0:0|0:0,0:0:0:0:
406,53,211544,1,8,0:0:0:0:
402,47,211630,1,2,1:2:0:0:
458,229,211801,1,0,1:2:0:0:
288,110,211973,1,8,0:0:0:0:
290,291,212144,6,0,P|227:275|134:254,1,148.50000453186,6|0,1:2|0:0,0:0:0:0:
135,262,212487,1,2,1:2:0:0:
384,158,212658,1,8,0:0:0:0:
251,375,212830,2,0,P|301:323|388:348,1,148.50000453186,6|0,1:2|0:0,0:0:0:0:
386,334,213173,2,0,P|379:352|368:394,1,49.5000015106202,2|0,1:2|0:0,0:0:0:0:
488,186,213344,2,0,P|472:131|455:71,1,99.0000030212403,8|0,0:0|0:0,0:0:0:0:
326,0,213687,6,0,P|311:57|281:176,1,148.50000453186,6|0,1:2|0:0,0:0:0:0:
293,154,214030,1,10,0:0:0:0:
151,294,214201,1,2,0:0:0:0:
151,294,214287,1,8,0:0:0:0:
151,294,214373,1,2,1:2:0:0:
389,229,214544,1,0,1:2:0:0:
187,103,214716,1,8,0:0:0:0:
347,317,214887,6,0,P|417:322|480:211,1,198.000006042481,6|2,1:2|1:2,0:0:0:0:
293,154,215401,1,8,0:0:0:0:
207,365,215573,2,0,P|185:293|157:207,1,148.50000453186,6|0,1:2|0:0,0:0:0:0:
152,216,215916,2,0,P|127:224|82:242,1,49.5000015106202,2|0,1:2|0:0,0:0:0:0:
92,77,216087,1,8,0:0:0:0:
115,83,216172,1,8,0:0:0:0:
139,89,216258,1,8,0:0:0:0:
163,96,216344,1,8,0:0:0:0:
187,103,216430,6,0,P|228:89|308:63,1,99.0000030212403,6|0,1:2|0:0,0:0:0:0:
482,260,216773,2,0,P|441:246|361:220,1,99.0000030212403,10|0,0:0|0:0,0:0:0:0:
438,26,217116,2,0,P|425:61|400:142,1,99.0000030212403,2|0,1:2|0:0,0:0:0:0:
282,311,217458,2,0,P|266:263|250:217,1,99.0000030212403,10|0,0:0|0:0,0:0:0:0:
276,74,217801,5,6,1:2:0:0:
119,272,217973,1,0,1:2:0:0:
394,139,218144,1,10,0:0:0:0:
137,40,218316,2,0,B|83:59|33:77|33:77|-15:54|2:-4,1,198.000006042481,6|0,1:2|1:2,0:0:0:0:
250,217,218830,1,8,0:0:0:0:
403,30,219001,6,0,B|442:82|442:82|428:124|399:224,1,198.000006042481,6|10,1:2|0:3,0:0:0:0:
405,217,219430,1,8,0:0:0:0:
408,225,219516,1,10,0:0:0:0:
290,26,219687,2,0,P|283:47|269:93,1,49.5000015106202,10|8,0:0|0:0,0:0:0:0:
90,166,219858,1,10,0:0:0:0:
259,246,220030,1,10,0:0:0:0:
254,231,220115,1,8,0:0:0:0:
250,217,220201,1,10,0:0:0:0:
8,369,220373,6,0,P|67:314|139:328,1,148.50000453186,6|0,1:2|0:0,0:0:0:0:
136,328,220716,1,8,0:0:0:0:
123,72,220887,2,0,P|108:110|80:193,1,99.0000030212403,10|0,0:0|0:0,0:0:0:0:
234,107,221230,1,10,0:0:0:0:
42,0,221401,1,0,1:2:0:0:
206,223,221573,2,0,P|247:211|321:191,1,99.0000030212403,10|8,0:0|0:0,0:0:0:0:
512,60,221916,6,0,P|448:46|346:23,1,148.50000453186,6|0,1:2|0:0,0:0:0:0:
359,37,222258,2,0,P|374:78|401:156,1,99.0000030212403,10|2,0:0|0:0,0:0:0:0:
389,138,222516,1,8,0:0:0:0:
386,147,222601,1,2,1:2:0:0:
512,297,222773,1,0,1:2:0:0:
301,196,222944,1,8,0:0:0:0:
254,371,223116,6,0,B|194:354|138:339|138:339|109:381|58:389,1,198.000006042481,6|2,1:2|1:2,0:0:0:0:
301,196,223630,1,8,0:0:0:0:
56,294,223801,2,0,P|30:227|67:166,1,148.50000453186,6|0,1:2|0:0,0:0:0:0:
79,160,224144,2,0,P|101:167|145:183,1,49.5000015106202,2|0,1:2|0:0,0:0:0:0:
304,50,224316,2,0,P|256:64|209:79,1,99.0000030212403,8|0,0:0|0:0,0:0:0:0:
481,323,224658,6,0,B|512:281|512:281|493:231|474:179,1,148.50000453186,6|0,1:2|0:0,0:0:0:0:
480,176,225001,2,0,P|432:161|381:146,1,99.0000030212403,10|2,0:0|0:0,0:0:0:0:
380,151,225258,1,8,0:0:0:0:
375,156,225344,1,2,1:2:0:0:
182,251,225516,1,0,1:2:0:0:
299,53,225687,1,8,0:0:0:0:
233,331,225858,6,0,P|142:341|93:232,1,198.000006042481,6|2,1:2|1:2,0:0:0:0:
360,281,226373,1,8,0:0:0:0:
150,97,226544,2,0,P|163:150|188:247,1,148.50000453186,6|0,1:2|0:0,0:0:0:0:
182,251,226887,1,2,1:2:0:0:
374,373,227058,1,10,0:0:0:0:
417,351,227143,1,8,0:0:0:0:
444,310,227229,1,10,1:2:0:0:
446,261,227316,1,8,0:0:0:0:
423,218,227401,6,0,B|315:191|350:283|207:234,1,198.000006042481,6|10,1:2|0:0,0:0:0:0:
134,116,227916,1,2,0:0:0:0:
134,116,228001,1,8,0:0:0:0:
134,116,228087,1,2,1:2:0:0:
26,282,228258,1,0,1:2:0:0:
253,128,228430,1,8,0:0:0:0:
96,341,228601,6,0,P|70:259|35:153,1,198.000006042481,6|2,1:2|1:2,0:0:0:0:
304,232,229116,1,8,0:0:0:0:
179,1,229287,2,0,P|166:50|140:150,1,148.50000453186,6|0,1:2|0:0,0:0:0:0:
145,153,229630,1,2,1:2:0:0:
432,92,229801,2,0,P|380:77|322:61,1,99.0000030212403,8|0,0:0|1:2,0:0:0:0:
330,69,230058,1,0,1:2:0:0:
324,74,230144,5,14,0:0:0:0:
187,314,230316,1,2,1:2:0:0:
415,188,230487,1,2,1:2:0:0:
115,133,230658,2,0,P|56:147|-10:164,1,99.0000030212403,14|0,0:0|0:0,0:0:0:0:
241,191,231001,1,2,1:2:0:0:
91,0,231173,1,10,0:0:0:0:
162,260,231344,6,0,P|212:293|302:271,1,148.50000453186,6|0,1:2|0:0,0:0:0:0:
305,278,231687,1,2,1:2:0:0:
242,0,231858,2,0,P|229:37|204:113,1,99.0000030212403,2|0,1:2|0:0,0:0:0:0:
415,188,232201,2,0,P|399:141|383:94,1,99.0000030212403,10|2,0:0|0:0,0:0:0:0:
376,89,232458,1,8,0:0:0:0:
368,85,232544,2,0,P|333:96|297:107,1,49.5000015106202,10|8,0:0|0:0,0:0:0:0:
193,176,232716,2,0,P|228:187|264:198,1,49.5000015106202,8|8,0:0|0:0,0:0:0:0:
496,374,232887,6,0,P|445:324|359:350,1,148.50000453186,6|0,1:2|0:0,0:0:0:0:
365,344,233230,1,8,0:0:0:0:
193,176,233401,1,0,1:2:0:0:
467,221,233573,1,8,0:0:0:0:
218,365,233744,1,0,1:2:0:0:
448,107,233916,1,10,0:0:0:0:
365,344,234087,1,0,0:0:0:0:
365,344,234173,1,0,1:2:0:0:
365,344,234258,6,0,P|346:284|330:233,1,99.0000030212403,14|0,0:0|1:2,0:0:0:0:
201,48,234601,2,0,P|185:95|171:142,1,99.0000030212403,8|0,0:0|1:2,0:0:0:0:
294,192,234944,1,10,0:0:0:0:
82,33,235116,1,0,1:2:0:0:
82,33,235201,1,0,1:2:0:0:
82,33,235287,1,8,0:0:0:0:
235,275,235458,6,0,P|302:290|394:185,1,198.000006042481,6|2,1:2|1:2,0:0:0:0:
82,197,235973,1,10,0:0:0:0:
332,40,236144,2,0,P|314:98|282:206,1,148.50000453186,6|0,1:2|0:0,0:0:0:0:
294,192,236487,1,2,1:2:0:0:
181,18,236658,1,10,0:0:0:0:
205,268,236830,6,0,P|187:208|171:152,1,99.0000030212403,6|0,1:2|0:0,0:0:0:0:
399,324,237173,1,10,0:0:0:0:
302,182,237344,2,0,P|340:170|418:146,1,99.0000030212403,10|0,0:0|1:2,0:0:0:0:
259,349,237687,1,2,1:2:0:0:
213,366,237772,1,8,0:3:0:0:
165,358,237858,1,0,1:2:0:0:
127,326,237944,1,0,1:2:0:0:
112,280,238030,2,0,P|129:220|146:164,1,99.0000030212403,14|0,0:0|1:2,0:0:0:0:
72,79,238373,5,14,0:0:0:0:
247,256,238544,1,0,0:0:0:0:
204,0,238716,1,8,0:0:0:0:
15,221,238887,1,0,1:2:0:0:
332,40,239058,2,0,P|291:30|206:12,1,99.0000030212403,8|0,0:0|1:2,0:0:0:0:
427,173,239401,1,10,0:0:0:0:
277,350,239573,1,0,1:2:0:0:
277,350,239658,1,0,1:2:0:0:
277,350,239744,6,0,P|259:295|240:237,1,99.0000030212403,14|0,0:0|0:0,0:0:0:0:
457,78,240087,2,0,P|441:124|426:172,1,99.0000030212403,8|0,0:0|1:2,0:0:0:0:
173,97,240430,1,10,0:0:0:0:
376,269,240601,1,0,1:2:0:0:
260,0,240773,1,8,0:0:0:0:
27,241,240944,6,0,P|94:219|185:191,1,148.50000453186,6|0,1:2|0:0,0:0:0:0:
176,200,241287,1,8,0:0:0:0:
59,47,241458,1,8,0:0:0:0:
321,165,241630,1,8,0:0:0:0:
89,325,241801,1,8,0:0:0:0:
265,24,241973,1,8,0:0:0:0:
412,280,242144,1,8,0:0:0:0:
173,97,242316,1,8,0:0:0:0:
173,97,242658,5,8,0:3:0:0:
116,170,242830,1,8,0:3:0:0:
150,255,243001,1,8,0:3:0:0:
240,268,243173,2,0,P|247:237|260:191,1,72,8|4,0:3|1:2,0:0:0:0:
