osu file format v14

[General]
AudioFilename: audio.mp3
AudioLeadIn: 0
PreviewTime: 185530
Countdown: 0
SampleSet: Soft
StackLeniency: 0.4
Mode: 0
LetterboxInBreaks: 0
WidescreenStoryboard: 1

[Editor]
DistanceSpacing: 1.1
BeatDivisor: 2
GridSize: 16
TimelineZoom: 2.899999

[Metadata]
Title:STEP by STEP UP
TitleUnicode:STEP by STEP UP↑↑↑↑
Artist:fourfolium
ArtistUnicode:fourfolium
Creator:sanairrt
Version:Sightread's Easy
Source:NEW GAME!!
Tags:フォーフォリウム ニューゲーム season 2 opening op Sightread FreezingAnimenz akitoshi corinn -laura- ItsCactus [Yoshino] anime pop jpop japanese takeda yuuki 高田憂希 suzukaze aoba 涼風青葉 yamaguchi megumi 山口愛 takimoto hifumi 滝本ひふみ toda megumi 戸田めぐみ shinoda hajime 篠田はじめ ayumi takeo 竹尾歩美 iijima yun 飯島ゆん
BeatmapID:4245518
BeatmapSetID:2035811

[Difficulty]
HPDrainRate:1
CircleSize:3
OverallDifficulty:1
ApproachRate:3
SliderMultiplier:0.75
SliderTickRate:1

[Events]
//Background and Video events
0,0,"bgbgfbdf.jpg",0,0
//Break Periods
2,186458,208818
//Storyboard Layer 0 (Background)
//Storyboard Layer 1 (Fail)
//Storyboard Layer 2 (Pass)
//Storyboard Layer 3 (Foreground)
//Storyboard Layer 4 (Overlay)
//Storyboard Sound Samples

[TimingPoints]
1116,342.857142857143,4,2,1,40,1,0
1116,-100,4,2,1,50,0,0
14487,-100,4,2,2,75,0,0
14830,-100,4,2,1,80,0,0
24944,-100,4,2,1,50,0,0
25801,-100,4,2,1,60,0,0
35401,-100,4,2,1,70,0,0
36773,-100,4,2,1,70,0,0
47401,-100,4,2,1,60,0,0
47744,-100,4,2,1,75,0,0
53058,-100,4,2,1,80,0,0
58030,-100,4,2,1,70,0,0
58716,-100,4,2,1,85,0,0
80658,-100,4,2,1,75,0,0
83573,-100,4,2,1,85,0,0
84944,-100,4,2,1,80,0,0
96258,-100,4,2,1,50,0,0
96601,-100,4,2,1,50,0,0
97116,-100,4,2,1,60,0,0
108087,-100,4,2,1,70,0,0
118716,-100,4,2,1,60,0,0
119058,-100,4,2,1,75,0,0
124373,-100,4,2,1,80,0,0
129001,-100,4,2,1,50,0,0
129516,-100,4,2,1,70,0,0
130030,-100,4,2,1,85,0,0
151973,-100,4,2,1,75,0,0
154716,-100,4,2,1,80,0,0
156087,-100,4,2,1,75,0,0
157458,-100,4,2,1,85,0,0
168430,-100,4,2,1,75,0,0
173916,-100,4,2,1,85,0,0
185401,-100,4,2,1,5,0,0
185573,-100,4,2,1,40,0,0
186258,-100,4,2,1,60,0,0
197230,-100,4,2,1,45,0,0
210258,-100,4,2,1,70,0,0
210944,-100,4,2,1,85,0,0
242487,-100,4,2,1,60,0,0

[Colours]
Combo1 : 213,0,0
Combo2 : 0,128,255
Combo3 : 128,64,64
Combo4 : 128,128,192

[HitObjects]
256,192,1116,6,0,P|336:192|373:136,1,150,6|2,0:0|0:0,0:0:0:0:
392,17,2316,1,2,0:0:0:0:
238,30,3001,2,0,L|106:44,1,112.5,2|0,0:0|0:0,0:0:0:0:
44,55,3858,2,0,L|52:134,1,75,2|2,0:0|0:0,0:0:0:0:
65,212,4544,1,2,0:0:0:0:
141,309,5058,2,0,P|179:333|211:340,1,75,2|0,0:0|0:0,0:0:0:0:
290,351,5744,2,0,P|329:289|340:236,1,112.5,2|2,0:0|0:0,0:0:0:0:
348,169,6601,6,0,B|283:143|283:143|206:165,1,150,2|2,0:0|0:0,0:0:0:0:
90,209,7801,2,0,L|108:301,2,75,2|2|2,0:0|0:0|0:0,0:0:0:0:
68,87,9001,1,2,0:0:0:0:
131,34,9344,2,0,P|229:46|300:40,1,150,2|0,0:0|0:0,0:0:0:0:
361,26,10373,1,2,0:0:0:0:
427,74,10716,2,0,P|424:148|435:222,1,150,2|2,0:0|0:0,0:0:0:0:
479,339,11916,5,2,0:0:0:0:
4,205,14487,5,8,0:1:0:0:
70,157,14830,2,0,L|161:137,1,75,6|10,1:2|0:0,0:0:0:0:
222,118,15516,1,2,1:2:0:0:
333,172,16030,2,0,P|374:185|407:193,1,75,2|2,1:2|1:2,0:0:0:0:
487,193,16716,2,0,B|513:147|513:147|496:89,1,112.5,2|8,1:2|0:0,0:0:0:0:
467,12,17573,2,0,P|402:24|349:29,1,112.5,6|2,1:2|0:0,0:0:0:0:
273,32,18430,1,2,1:2:0:0:
190,35,18773,2,0,L|147:109,1,75,2|2,1:2|1:2,0:0:0:0:
123,177,19458,2,0,P|177:232|211:233,1,112.5,2|8,1:2|0:0,0:0:0:0:
289,218,20316,6,0,L|320:293,2,75,6|10|2,1:2|0:0|1:2,0:0:0:0:
279,135,21344,1,10,0:0:0:0:
347,89,21687,2,0,B|406:82|406:82|447:120,2,112.5,6|4|10,1:2|1:2|0:0,0:0:0:0:
269,59,23058,2,0,B|210:66|210:66|169:28,2,112.5,12|14|10,0:0|0:0|0:0,0:0:0:0:
347,32,24430,1,10,0:0:0:0:
409,86,24773,1,10,0:0:0:0:
457,328,25801,6,0,P|412:352|306:352,1,150,6|2,1:2|1:2,0:0:0:0:
195,320,27001,2,0,L|130:245,1,75,2|2,0:0|0:0,0:0:0:0:
93,198,27687,2,0,L|191:112,1,112.5,2|2,0:0|1:2,0:0:0:0:
239,69,28544,2,0,P|262:47|377:42,1,150,0|2,1:2|1:2,0:0:0:0:
496,102,29744,2,0,L|503:178,1,75,2|2,0:0|0:0,0:0:0:0:
510,259,30430,2,0,L|434:266,1,75,0|10,0:0|0:0,0:0:0:0:
353,275,31116,1,10,0:0:0:0:
230,292,31630,6,0,P|236:333|236:374,2,75,2|2|2,1:2|1:2|1:2,0:0:0:0:
156,254,32658,2,0,P|147:183|159:141,2,112.5,2|2|2,1:2|0:0|1:2,0:0:0:0:
180,333,34030,2,0,P|254:345|345:307,1,150,2|0,1:2|1:2,0:0:0:0:
398,285,35058,1,0,1:2:0:0:
479,276,35401,2,0,L|506:352,2,75,6|2|2,1:2|0:0|0:0,0:0:0:0:
491,194,36430,1,14,0:0:0:0:
500,111,36773,5,6,0:0:0:0:
483,30,37116,2,0,P|386:30|365:31,1,112.5,10|2,0:0|1:2,0:0:0:0:
288,34,37973,1,2,0:0:0:0:
209,44,38316,1,2,1:2:0:0:
162,111,38658,2,0,L|182:206,1,75,2|2,0:0|1:2,0:0:0:0:
197,263,39344,2,0,L|73:289,1,112.5,2|10,0:0|0:0,0:0:0:0:
6,306,40201,1,2,1:2:0:0:
0,182,40716,2,0,P|1:139|5:87,1,75,2|2,1:2|1:2,0:0:0:0:
14,25,41401,2,0,P|119:40|140:38,1,112.5,0|8,1:2|0:0,0:0:0:0:
205,21,42258,6,0,L|246:99,1,75,6|10,1:2|0:0,0:0:0:0:
283,157,42944,1,2,1:2:0:0:
358,255,43458,2,0,P|408:259|436:245,1,75,2|2,1:2|1:2,0:0:0:0:
500,206,44144,1,2,1:2:0:0:
501,123,44487,1,2,1:2:0:0:
462,49,44830,2,0,P|396:57|331:61,1,112.5,2|8,1:2|0:0,0:0:0:0:
267,55,45687,2,0,B|204:59|204:59|170:101,1,112.5,2|2,1:2|1:2,0:0:0:0:
172,179,46544,2,0,B|203:217|203:217|266:221,1,112.5,10|10,0:0|0:0,0:0:0:0:
348,220,47401,1,0,1:2:0:0:
430,216,47744,6,0,P|451:266|457:311,2,75,6|10|2,0:0|0:1|1:2,0:0:0:0:
343,127,48944,2,0,L|254:124,1,75,2|2,1:2|1:2,0:0:0:0:
186,141,49630,2,0,B|176:196|176:196|125:222,1,112.5,2|10,1:2|0:1,0:0:0:0:
46,245,50487,2,0,L|6:157,2,75,2|10|2,1:2|0:1|1:2,0:0:0:0:
87,361,51687,2,0,L|183:361,1,75,2|2,1:2|1:2,0:0:0:0:
244,360,52373,2,0,L|244:264,1,75,2|10,0:0|0:1,0:0:0:0:
247,202,53058,6,0,P|272:167|342:150,1,112.5,6|10,1:2|0:0,0:0:0:0:
419,156,53916,1,10,0:0:0:0:
502,247,54430,2,0,B|507:308|507:308|467:342,1,112.5,2|10,1:2|0:0,0:0:0:0:
387,359,55287,1,10,0:3:0:0:
263,360,55801,2,0,P|191:368|136:364,1,112.5,6|10,0:0|0:0,0:0:0:0:
69,353,56658,1,10,0:0:0:0:
12,242,57173,2,0,L|10:126,1,112.5,2|10,1:2|0:0,0:0:0:0:
10,46,58030,1,2,0:0:0:0:
88,20,58373,1,10,0:0:0:0:
170,25,58716,6,0,P|236:44|258:42,1,75,6|10,1:2|0:0,0:0:0:0:
323,39,59401,1,2,1:2:0:0:
446,24,59916,2,0,L|470:108,1,75,6|2,1:2|1:2,0:0:0:0:
493,174,60601,2,0,L|370:208,1,112.5,6|8,1:2|0:0,0:0:0:0:
304,223,61458,1,6,1:2:0:0:
227,192,61801,1,10,0:0:0:0:
227,109,62144,1,2,1:2:0:0:
149,12,62658,2,0,P|111:14|75:23,1,75,6|2,1:2|1:2,0:0:0:0:
8,72,63344,2,0,L|18:209,1,112.5,6|8,1:2|0:0,0:0:0:0:
25,266,64201,5,6,1:2:0:0:
38,347,64544,2,0,P|107:354|121:351,1,75,10|2,0:0|1:2,0:0:0:0:
192,334,65230,1,10,0:0:0:0:
258,284,65573,2,0,L|243:169,1,112.5,6|6,1:2|1:2,0:0:0:0:
294,15,66773,2,0,P|335:12|411:16,1,112.5,6|10,1:2|0:0,0:0:0:0:
486,32,67630,1,10,0:0:0:0:
507,153,68144,2,0,L|494:285,1,112.5,6|10,1:2|0:0,0:0:0:0:
487,347,69001,1,10,0:0:0:0:
405,362,69344,1,10,0:0:0:0:
322,363,69687,6,0,L|217:352,1,75,6|10,1:2|0:0,0:0:0:0:
165,347,70373,1,2,1:2:0:0:
44,321,70887,2,0,P|28:279|33:233,1,75,6|2,1:2|1:2,0:0:0:0:
40,167,71573,2,0,L|159:153,1,112.5,6|8,1:2|0:0,0:0:0:0:
233,144,72430,1,6,1:2:0:0:
292,201,72773,1,10,0:0:0:0:
373,191,73116,1,2,1:2:0:0:
496,182,73630,2,0,L|490:89,1,75,6|2,1:2|1:2,0:0:0:0:
486,24,74316,2,0,L|371:30,1,112.5,6|10,1:2|0:0,0:0:0:0:
297,61,75173,6,0,L|138:48,1,150,6|2,1:2|1:2,0:0:0:0:
35,102,76373,2,0,P|30:139|29:180,1,75,6|2,1:2|1:2,0:0:0:0:
22,258,77058,2,0,P|81:265|146:267,1,112.5,6|8,1:2|0:0,0:0:0:0:
199,216,77916,2,0,P|258:208|323:206,1,112.5,14|14,0:0|0:0,0:0:0:0:
393,212,78773,1,2,1:2:0:0:
473,231,79116,2,0,P|505:289|493:331,1,112.5,6|2,1:2|1:2,0:0:0:0:
418,366,79973,1,10,0:3:0:0:
337,349,80316,1,14,0:0:0:0:
254,352,80658,6,0,P|170:354|95:355,1,150,2|0,1:2|1:2,0:0:0:0:
21,354,81687,1,10,0:0:0:0:
12,273,82030,2,0,P|9:189|9:114,1,150,2|2,1:2|1:2,0:0:0:0:
98,37,83230,2,0,P|142:20|210:21,1,112.5,2|8,1:2|0:0,0:0:0:0:
279,58,84087,2,0,P|296:102|295:170,1,112.5,8|8,0:0|0:0,0:0:0:0:
259,284,85116,2,0,L|189:310,2,75,10|10|10,0:0|0:0|0:0,0:0:0:0:
334,317,86144,6,0,L|428:316,1,75,6|10,1:2|0:0,0:0:0:0:
491,317,86830,1,2,1:2:0:0:
497,193,87344,2,0,P|505:151|501:108,1,75,2|2,1:2|1:2,0:0:0:0:
495,36,88030,2,0,L|381:22,1,112.5,2|8,1:2|0:0,0:0:0:0:
301,14,88887,2,0,L|287:128,1,112.5,6|2,1:2|0:0,0:0:0:0:
271,206,89744,1,2,1:2:0:0:
212,264,90087,2,0,P|169:271|138:268,1,75,2|2,1:2|1:2,0:0:0:0:
58,254,90773,2,0,P|49:173|54:119,1,112.5,2|8,1:2|0:0,0:0:0:0:
63,60,91630,6,0,L|1:11,2,75,6|10|2,1:2|0:0|1:2,0:0:0:0:
134,100,92658,1,10,0:0:0:0:
208,135,93001,2,0,L|330:122,2,112.5,6|4|10,1:2|1:2|0:0,0:0:0:0:
139,181,94373,2,0,L|27:192,2,112.5,12|14|10,0:0|0:0|0:0,0:0:0:0:
208,225,95744,1,10,0:0:0:0:
266,283,96087,1,10,0:0:0:0:
508,282,97116,6,0,P|517:195|501:113,1,150,6|2,1:2|1:2,0:0:0:0:
476,13,98316,2,0,P|394:19|318:19,1,150,2|2,0:0|0:0,0:0:0:0:
202,25,99516,1,2,1:2:0:0:
119,28,99858,2,0,B|51:54|51:54|22:132,1,150,0|2,1:2|1:2,0:0:0:0:
34,248,101058,2,0,P|70:274|103:292,1,75,2|2,0:0|0:0,0:0:0:0:
160,342,101744,2,0,P|203:334|239:324,1,75,10|10,0:0|0:0,0:0:0:0:
314,313,102430,1,2,1:2:0:0:
435,292,102944,6,0,L|482:355,2,75,2|2|2,1:2|1:2|1:2,0:0:0:0:
459,213,103973,2,0,P|468:138|465:102,1,112.5,2|2,1:2|0:0,0:0:0:0:
457,19,104830,1,10,0:0:0:0:
333,13,105344,2,0,B|288:24|257:21|257:21|239:56|212:88,1,150,2|0,1:2|1:2,0:0:0:0:
189,160,106373,1,0,1:2:0:0:
176,241,106716,2,0,L|97:250,2,75,6|2|2,1:2|0:0|0:0,0:0:0:0:
258,231,107744,1,14,0:0:0:0:
420,202,108430,6,0,P|462:257|457:298,1,112.5,10|2,0:0|1:2,0:0:0:0:
407,362,109287,1,2,0:0:0:0:
324,369,109630,1,2,1:2:0:0:
243,350,109973,2,0,L|152:358,1,75,2|2,0:0|1:2,0:0:0:0:
85,351,110658,2,0,B|30:337|30:337|16:284,1,112.5,2|10,0:0|0:0,0:0:0:0:
5,201,111516,1,2,1:2:0:0:
12,77,112030,2,0,P|58:69|113:59,1,75,2|2,1:2|1:2,0:0:0:0:
166,45,112716,2,0,P|175:104|189:175,1,112.5,0|8,1:2|0:0,0:0:0:0:
194,237,113573,6,0,P|157:243|120:249,2,75,6|10|2,1:2|0:0|1:2,0:0:0:0:
297,304,114773,2,0,P|364:306|387:301,1,75,2|2,1:2|1:2,0:0:0:0:
453,301,115458,1,2,1:2:0:0:
502,235,115801,1,2,1:2:0:0:
509,152,116144,2,0,B|508:94|508:94|468:55,1,112.5,2|8,1:2|0:0,0:0:0:0:
394,20,117001,2,0,P|328:27|254:27,1,112.5,2|2,1:2|1:2,0:0:0:0:
199,35,117858,2,0,B|142:36|142:36|100:83,1,112.5,10|10,0:0|0:0,0:0:0:0:
71,153,118716,1,0,1:2:0:0:
134,206,119058,6,0,L|195:248,1,75,6|10,0:0|0:1,0:0:0:0:
265,293,119744,1,2,1:2:0:0:
374,236,120258,2,0,P|386:186|391:150,1,75,2|2,1:2|1:2,0:0:0:0:
400,80,120944,2,0,P|334:62|285:57,1,112.5,2|10,1:2|0:1,0:0:0:0:
207,60,121801,2,0,P|194:109|190:146,1,75,2|10,1:2|0:1,0:0:0:0:
187,215,122487,1,2,1:2:0:0:
194,339,123001,2,0,L|109:352,1,75,2|2,1:2|1:2,0:0:0:0:
37,359,123687,2,0,L|24:274,1,75,2|10,0:0|0:1,0:0:0:0:
0,206,124373,6,0,P|15:145|23:92,1,112.5,6|10,1:2|0:0,0:0:0:0:
41,15,125230,1,10,0:0:0:0:
162,39,125744,2,0,P|222:54|276:62,1,112.5,2|10,1:2|0:0,0:0:0:0:
353,80,126601,1,10,0:3:0:0:
468,123,127116,6,0,L|486:235,1,112.5,6|10,0:0|0:0,0:0:0:0:
500,315,127973,1,10,0:0:0:0:
382,352,128487,2,0,B|325:357|325:357|295:311,1,112.5,2|2,1:2|0:0,0:0:0:0:
260,235,129344,1,2,0:0:0:0:
287,157,129687,1,10,0:0:0:0:
280,75,130030,6,0,P|229:44|206:41,1,75,6|10,1:2|0:0,0:0:0:0:
132,37,130716,1,2,1:2:0:0:
23,97,131230,2,0,L|36:177,1,75,6|2,1:2|1:2,0:0:0:0:
51,252,131916,2,0,L|176:231,1,112.5,6|8,1:2|0:0,0:0:0:0:
241,213,132773,1,6,1:2:0:0:
280,140,133116,1,10,0:0:0:0:
362,146,133458,1,2,1:2:0:0:
472,201,133973,2,0,P|477:245|478:285,1,75,6|2,1:2|1:2,0:0:0:0:
476,358,134658,2,0,L|360:368,1,112.5,6|8,1:2|0:0,0:0:0:0:
281,364,135516,5,6,1:2:0:0:
213,316,135858,2,0,P|189:256|187:236,1,75,10|2,0:0|1:2,0:0:0:0:
182,163,136544,1,10,0:0:0:0:
157,84,136887,2,0,B|108:62|108:62|55:95,1,112.5,6|6,1:2|1:2,0:0:0:0:
4,249,138087,2,0,B|9:302|9:302|64:331,1,112.5,6|10,1:2|0:0,0:0:0:0:
137,361,138944,1,10,0:0:0:0:
260,356,139458,2,0,P|331:362|384:360,1,112.5,6|10,1:2|0:0,0:0:0:0:
454,349,140316,1,10,0:0:0:0:
496,278,140658,1,10,0:0:0:0:
507,196,141001,6,0,L|492:113,1,75,6|10,1:2|0:0,0:0:0:0:
478,40,141687,1,2,1:2:0:0:
356,17,142201,2,0,P|300:29|276:36,1,75,6|2,1:2|1:2,0:0:0:0:
205,64,142887,2,0,P|223:145|232:180,1,112.5,6|8,1:2|0:0,0:0:0:0:
257,251,143744,1,6,1:2:0:0:
247,333,144087,1,10,0:0:0:0:
168,359,144430,1,2,1:2:0:0:
38,357,144944,2,0,L|24:283,1,75,6|2,1:2|1:2,0:0:0:0:
9,201,145630,2,0,L|142:175,1,112.5,6|10,1:2|0:0,0:0:0:0:
201,172,146487,6,0,P|250:218|329:173,1,150,6|2,1:2|1:2,0:0:0:0:
374,79,147687,2,0,B|362:42|362:42|330:26,1,75,6|2,1:2|1:2,0:0:0:0:
248,10,148373,2,0,P|154:25|126:20,1,112.5,6|8,1:2|0:0,0:0:0:0:
55,18,149230,2,0,L|25:133,1,112.5,14|14,0:0|0:0,0:0:0:0:
7,207,150087,1,2,1:2:0:0:
86,228,150430,2,0,L|201:258,1,112.5,6|2,1:2|1:2,0:0:0:0:
274,276,151287,1,10,0:3:0:0:
345,234,151630,1,8,0:3:0:0:
426,244,151973,6,0,P|484:213|446:136,1,150,2|0,1:2|1:2,0:0:0:0:
389,107,153001,1,10,0:0:0:0:
307,95,153344,2,0,P|291:169|271:245,1,150,2|2,1:2|1:2,0:0:0:0:
233,358,154544,2,0,P|163:343|93:324,1,112.5,2|8,1:2|0:0,0:0:0:0:
44,310,155401,2,0,P|58:240|77:170,1,112.5,8|8,0:0|0:0,0:0:0:0:
96,79,156430,2,0,L|27:36,2,75,2|10|10,0:0|0:0|0:0,0:0:0:0:
244,150,157801,6,0,L|283:86,2,75,10|2|10,0:0|1:2|0:0,0:0:0:0:
211,226,158830,2,0,P|226:287|262:324,1,112.5,2|2,0:0|0:0,0:0:0:0:
339,344,159687,1,2,1:2:0:0:
418,320,160030,1,2,0:0:0:0:
483,215,160544,2,0,L|514:141,2,75,10|2|10,0:0|1:2|0:0,0:0:0:0:
400,208,161573,2,0,L|348:331,2,112.5,2|2|8,0:0|1:2|0:0,0:0:0:0:
436,133,162944,5,6,1:2:0:0:
450,50,163287,2,0,P|405:44|370:37,1,75,10|2,0:0|1:2,0:0:0:0:
294,25,163973,1,10,0:0:0:0:
211,20,164316,2,0,B|153:10|153:10|108:45,2,112.5,6|6|10,1:2|1:2|0:0,0:0:0:0:
251,91,165687,2,0,L|275:177,1,75,2|10,1:2|0:0,0:0:0:0:
296,242,166373,1,2,1:2:0:0:
216,336,166887,2,0,P|131:363|103:363,1,112.5,2|10,1:2|0:0,0:0:0:0:
26,357,167744,1,0,1:2:0:0:
2,277,168087,1,10,0:0:0:0:
45,207,168430,6,0,L|63:127,1,75,6|10,1:2|0:1,0:0:0:0:
80,53,169116,1,2,1:2:0:0:
200,25,169630,2,0,P|236:18|273:23,1,75,6|2,1:2|1:2,0:0:0:0:
341,70,170316,2,0,P|350:126|344:181,1,112.5,10|10,0:1|0:1,0:0:0:0:
300,251,171173,2,0,P|263:257|227:253,2,75,6|10|2,1:2|0:1|1:2,0:0:0:0:
419,217,172373,2,0,L|457:132,1,75,6|2,1:2|1:2,0:0:0:0:
480,71,173058,2,0,L|364:19,1,112.5,10|10,0:1|0:1,0:0:0:0:
294,16,173916,5,6,1:2:0:0:
226,65,174258,2,0,L|237:153,2,75,10|2|10,0:0|1:2|0:0,0:0:0:0:
154,22,175287,2,0,B|100:7|100:7|51:35,1,112.5,6|8,1:2|0:0,0:0:0:0:
1,100,176144,1,0,1:2:0:0:
53,163,176487,2,0,P|99:194|152:224,1,112.5,6|8,1:2|0:0,0:0:0:0:
220,263,177344,2,0,P|189:309|159:362,2,112.5,2|2|8,1:2|1:2|0:0,0:0:0:0:
272,198,178716,5,10,0:3:0:0:
384,146,179230,2,0,P|451:150|469:190,1,112.5,6|8,1:2|0:0,0:0:0:0:
467,267,180087,1,10,0:0:0:0:
391,358,180601,2,0,L|267:368,1,112.5,2|8,1:2|0:0,0:0:0:0:
200,340,181458,2,0,L|112:332,1,75,8|8,0:3|0:0,0:0:0:0:
43,321,182144,2,0,L|50:233,1,75,10|10,0:0|0:0,0:0:0:0:
58,163,182830,1,10,0:0:0:0:
134,65,183344,2,0,L|264:53,1,112.5,6|8,1:2|0:0,0:0:0:0:
328,45,184201,6,0,P|359:101|402:112,1,112.5,8|4,0:0|1:2,0:0:0:0:
504,291,185573,2,0,L|502:366,2,75,2|2|2,0:0|0:0|0:0,0:0:0:0:
256,192,210258,6,0,L|176:176,1,75,2|10,0:0|0:0,0:0:0:0:
101,159,210944,6,0,L|85:239,1,75,6|10,1:2|0:0,0:0:0:0:
69,313,211630,1,2,1:2:0:0:
185,355,212144,2,0,P|227:349|272:339,1,75,6|2,1:2|1:2,0:0:0:0:
338,321,212830,2,0,P|329:262|315:200,1,112.5,6|8,1:2|0:0,0:0:0:0:
295,130,213687,1,6,1:2:0:0:
344,64,214030,1,10,0:0:0:0:
425,74,214373,1,2,1:2:0:0:
506,167,214887,2,0,P|512:213|506:259,1,75,6|2,1:2|1:2,0:0:0:0:
488,321,215573,2,0,P|419:329|351:321,1,112.5,6|8,1:2|0:0,0:0:0:0:
296,305,216430,5,6,1:2:0:0:
214,289,216773,2,0,L|170:372,2,75,10|2|10,0:0|1:2|0:0,0:0:0:0:
252,214,217801,2,0,P|264:160|253:105,1,112.5,6|6,1:2|1:2,0:0:0:0:
88,106,219001,2,0,P|77:160|89:215,1,112.5,6|10,1:2|0:0,0:0:0:0:
135,283,219858,1,10,0:0:0:0:
253,246,220373,2,0,L|365:198,1,112.5,6|10,1:2|0:0,0:0:0:0:
435,177,221230,1,10,0:0:0:0:
495,232,221573,1,10,0:0:0:0:
502,314,221916,6,0,P|484:345|442:358,1,75,6|10,1:2|0:0,0:0:0:0:
366,356,222601,1,2,1:2:0:0:
242,359,223116,2,0,L|227:266,1,75,6|2,1:2|1:2,0:0:0:0:
172,225,223801,2,0,L|192:95,1,112.5,6|8,1:2|0:0,0:0:0:0:
210,34,224658,1,6,1:2:0:0:
131,8,225001,1,10,0:0:0:0:
52,34,225344,1,2,1:2:0:0:
10,150,225858,2,0,P|8:206|15:245,1,75,6|2,1:2|1:2,0:0:0:0:
33,304,226544,2,0,P|104:306|155:297,1,112.5,6|10,1:2|0:0,0:0:0:0:
219,265,227401,6,0,L|311:272,1,75,6|10,1:2|0:0,0:0:0:0:
375,284,228087,1,2,1:2:0:0:
473,209,228601,2,0,P|484:150|478:121,1,75,6|2,1:2|1:2,0:0:0:0:
480,53,229287,2,0,L|362:35,1,112.5,6|8,1:2|0:0,0:0:0:0:
286,25,230144,2,0,L|268:143,1,112.5,14|14,0:0|0:0,0:0:0:0:
256,217,231001,1,2,1:2:0:0:
186,262,231344,2,0,P|121:269|68:244,1,112.5,6|2,1:2|1:2,0:0:0:0:
11,203,232201,1,10,0:0:0:0:
6,120,232544,1,10,0:0:0:0:
44,46,232887,6,0,L|124:33,1,75,6|8,1:2|0:0,0:0:0:0:
199,20,233573,2,0,L|212:100,1,75,8|10,0:0|0:0,0:0:0:0:
222,175,234258,2,0,P|291:218|364:202,1,150,14|10,0:0|0:0,0:0:0:0:
474,173,235458,2,0,B|486:139|486:139|473:101,1,75,6|2,1:2|1:2,0:0:0:0:
439,26,236144,1,6,1:2:0:0:
356,21,236487,1,2,1:2:0:0:
273,28,236830,2,0,P|176:57|152:57,1,112.5,6|10,1:2|0:0,0:0:0:0:
83,59,237687,1,2,1:2:0:0:
29,122,238030,1,14,0:0:0:0:
2,200,238373,6,0,L|21:297,1,75,14|8,0:0|0:0,0:0:0:0:
33,354,239058,1,8,0:0:0:0:
114,340,239401,1,10,0:0:0:0:
194,323,239744,2,0,P|287:338|342:312,1,150,14|10,0:0|0:0,0:0:0:0:
409,216,240944,2,0,L|399:94,1,112.5,6|8,1:2|0:0,0:0:0:0:
390,21,241801,2,0,L|502:11,2,112.5,8|8|8,0:0|0:0|0:3,0:0:0:0:
308,33,243173,2,0,B|268:59|241:66|241:66|237:115|224:142,1,150,8|4,0:3|1:2,0:0:0:0:
