osu file format v14

[General]
AudioFilename: audio.mp3
AudioLeadIn: 0
PreviewTime: 185530
Countdown: 0
SampleSet: Soft
StackLeniency: 0.4
Mode: 0
LetterboxInBreaks: 0
WidescreenStoryboard: 1

[Editor]
Bookmarks: 186258
DistanceSpacing: 1
BeatDivisor: 4
GridSize: 32
TimelineZoom: 1

[Metadata]
Title:STEP by STEP UP
TitleUnicode:STEP by STEP UP↑↑↑↑
Artist:fourfolium
ArtistUnicode:fourfolium
Creator:sanairrt
Version:Freezing's Normal
Source:NEW GAME!!
Tags:フォーフォリウム ニューゲーム season 2 opening op Sightread FreezingAnimenz akitoshi corinn -laura- ItsCactus [Yoshino] anime pop jpop japanese takeda yuuki 高田憂希 suzukaze aoba 涼風青葉 yamaguchi megumi 山口愛 takimoto hifumi 滝本ひふみ toda megumi 戸田めぐみ shinoda hajime 篠田はじめ ayumi takeo 竹尾歩美 iijima yun 飯島ゆん
BeatmapID:4253673
BeatmapSetID:2035811

[Difficulty]
HPDrainRate:4
CircleSize:3.5
OverallDifficulty:4
ApproachRate:5
SliderMultiplier:1.1
SliderTickRate:1

[Events]
//Background and Video events
0,0,"bgbgfbdf.jpg",0,0
//Break Periods
2,186252,196030
//Storyboard Layer 0 (Background)
//Storyboard Layer 1 (Fail)
//Storyboard Layer 2 (Pass)
//Storyboard Layer 3 (Foreground)
//Storyboard Layer 4 (Overlay)
//Storyboard Sound Samples

[TimingPoints]
1116,342.857142857143,4,2,1,40,1,0
1116,-111.111111111111,4,2,1,50,0,0
14487,-111.111111111111,4,2,2,75,0,0
14830,-100,4,2,1,80,0,0
24944,-100,4,2,1,50,0,0
25801,-111.111111111111,4,2,1,60,0,0
35401,-111.111111111111,4,2,1,70,0,0
36773,-100,4,2,1,70,0,0
47401,-100,4,2,1,60,0,0
47744,-111.111111111111,4,2,1,75,0,0
53058,-100,4,2,1,80,0,0
58030,-100,4,2,1,70,0,0
58716,-90.9090909090909,4,2,1,85,0,1
80658,-100,4,2,1,75,0,0
83573,-100,4,2,1,85,0,0
84944,-100,4,2,1,80,0,0
86144,-100,4,2,1,80,0,0
96258,-100,4,2,1,50,0,0
96601,-100,4,2,1,50,0,0
97116,-111.111111111111,4,2,1,60,0,0
108087,-100,4,2,1,70,0,0
118716,-100,4,2,1,60,0,0
119058,-111.111111111111,4,2,1,75,0,0
124373,-100,4,2,1,80,0,0
129001,-100,4,2,1,50,0,0
129516,-100,4,2,1,70,0,0
130030,-90.9090909090909,4,2,1,85,0,1
151973,-100,4,2,1,75,0,0
154716,-100,4,2,1,80,0,0
156087,-100,4,2,1,75,0,0
156258,-100,4,2,1,75,0,0
157458,-100,4,2,1,85,0,0
168430,-100,4,2,1,75,0,0
171173,-100,4,2,1,75,0,0
173916,-100,4,2,1,85,0,0
185401,-100,4,2,1,5,0,0
185573,-100,4,2,1,40,0,0
186258,-100,4,2,1,60,0,0
197230,-111.111111111111,4,2,1,45,0,0
210258,-111.111111111111,4,2,1,70,0,0
210430,-100,4,2,1,70,0,0
210944,-90.9090909090909,4,2,1,85,0,1
238373,-90.9090909090909,4,2,1,85,0,1
240944,-100,4,2,1,85,0,0
242487,-100,4,2,1,60,0,0

[Colours]
Combo1 : 213,0,0
Combo2 : 0,128,255
Combo3 : 128,64,64
Combo4 : 128,128,192

[HitObjects]
390,82,1116,6,0,L|281:62,1,98.9999969787599,6|2,0:0|0:0,0:0:0:0:
194,49,1801,1,2,0:0:0:0:
54,100,2316,2,0,P|10:144|26:243,1,148.49999546814,2|2,0:0|0:0,0:0:0:0:
45,263,3001,1,2,0:0:0:0:
291,287,3858,6,0,L|403:306,2,98.9999969787599,2|2|2,0:0|0:0|0:0,0:0:0:0:
241,293,4716,1,2,0:0:0:0:
159,237,5058,2,0,P|132:176|177:114,1,148.49999546814,2|2,0:0|0:0,0:0:0:0:
219,91,5744,1,2,0:0:0:0:
365,67,6258,2,0,L|414:76,1,49.4999984893799,2|2,0:0|0:0,0:0:0:0:
454,104,6601,6,0,P|471:165|402:213,1,148.49999546814,2|2,0:0|0:0,0:0:0:0:
361,218,7287,1,2,0:0:0:0:
243,130,7801,2,0,L|84:146,1,148.49999546814,2|2,0:0|0:0,0:0:0:0:
50,167,8487,2,0,P|18:216|35:263,1,98.9999969787598,2|0,0:0|0:0,0:0:0:0:
53,294,9001,1,2,0:0:0:0:
134,349,9344,6,0,B|250:264|283:386|425:317,1,296.999990936279,2|2,0:0|0:0,0:0:0:0:
483,244,10716,2,0,P|450:194|361:205,1,148.49999546814,2|0,0:0|0:0,0:0:0:0:
319,194,11401,1,2,0:0:0:0:
182,253,11916,1,2,0:0:0:0:
256,192,12087,12,0,14144,0:0:0:0:
438,69,14830,6,0,L|312:60,1,110,6|10,1:2|0:0,0:0:0:0:
231,114,15516,2,0,L|111:99,1,110,2|10,1:2|0:0,0:0:0:0:
70,121,16030,2,0,P|44:174|63:218,1,110,2|2,1:2|1:2,0:0:0:0:
88,272,16544,1,10,0:0:0:0:
88,272,16716,2,0,L|208:254,1,110,2|0,1:2|1:2,0:0:0:0:
250,242,17230,1,8,0:0:0:0:
352,282,17573,6,0,P|358:344|313:371,1,110,6|10,1:2|0:0,0:0:0:0:
269,361,18087,1,2,0:0:0:0:
160,377,18430,1,2,1:2:0:0:
59,332,18773,2,0,L|31:203,1,110,2|2,1:2|1:2,0:0:0:0:
50,174,19287,1,10,0:0:0:0:
50,174,19458,2,0,P|96:145|152:159,1,110,2|8,1:2|0:0,0:0:0:0:
203,153,19973,1,8,0:0:0:0:
310,176,20316,6,0,L|294:309,1,110,6|10,1:2|0:0,0:0:0:0:
366,370,21001,1,2,1:2:0:0:
474,351,21344,1,10,0:0:0:0:
500,244,21687,2,0,L|508:133,1,110,6|10,1:2|0:0,0:0:0:0:
468,95,22201,2,0,P|419:63|368:87,1,110,4|0,1:2|1:2,0:0:0:0:
328,110,22716,1,10,0:0:0:0:
239,174,23058,6,0,L|168:162,2,55,12|0|2,0:0|1:2|1:2,0:0:0:0:
283,206,23573,2,0,P|302:281|264:307,1,110,14|0,0:0|1:2,0:0:0:0:
247,338,24087,1,10,0:0:0:0:
147,321,24430,1,10,0:0:0:0:
147,321,24601,1,10,0:0:0:0:
147,321,24773,1,10,0:0:0:0:
212,31,25801,5,6,1:2:0:0:
302,72,26144,2,0,L|403:60,1,98.9999969787599,2|2,1:2|1:2,0:0:0:0:
447,75,26658,1,2,0:0:0:0:
426,172,27001,2,0,P|366:197|321:176,1,98.9999969787599,2|2,0:0|0:0,0:0:0:0:
236,184,27687,2,0,L|250:281,1,98.9999969787598,2|2,0:0|0:0,0:0:0:0:
250,331,28201,1,2,1:2:0:0:
160,372,28544,6,0,P|96:361|49:382,1,98.9999969787598,0|2,1:2|1:2,0:0:0:0:
4,300,29230,1,2,1:2:0:0:
4,300,29401,1,2,0:0:0:0:
0,201,29744,2,0,P|35:151|81:153,1,98.9999969787599,2|2,0:0|0:0,0:0:0:0:
167,157,30430,1,0,0:0:0:0:
241,91,30773,2,0,L|293:88,1,49.4999984893799,10|0,0:0|1:2,0:0:0:0:
343,99,31116,5,10,0:0:0:0:
343,99,31287,2,0,P|393:89|435:114,1,98.9999969787598,6|2,1:2|1:2,0:0:0:0:
493,183,31973,1,2,1:2:0:0:
458,275,32316,1,2,1:2:0:0:
369,318,32658,2,0,L|251:301,1,98.9999969787598,2|2,1:2|1:2,0:0:0:0:
228,278,33173,2,0,P|172:267|131:294,1,98.9999969787598,2|2,0:0|0:0,0:0:0:0:
88,296,33687,1,2,1:2:0:0:
34,212,34030,6,0,L|19:101,1,98.9999969787598,2|0,1:2|1:2,0:0:0:0:
73,31,34716,1,0,1:2:0:0:
158,79,35058,1,0,1:2:0:0:
223,153,35401,2,0,L|340:140,2,98.9999969787599,6|2|2,1:2|0:0|0:0,0:0:0:0:
184,182,36258,1,0,1:2:0:0:
184,182,36430,1,14,0:0:0:0:
133,279,36773,6,0,P|146:332|196:342,1,110,6|10,0:0|0:0,0:0:0:0:
304,344,37458,2,0,L|384:337,1,55,2|2,1:2|1:2,0:0:0:0:
409,317,37801,1,8,0:0:0:0:
409,317,37973,2,0,P|439:245|416:219,1,110,2|2,1:2|1:2,0:0:0:0:
334,164,38658,1,2,0:0:0:0:
242,225,39001,1,2,1:2:0:0:
152,161,39344,6,0,P|130:88|158:57,1,110,2|0,0:0|0:0,0:0:0:0:
196,44,39858,1,10,0:0:0:0:
300,79,40201,1,2,1:2:0:0:
300,79,40373,2,0,L|361:66,1,55,2|8,1:2|0:0,0:0:0:0:
408,74,40716,1,2,1:2:0:0:
440,178,41058,2,0,L|374:171,1,55,2|10,1:2|0:0,0:0:0:0:
334,192,41401,2,0,L|209:177,1,110,0|0,1:2|1:2,0:0:0:0:
173,157,41916,1,8,0:0:0:0:
97,239,42258,6,0,P|87:292|124:332,1,110,6|10,1:2|0:0,0:0:0:0:
230,352,42944,2,0,L|296:344,1,55,2|2,1:2|1:2,0:0:0:0:
341,333,43287,1,8,0:0:0:0:
341,333,43458,2,0,P|364:270|335:233,1,110,2|2,1:2|1:2,0:0:0:0:
268,156,44144,2,0,L|143:165,1,110,2|2,1:2|1:2,0:0:0:0:
107,158,44658,5,8,0:0:0:0:
107,158,44830,2,0,P|85:99|121:53,1,110,2|2,1:2|1:2,0:0:0:0:
150,28,45344,1,8,0:0:0:0:
245,83,45687,2,0,L|313:65,1,55,2|0,1:2|1:2,0:0:0:0:
356,64,46030,1,8,0:0:0:0:
356,64,46201,1,2,1:2:0:0:
406,160,46544,1,10,0:0:0:0:
406,160,46716,2,0,L|341:180,1,55,10|10,0:0|0:0,0:0:0:0:
299,185,47058,1,10,0:0:0:0:
207,246,47401,5,0,1:2:0:0:
245,337,47744,6,0,L|362:319,1,98.9999969787599,6|10,0:0|0:1,0:0:0:0:
426,267,48430,2,0,L|437:209,1,49.4999984893799,2|2,1:2|0:0,0:0:0:0:
429,169,48773,1,10,0:1:0:0:
429,169,48944,2,0,P|391:132|332:140,1,98.9999969787599,2|2,1:2|1:2,0:0:0:0:
298,136,49458,1,10,0:1:0:0:
298,136,49630,1,2,1:2:0:0:
218,101,49973,1,10,0:1:0:0:
218,101,50144,2,0,L|146:96,1,49.4999984893799,10|2,0:1|0:0,0:0:0:0:
126,123,50487,6,0,L|136:226,1,98.9999969787599,2|10,1:2|0:1,0:0:0:0:
55,280,51173,2,0,L|70:351,1,49.4999984893799,2|2,1:2|0:0,0:0:0:0:
158,362,51687,2,0,L|266:362,1,98.9999969787599,2|2,1:2|1:2,0:0:0:0:
309,357,52201,1,10,0:1:0:0:
309,357,52373,1,2,0:0:0:0:
343,264,52716,2,0,L|347:200,1,49.4999984893799,10|10,0:1|0:1,0:0:0:0:
302,180,53058,6,0,L|187:155,1,110,6|2,1:2|1:2,0:0:0:0:
139,163,53573,1,10,0:0:0:0:
37,134,53916,1,10,0:0:0:0:
37,134,54087,2,0,L|33:69,1,55,0|8,0:0|0:0,0:0:0:0:
42,24,54430,1,2,1:2:0:0:
154,44,54773,1,2,1:2:0:0:
154,44,54944,2,0,L|217:31,1,55,10|2,0:0|1:2,0:0:0:0:
263,32,55287,2,0,P|299:69|296:128,1,110,10|8,0:3|0:0,0:0:0:0:
292,179,55801,5,6,0:0:0:0:
211,253,56144,2,0,L|133:242,1,55,2|10,1:2|0:0,0:0:0:0:
122,209,56487,1,2,1:2:0:0:
122,209,56658,2,0,P|59:213|35:259,1,110,10|10,0:0|0:0,0:0:0:0:
32,304,57173,1,2,1:2:0:0:
120,378,57516,1,8,0:0:0:0:
120,378,57687,1,10,0:0:0:0:
226,350,58030,2,0,L|350:361,1,110,2|10,0:0|0:0,0:0:0:0:
455,341,58716,6,0,L|436:279,1,60.5000018463135,6|0,1:2|0:0,0:0:0:0:
388,248,59058,1,10,0:0:0:0:
268,229,59401,2,0,P|233:182|247:115,1,121.000003692627,2|8,1:2|0:0,0:0:0:0:
277,73,59916,1,6,1:2:0:0:
387,25,60258,2,0,L|458:38,1,60.5000018463135,2|8,1:2|0:0,0:0:0:0:
495,71,60601,2,0,P|510:133|469:174,1,121.000003692627,6|2,1:2|1:2,0:0:0:0:
429,212,61116,1,8,0:0:0:0:
317,258,61458,6,0,L|195:227,1,121.000003692627,6|10,1:2|0:0,0:0:0:0:
92,170,62144,2,0,P|95:123|159:82,1,121.000003692627,2|8,1:2|0:0,0:0:0:0:
207,58,62658,1,6,1:2:0:0:
325,84,63001,2,0,L|389:64,1,60.5000018463135,2|8,1:2|0:0,0:0:0:0:
438,88,63344,2,0,L|412:219,1,121.000003692627,6|2,1:2|1:2,0:0:0:0:
400,265,63858,2,0,L|411:340,1,60.5000018463135,8|8,0:0|0:3,0:0:0:0:
361,362,64201,6,0,L|228:348,1,121.000003692627,6|10,1:2|0:0,0:0:0:0:
129,299,64887,2,0,L|64:307,1,60.5000018463135,2|0,1:2|0:0,0:0:0:0:
18,271,65230,1,10,0:0:0:0:
25,154,65573,2,0,L|104:133,1,60.5000018463135,6|0,1:2|1:2,0:0:0:0:
136,109,65916,1,10,0:0:0:0:
136,109,66087,2,0,P|206:132|255:102,1,121.000003692627,6|0,1:2|1:2,0:0:0:0:
294,89,66601,1,8,0:0:0:0:
294,89,66773,1,6,1:2:0:0:
397,152,67116,6,0,L|388:217,1,60.5000018463135,10|10,0:0|0:0,0:0:0:0:
387,275,67458,1,10,0:0:0:0:
387,275,67630,2,0,L|314:271,1,60.5000018463135,10|10,0:0|0:0,0:0:0:0:
279,308,67973,1,10,0:0:0:0:
279,308,68144,2,0,P|216:326|152:287,1,121.000003692627,6|8,1:2|0:0,0:0:0:0:
108,289,68658,1,10,0:0:0:0:
43,186,69001,1,10,0:0:0:0:
114,67,69344,1,10,0:0:0:0:
227,110,69687,6,0,L|364:82,1,121.000003692627,6|10,1:2|0:0,0:0:0:0:
464,107,70373,2,0,P|495:155|481:222,1,121.000003692627,2|8,1:2|0:0,0:0:0:0:
451,265,70887,1,6,1:2:0:0:
329,263,71230,2,0,L|265:245,1,60.5000018463135,2|8,1:2|0:0,0:0:0:0:
226,204,71573,2,0,P|163:183|103:220,1,121.000003692627,6|2,1:2|1:2,0:0:0:0:
90,259,72087,2,0,L|100:329,1,60.5000018463135,8|0,0:0|0:0,0:0:0:0:
130,370,72430,6,0,L|255:353,1,121.000003692627,6|10,1:2|0:0,0:0:0:0:
367,329,73116,2,0,P|395:280|364:229,1,121.000003692627,2|8,1:2|0:0,0:0:0:0:
322,186,73630,1,6,1:2:0:0:
205,218,73973,2,0,L|124:243,1,60.5000018463135,2|8,1:2|0:0,0:0:0:0:
88,221,74316,2,0,P|44:170|60:110,1,121.000003692627,6|2,1:2|1:2,0:0:0:0:
95,79,74830,1,10,0:0:0:0:
215,67,75173,6,0,L|359:41,1,121.000003692627,6|10,1:2|0:0,0:0:0:0:
426,123,75858,2,0,L|406:198,1,60.5000018463135,2|0,1:2|1:2,0:0:0:0:
416,245,76201,1,8,0:0:0:0:
416,245,76373,2,0,P|343:221|287:247,1,121.000003692627,6|2,1:2|1:2,0:0:0:0:
264,280,76887,1,8,0:0:0:0:
264,280,77058,2,0,P|202:303|158:276,1,121.000003692627,6|2,1:2|1:2,0:0:0:0:
111,238,77573,1,8,0:0:0:0:
196,152,77916,6,0,L|283:160,1,60.5000018463135,14|2,0:0|1:2,0:0:0:0:
311,132,78258,1,2,1:2:0:0:
311,132,78430,2,0,P|344:52|315:20,1,121.000003692627,14|2,0:0|1:2,0:0:0:0:
271,14,78944,1,10,0:0:0:0:
271,14,79116,2,0,L|140:-3,1,121.000003692627,6|2,1:2|1:2,0:0:0:0:
92,15,79630,1,2,1:2:0:0:
36,123,79973,2,0,L|48:185,1,60.5000018463135,10|8,0:3|0:3,0:0:0:0:
30,240,80316,1,14,0:0:0:0:
115,308,80658,6,0,P|167:283|277:328,1,165,6|0,1:2|1:2,0:0:0:0:
305,350,81344,1,0,1:2:0:0:
412,327,81687,1,10,0:0:0:0:
442,221,82030,2,0,L|419:50,1,165,2|0,1:2|1:2,0:0:0:0:
368,37,82716,1,2,1:2:0:0:
262,28,83058,5,8,0:0:0:0:
262,28,83230,2,0,L|147:28,1,110,2|8,1:2|0:0,0:0:0:0:
116,70,83744,2,0,L|46:60,2,55,8|8|8,0:0|0:0|0:0,0:0:0:0:
134,122,84258,2,0,L|127:200,1,55,8|8,0:0|0:0,0:0:0:0:
110,228,84601,1,8,0:0:0:0:
191,309,84944,1,0,1:2:0:0:
191,309,85116,2,0,L|258:309,1,55,10|0,0:0|1:2,0:0:0:0:
295,286,85458,2,0,L|362:296,1,55,10|0,0:0|1:2,0:0:0:0:
396,266,85801,1,10,0:0:0:0:
440,164,86144,6,0,P|393:123|342:131,1,110,6|10,1:2|0:0,0:0:0:0:
240,105,86830,1,2,1:2:0:0:
137,80,87173,1,10,0:0:0:0:
137,80,87344,2,0,P|90:100|89:162,1,110,2|2,1:2|1:2,0:0:0:0:
93,212,87858,1,10,0:0:0:0:
93,212,88030,2,0,L|208:191,1,110,2|0,1:2|1:2,0:0:0:0:
245,224,88544,1,8,0:0:0:0:
355,225,88887,6,0,P|358:174|371:107,1,110,6|10,1:2|0:0,0:0:0:0:
387,64,89401,1,2,0:0:0:0:
284,28,89744,1,2,1:2:0:0:
196,95,90087,2,0,P|135:85|77:83,1,110,2|2,1:2|1:2,0:0:0:0:
37,102,90601,1,10,0:0:0:0:
37,102,90773,2,0,P|21:166|46:206,1,110,2|8,1:2|0:0,0:0:0:0:
79,243,91287,1,8,0:0:0:0:
186,266,91630,6,0,L|321:248,1,110,6|10,1:2|0:0,0:0:0:0:
405,254,92316,1,2,1:2:0:0:
448,153,92658,1,10,0:0:0:0:
375,70,93001,2,0,L|259:59,1,110,6|10,1:2|0:0,0:0:0:0:
211,48,93516,2,0,P|146:38|105:74,1,110,4|0,1:2|1:2,0:0:0:0:
72,100,94030,1,10,0:0:0:0:
162,162,94373,6,0,L|233:156,2,55,12|0|2,0:0|1:2|1:2,0:0:0:0:
133,209,94887,2,0,P|96:268|124:317,1,110,14|0,0:0|1:2,0:0:0:0:
149,337,95401,1,10,0:0:0:0:
256,360,95744,2,0,L|323:347,1,55,10|10,0:0|0:0,0:0:0:0:
363,336,96087,1,10,0:0:0:0:
483,63,97116,6,0,P|419:45|376:69,1,98.9999969787599,6|2,1:2|1:2,0:0:0:0:
294,76,97801,2,0,L|185:62,1,98.9999969787599,2|0,1:2|1:2,0:0:0:0:
150,76,98316,1,2,0:0:0:0:
150,76,98487,2,0,P|127:134|148:185,1,98.9999969787599,0|2,1:2|1:2,0:0:0:0:
172,200,99001,1,2,0:0:0:0:
318,176,99516,2,0,L|380:160,1,49.4999984893799,2|2,1:2|0:0,0:0:0:0:
404,194,99858,6,0,L|387:308,1,98.9999969787599,0|2,1:2|1:2,0:0:0:0:
318,361,100544,1,2,1:2:0:0:
318,361,100716,1,2,0:0:0:0:
223,332,101058,2,0,L|115:350,1,98.9999969787599,2|2,0:0|0:0,0:0:0:0:
76,337,101573,1,2,1:2:0:0:
76,337,101744,2,0,P|50:305|61:232,1,98.9999969787599,10|10,0:0|0:0,0:0:0:0:
81,210,102258,1,0,1:2:0:0:
179,215,102601,6,0,L|297:234,1,98.9999969787599,6|2,1:2|1:2,0:0:0:0:
368,191,103287,1,2,1:2:0:0:
340,97,103630,1,2,1:2:0:0:
246,64,103973,2,0,L|186:77,1,49.4999984893799,2|2,1:2|0:0,0:0:0:0:
149,63,104316,1,2,1:2:0:0:
149,63,104487,2,0,P|106:103|118:149,1,98.9999969787599,2|10,0:0|0:0,0:0:0:0:
141,177,105001,1,2,1:2:0:0:
179,268,105344,6,0,L|291:237,1,98.9999969787599,2|0,1:2|1:2,0:0:0:0:
357,295,106030,2,0,L|426:302,1,49.4999984893799,0|8,1:2|0:3,0:0:0:0:
453,276,106373,1,0,1:2:0:0:
499,188,106716,2,0,L|513:80,1,98.9999969787599,6|2,1:2|0:0,0:0:0:0:
436,25,107401,2,0,L|379:13,1,49.4999984893799,2|0,0:0|1:2,0:0:0:0:
344,40,107744,1,14,0:0:0:0:
234,54,108087,6,0,P|180:35|126:67,1,110,6|10,0:0|0:0,0:0:0:0:
99,163,108773,2,0,L|34:169,2,55,2|2|8,1:2|1:2|0:0,0:0:0:0:
152,175,109287,2,0,P|183:226|166:279,1,110,2|2,1:2|1:2,0:0:0:0:
138,377,109973,1,2,0:0:0:0:
244,350,110316,2,0,L|314:358,1,55,2|8,1:2|0:0,0:0:0:0:
352,347,110658,6,0,P|372:292|340:251,1,110,2|0,0:0|0:0,0:0:0:0:
301,220,111173,1,10,0:0:0:0:
212,154,111516,2,0,L|204:99,1,55,2|2,1:2|1:2,0:0:0:0:
195,49,111858,1,8,0:0:0:0:
195,49,112030,2,0,P|252:23|304:40,1,110,2|2,1:2|1:2,0:0:0:0:
349,42,112544,1,10,0:0:0:0:
436,109,112887,2,0,L|432:168,1,55,0|0,0:0|1:2,0:0:0:0:
452,215,113230,1,8,0:0:0:0:
356,270,113573,6,0,L|243:266,1,110,6|10,1:2|0:0,0:0:0:0:
151,209,114258,2,0,L|85:213,1,55,2|2,1:2|1:2,0:0:0:0:
45,205,114601,1,8,0:0:0:0:
45,205,114773,2,0,P|6:267|30:305,1,110,2|2,1:2|1:2,0:0:0:0:
97,370,115458,1,2,1:2:0:0:
202,339,115801,2,0,L|268:345,1,55,2|8,1:2|0:0,0:0:0:0:
311,338,116144,6,0,P|331:283|288:231,1,110,2|2,1:2|1:2,0:0:0:0:
270,200,116658,1,8,0:0:0:0:
273,90,117001,2,0,L|350:75,1,55,2|0,1:2|1:2,0:0:0:0:
382,63,117344,1,8,0:0:0:0:
382,63,117516,1,2,1:2:0:0:
450,148,117858,2,0,L|517:145,2,55,10|10|10,0:0|0:0|0:0,0:0:0:0:
398,169,118373,1,10,0:0:0:0:
317,244,118716,5,0,1:2:0:0:
232,174,119058,6,0,P|189:134|137:141,1,98.9999969787599,6|10,0:0|0:1,0:0:0:0:
60,174,119744,2,0,L|70:286,1,98.9999969787599,2|10,1:2|0:1,0:0:0:0:
58,321,120258,1,2,1:2:0:0:
151,354,120601,2,0,L|205:341,1,49.4999984893799,2|10,1:2|0:1,0:0:0:0:
244,363,120944,2,0,L|352:352,1,98.9999969787599,2|10,1:2|0:1,0:0:0:0:
391,348,121458,1,10,0:1:0:0:
456,273,121801,6,0,P|481:237|452:181,1,98.9999969787599,2|10,1:2|0:1,0:0:0:0:
365,174,122487,2,0,L|258:198,1,98.9999969787599,2|10,1:2|0:1,0:0:0:0:
219,188,123001,2,0,L|192:76,1,98.9999969787599,2|2,1:2|1:2,0:0:0:0:
190,46,123516,1,10,0:1:0:0:
190,46,123687,1,2,0:0:0:0:
289,47,124030,2,0,L|351:33,1,49.4999984893799,10|10,0:1|0:1,0:0:0:0:
391,26,124373,6,0,P|448:14|483:49,1,110,6|2,1:2|1:2,0:0:0:0:
500,98,124887,1,10,0:0:0:0:
450,196,125230,2,0,L|377:183,1,55,10|2,0:0|0:0,0:0:0:0:
345,162,125573,1,8,0:0:0:0:
345,162,125744,2,0,P|279:153|241:191,1,110,2|2,1:2|1:2,0:0:0:0:
218,224,126258,1,10,0:0:0:0:
269,321,126601,2,0,L|333:312,1,55,10|2,0:3|0:0,0:0:0:0:
378,312,126944,5,8,0:0:0:0:
378,312,127116,2,0,P|404:264|376:198,1,110,6|2,0:0|1:2,0:0:0:0:
361,165,127630,1,10,0:0:0:0:
251,159,127973,2,0,L|178:172,1,55,10|2,0:0|1:2,0:0:0:0:
146,145,128316,1,10,0:0:0:0:
146,145,128487,2,0,P|134:89|176:50,1,110,2|0,1:2|0:0,0:0:0:0:
216,28,129001,1,2,0:0:0:0:
304,92,129344,1,2,0:0:0:0:
400,39,129687,1,10,0:0:0:0:
486,123,130030,6,0,L|471:245,1,121.000003692627,6|10,1:2|0:0,0:0:0:0:
469,364,130716,2,0,P|406:329|348:347,1,121.000003692627,2|8,1:2|0:0,0:0:0:0:
301,349,131230,2,0,P|244:335|223:263,1,121.000003692627,6|2,1:2|1:2,0:0:0:0:
208,226,131744,1,8,0:0:0:0:
208,226,131916,2,0,P|236:177|208:125,1,121.000003692627,6|2,1:2|1:2,0:0:0:0:
158,89,132430,1,8,0:0:0:0:
263,29,132773,6,0,L|389:45,1,121.000003692627,6|10,1:2|0:0,0:0:0:0:
503,59,133458,2,0,L|476:193,1,121.000003692627,2|8,1:2|0:0,0:0:0:0:
445,228,133973,2,0,P|384:265|326:234,1,121.000003692627,6|2,1:2|1:2,0:0:0:0:
285,227,134487,1,8,0:0:0:0:
285,227,134658,2,0,P|221:213|159:257,1,121.000003692627,6|2,1:2|1:2,0:0:0:0:
117,260,135173,1,8,0:0:0:0:
157,374,135516,6,0,L|279:354,1,121.000003692627,6|10,1:2|0:0,0:0:0:0:
396,369,136201,1,2,1:2:0:0:
438,262,136544,1,10,0:0:0:0:
377,157,136887,2,0,L|297:165,1,60.5000018463135,6|0,1:2|1:2,0:0:0:0:
267,137,137230,1,10,0:0:0:0:
267,137,137401,2,0,P|219:102|149:119,1,121.000003692627,6|0,1:2|1:2,0:0:0:0:
62,181,138087,6,0,L|84:303,1,121.000003692627,6|10,1:2|0:0,0:0:0:0:
104,356,138601,1,10,0:0:0:0:
224,365,138944,2,0,L|291:351,1,60.5000018463135,10|10,0:0|0:0,0:0:0:0:
339,331,139287,1,10,0:0:0:0:
339,331,139458,2,0,P|362:258|336:226,1,121.000003692627,6|8,1:2|0:0,0:0:0:0:
289,191,139973,1,10,0:0:0:0:
171,221,140316,2,0,L|109:218,1,60.5000018463135,10|0,0:0|1:2,0:0:0:0:
60,184,140658,1,10,0:0:0:0:
89,66,141001,6,0,P|135:34|195:50,1,121.000003692627,6|10,1:2|0:0,0:0:0:0:
313,73,141687,2,0,L|286:197,1,121.000003692627,2|8,1:2|0:0,0:0:0:0:
230,213,142201,2,0,P|165:288|199:316,1,121.000003692627,6|2,1:2|1:2,0:0:0:0:
199,338,142716,1,8,0:0:0:0:
199,338,142887,2,0,L|332:326,1,121.000003692627,6|2,1:2|1:2,0:0:0:0:
376,305,143401,1,8,0:0:0:0:
456,214,143744,6,0,L|472:80,1,121.000003692627,6|10,1:2|0:0,0:0:0:0:
364,35,144430,2,0,P|288:25|260:51,1,121.000003692627,2|8,1:2|0:0,0:0:0:0:
199,63,144944,2,0,L|226:188,1,121.000003692627,6|2,1:2|1:2,0:0:0:0:
277,221,145458,1,8,0:0:0:0:
277,221,145630,2,0,P|295:288|267:338,1,121.000003692627,6|2,1:2|1:2,0:0:0:0:
216,353,146144,1,10,0:0:0:0:
96,336,146487,6,0,L|73:201,1,121.000003692627,6|10,1:2|0:0,0:0:0:0:
74,95,147173,2,0,L|5:92,2,60.5000018463135,2|0|8,1:2|1:2|0:0,0:0:0:0:
123,60,147687,2,0,P|177:40|252:59,1,121.000003692627,6|2,1:2|1:2,0:0:0:0:
297,78,148201,1,8,0:0:0:0:
297,78,148373,2,0,L|426:53,1,121.000003692627,6|2,1:2|1:2,0:0:0:0:
476,48,148887,1,8,0:0:0:0:
498,166,149230,6,0,L|483:229,1,60.5000018463135,14|2,0:0|1:2,0:0:0:0:
465,285,149573,1,2,1:2:0:0:
465,285,149744,2,0,P|411:254|355:275,1,121.000003692627,14|2,0:0|1:2,0:0:0:0:
302,282,150258,1,10,0:0:0:0:
302,282,150430,2,0,L|161:273,1,121.000003692627,6|2,1:2|1:2,0:0:0:0:
125,250,150944,1,2,1:2:0:0:
153,132,151287,2,0,L|226:119,1,60.5000018463135,10|8,0:3|0:3,0:0:0:0:
266,94,151630,1,8,0:3:0:0:
366,138,151973,6,0,P|398:190|372:237,1,110,6|0,1:2|0:0,0:0:0:0:
344,272,152487,1,0,1:2:0:0:
344,272,152658,2,0,L|229:261,1,110,0|10,1:2|0:0,0:0:0:0:
129,226,153344,2,0,L|115:98,1,110,2|0,1:2|0:0,0:0:0:0:
112,66,153858,1,0,1:2:0:0:
112,66,154030,2,0,P|157:37|214:48,1,110,2|8,1:2|0:0,0:0:0:0:
253,80,154544,5,2,1:2:0:0:
343,143,154887,1,8,0:0:0:0:
343,143,155058,2,0,L|329:217,1,55,8|8,0:0|0:0,0:0:0:0:
296,238,155401,2,0,L|306:307,1,55,8|8,0:0|0:0,0:0:0:0:
328,347,155744,1,8,0:0:0:0:
328,347,155916,1,8,0:0:0:0:
165,372,156430,1,2,0:0:0:0:
76,307,156773,1,10,0:0:0:0:
61,197,157116,1,10,0:0:0:0:
138,119,157458,6,0,L|263:130,1,110,6|10,1:2|0:0,0:0:0:0:
360,148,158144,1,2,1:2:0:0:
360,148,158316,2,0,L|429:119,1,55,2|10,1:2|0:0,0:0:0:0:
460,101,158658,1,2,1:2:0:0:
460,101,158830,2,0,P|438:44|374:42,1,110,2|10,0:0|0:0,0:0:0:0:
340,27,159344,1,2,0:0:0:0:
246,82,159687,1,2,1:2:0:0:
246,82,159858,2,0,L|175:70,1,55,10|2,0:0|0:0,0:0:0:0:
137,64,160201,6,0,P|93:107|110:158,1,110,2|10,1:2|0:0,0:0:0:0:
180,226,160887,2,0,L|252:211,1,55,2|2,1:2|1:2,0:0:0:0:
286,198,161230,1,10,0:0:0:0:
390,232,161573,2,0,P|420:281|388:326,1,110,2|10,0:0|0:0,0:0:0:0:
358,361,162087,2,0,L|236:349,1,110,2|0,1:2|1:2,0:0:0:0:
193,353,162601,1,8,0:0:0:0:
97,298,162944,6,0,P|91:242|77:175,1,110,6|10,1:2|0:0,0:0:0:0:
81,79,163630,2,0,L|135:76,1,55,2|2,1:2|1:2,0:0:0:0:
184,50,163973,1,10,0:0:0:0:
284,93,164316,2,0,P|356:106|396:70,1,110,6|10,1:2|0:0,0:0:0:0:
438,83,164830,2,0,L|418:216,1,110,6|2,1:2|1:2,0:0:0:0:
439,244,165344,1,10,0:0:0:0:
435,353,165687,6,0,L|318:340,1,110,2|10,1:2|0:0,0:0:0:0:
221,304,166373,2,0,L|155:321,1,55,2|2,1:2|1:2,0:0:0:0:
113,329,166716,1,10,0:0:0:0:
113,329,166887,2,0,P|80:285|90:220,1,110,2|0,1:2|1:2,0:0:0:0:
117,188,167401,1,10,0:0:0:0:
222,216,167744,1,0,1:2:0:0:
324,176,168087,2,0,L|324:103,1,55,10|0,0:0|0:0,0:0:0:0:
336,67,168430,6,0,L|222:88,1,110,6|10,1:2|0:1,0:0:0:0:
128,51,169116,1,2,1:2:0:0:
128,51,169287,1,2,1:2:0:0:
25,91,169630,2,0,P|-3:145|20:191,1,110,6|2,1:2|1:2,0:0:0:0:
61,225,170144,1,10,0:1:0:0:
61,225,170316,1,10,0:1:0:0:
163,186,170658,1,2,1:2:0:0:
163,186,170830,2,0,L|232:189,1,55,10|2,0:1|0:0,0:0:0:0:
273,190,171173,6,0,P|317:241|293:285,1,110,6|10,1:2|0:1,0:0:0:0:
224,350,171858,2,0,L|167:344,1,55,2|2,1:2|1:2,0:0:0:0:
115,332,172201,1,10,0:1:0:0:
115,332,172373,1,6,1:2:0:0:
50,242,172716,2,0,L|110:212,1,55,2|10,1:2|0:1,0:0:0:0:
150,196,173058,1,10,0:1:0:0:
258,233,173401,1,0,1:2:0:0:
258,233,173573,1,10,0:1:0:0:
360,192,173916,6,0,L|378:70,1,110,6|10,1:2|0:0,0:0:0:0:
349,40,174430,1,8,0:0:0:0:
349,40,174601,1,2,1:2:0:0:
242,67,174944,1,10,0:0:0:0:
131,67,175287,2,0,L|75:58,1,55,6|0,1:2|0:0,0:0:0:0:
28,76,175630,1,10,0:0:0:0:
28,76,175801,2,0,P|3:129|34:175,1,110,8|0,0:0|1:2,0:0:0:0:
93,257,176487,6,0,L|164:242,1,55,6|0,1:2|0:0,0:0:0:0:
188,236,176830,1,0,1:2:0:0:
188,236,177001,1,8,0:0:0:0:
298,233,177344,2,0,L|324:183,1,55,2|2,1:2|1:2,0:0:0:0:
299,140,177687,1,10,0:0:0:0:
299,140,177858,2,0,L|189:112,1,110,2|2,1:2|1:2,0:0:0:0:
154,72,178373,1,8,0:0:0:0:
254,26,178716,2,0,L|309:20,1,55,10|10,0:3|0:0,0:0:0:0:
366,33,179058,5,8,0:0:0:0:
366,33,179230,2,0,P|413:78|397:129,1,110,6|2,1:2|1:2,0:0:0:0:
384,168,179744,1,8,0:0:0:0:
298,237,180087,2,0,L|226:226,1,55,10|0,0:0|1:2,0:0:0:0:
195,207,180430,1,10,0:0:0:0:
195,207,180601,2,0,P|140:193|97:224,1,110,2|0,1:2|0:0,0:0:0:0:
68,268,181116,1,8,0:0:0:0:
156,332,181458,2,0,L|232:322,1,55,8|8,0:3|0:3,0:0:0:0:
265,331,181801,1,8,0:0:0:0:
371,302,182144,6,0,L|388:177,1,110,10|10,0:0|0:0,0:0:0:0:
289,139,182830,2,0,L|168:125,1,110,10|10,0:0|0:0,0:0:0:0:
134,94,183344,2,0,P|120:40|164:7,1,110,6|8,1:2|0:0,0:0:0:0:
211,3,183858,1,8,0:0:0:0:
316,32,184201,2,0,L|309:90,1,55,8|8,0:0|0:3,0:0:0:0:
313,140,184544,1,8,0:3:0:0:
313,140,184716,6,0,P|213:210|66:152,1,275,4|2,1:2|0:0,0:0:0:0:
169,106,197230,6,0,L|53:96,2,98.9999969787599,2|2|2,0:0|0:0|0:0,0:0:0:0:
257,151,198258,1,2,0:0:0:0:
257,151,198430,2,0,L|417:129,1,148.49999546814,2|2,0:0|0:0,0:0:0:0:
444,160,199116,2,0,P|459:224|397:277,1,148.49999546814,2|0,0:0|0:0,0:0:0:0:
307,290,199973,6,0,L|198:304,2,98.9999969787599,2|2|2,0:0|0:0|0:0,0:0:0:0:
339,196,201001,1,2,0:0:0:0:
339,196,201173,2,0,L|350:24,1,148.49999546814,2|2,0:0|0:0,0:0:0:0:
300,37,201858,2,0,P|243:11|188:27,1,98.9999969787599,2|0,0:0|0:0,0:0:0:0:
159,23,202373,1,2,0:0:0:0:
100,103,202716,6,0,L|140:261,1,148.49999546814,2|2,0:0|0:0,0:0:0:0:
135,296,203401,1,2,0:0:0:0:
267,375,203916,2,0,P|302:339|368:350,1,98.9999969787599,2|2,0:0|0:0,0:0:0:0:
447,332,204601,2,0,L|459:220,1,98.9999969787599,2|0,0:0|0:0,0:0:0:0:
425,195,205116,1,2,0:0:0:0:
376,108,205458,2,0,P|291:65|192:105,1,197.99999395752,2|0,0:0|0:0,0:0:0:0:
126,165,206487,1,2,0:0:0:0:
256,192,206830,12,0,209916,0:0:0:0:
424,48,210601,5,10,0:0:0:0:
312,96,210944,2,0,L|178:89,1,121.000003692627,6|10,1:2|0:0,0:0:0:0:
77,133,211630,2,0,P|51:176|73:241,1,121.000003692627,2|8,1:2|0:0,0:0:0:0:
111,285,212144,2,0,L|244:268,1,121.000003692627,6|2,1:2|1:2,0:0:0:0:
295,268,212658,1,8,0:0:0:0:
295,268,212830,2,0,P|320:320|291:370,1,121.000003692627,6|2,1:2|1:2,0:0:0:0:
231,384,213344,1,8,0:0:0:0:
119,337,213687,6,0,L|-1:317,1,121.000003692627,6|10,1:2|0:0,0:0:0:0:
0,184,214373,2,0,P|29:127|91:132,1,121.000003692627,2|8,1:2|0:0,0:0:0:0:
116,174,214887,2,0,P|177:230|222:214,1,121.000003692627,6|2,1:2|1:2,0:0:0:0:
269,243,215401,1,8,0:0:0:0:
269,243,215573,2,0,P|321:207|377:225,1,121.000003692627,6|2,1:2|1:2,0:0:0:0:
430,239,216087,2,0,L|500:220,1,60.5000018463135,8|8,0:0|0:0,0:0:0:0:
506,165,216430,5,6,1:2:0:0:
496,44,216773,2,0,L|375:25,1,121.000003692627,10|2,0:0|1:2,0:0:0:0:
285,77,217458,1,10,0:0:0:0:
171,125,217801,2,0,L|98:114,1,60.5000018463135,6|0,1:2|1:2,0:0:0:0:
54,113,218144,1,10,0:0:0:0:
54,113,218316,2,0,P|9:171|29:215,1,121.000003692627,6|0,1:2|1:2,0:0:0:0:
76,249,218830,5,8,0:0:0:0:
76,249,219001,2,0,L|217:214,1,121.000003692627,6|10,1:2|0:3,0:0:0:0:
254,225,219516,1,10,0:0:0:0:
371,197,219858,2,0,L|391:127,1,60.5000018463135,10|10,0:0|0:0,0:0:0:0:
403,81,220201,1,10,0:0:0:0:
403,81,220373,2,0,P|349:44|283:68,1,121.000003692627,6|8,1:2|0:0,0:0:0:0:
238,67,220887,1,10,0:0:0:0:
192,179,221230,2,0,L|187:242,1,60.5000018463135,10|0,0:0|1:2,0:0:0:0:
230,282,221573,1,10,0:0:0:0:
330,349,221916,6,0,L|454:319,1,121.000003692627,6|10,1:2|0:0,0:0:0:0:
507,217,222601,2,0,P|461:154|409:160,1,121.000003692627,2|8,1:2|0:0,0:0:0:0:
381,196,223116,2,0,L|256:165,1,121.000003692627,6|2,1:2|1:2,0:0:0:0:
215,141,223630,1,8,0:0:0:0:
215,141,223801,2,0,P|153:120|95:159,1,121.000003692627,6|2,1:2|1:2,0:0:0:0:
85,201,224316,1,8,0:0:0:0:
125,315,224658,6,0,L|252:291,1,121.000003692627,6|10,1:2|0:0,0:0:0:0:
365,300,225344,2,0,P|444:280|444:237,1,121.000003692627,2|8,1:2|0:0,0:0:0:0:
450,192,225858,2,0,L|326:166,1,121.000003692627,6|2,1:2|1:2,0:0:0:0:
274,179,226373,1,8,0:0:0:0:
274,179,226544,2,0,P|221:213|163:174,1,121.000003692627,6|2,1:2|1:2,0:0:0:0:
152,133,227058,1,10,0:0:0:0:
252,66,227401,6,0,L|372:47,1,121.000003692627,6|10,1:2|0:0,0:0:0:0:
482,97,228087,2,0,L|468:172,1,60.5000018463135,2|0,1:2|1:2,0:0:0:0:
500,215,228430,1,8,0:0:0:0:
500,215,228601,2,0,P|482:281|422:283,1,121.000003692627,6|2,1:2|1:2,0:0:0:0:
395,334,229116,1,8,0:0:0:0:
395,334,229287,2,0,L|276:364,1,121.000003692627,6|2,1:2|1:2,0:0:0:0:
218,348,229801,1,8,0:0:0:0:
215,226,230144,6,0,L|288:205,1,60.5000018463135,14|2,0:0|1:2,0:0:0:0:
319,170,230487,1,2,1:2:0:0:
319,170,230658,2,0,P|354:116|309:63,1,121.000003692627,14|2,0:0|1:2,0:0:0:0:
277,39,231173,1,10,0:0:0:0:
277,39,231344,2,0,L|154:70,1,121.000003692627,6|2,1:2|1:2,0:0:0:0:
99,58,231858,1,2,1:2:0:0:
47,167,232201,2,0,L|74:238,1,60.5000018463135,10|2,0:0|0:0,0:0:0:0:
60,283,232544,1,10,0:0:0:0:
135,377,232887,6,0,P|183:349|253:358,1,121.000003692627,6|8,1:2|0:0,0:0:0:0:
306,346,233401,1,0,1:2:0:0:
306,346,233573,2,0,L|369:322,1,60.5000018463135,8|0,0:0|1:2,0:0:0:0:
423,326,233916,1,10,0:0:0:0:
495,229,234258,2,0,L|506:140,1,60.5000018463135,14|0,0:0|1:2,0:0:0:0:
487,123,234601,1,8,0:0:0:0:
366,134,234944,1,10,0:0:0:0:
254,101,235287,1,8,0:0:0:0:
254,101,235458,6,0,P|195:85|137:124,1,121.000003692627,6|2,1:2|1:2,0:0:0:0:
102,155,235973,1,10,0:0:0:0:
102,155,236144,2,0,L|130:293,1,121.000003692627,6|2,1:2|1:2,0:0:0:0:
163,327,236658,1,10,0:0:0:0:
163,327,236830,2,0,L|286:315,1,121.000003692627,6|10,1:2|0:0,0:0:0:0:
342,299,237344,1,10,0:0:0:0:
403,194,237687,2,0,L|395:128,1,60.5000018463135,2|0,1:2|1:2,0:0:0:0:
337,117,238030,1,14,0:0:0:0:
229,171,238373,6,0,P|160:196|119:157,1,121.000003692627,14|8,0:0|0:0,0:0:0:0:
107,119,238887,1,0,1:2:0:0:
107,119,239058,2,0,L|97:57,1,60.5000018463135,8|0,0:0|1:2,0:0:0:0:
148,27,239401,1,10,0:0:0:0:
267,49,239744,2,0,L|255:172,1,121.000003692627,14|8,0:0|0:0,0:0:0:0:
289,285,240430,2,0,L|311:360,2,60.5000018463135,10|0|8,0:0|1:2|0:0,0:0:0:0:
234,289,240944,6,0,L|115:304,1,110,6|8,1:2|0:0,0:0:0:0:
74,279,241458,2,0,L|60:218,1,55,8|8,0:0|0:0,0:0:0:0:
66,170,241801,2,0,L|131:164,1,55,8|8,0:0|0:0,0:0:0:0:
173,142,242144,1,8,0:0:0:0:
173,142,242316,1,8,0:0:0:0:
257,60,242658,2,0,L|334:67,2,55,8|8|8,0:3|0:3|0:3,0:0:0:0:
214,24,243173,1,8,0:3:0:0:
24,134,243858,1,4,1:2:0:0:
256,192,244030,12,0,246601,0:0:0:0:
