osu file format v14

[General]
AudioFilename: audio.mp3
AudioLeadIn: 0
PreviewTime: 185530
Countdown: 0
SampleSet: Soft
StackLeniency: 0.4
Mode: 0
LetterboxInBreaks: 0
WidescreenStoryboard: 1

[Editor]
DistanceSpacing: 2.4
BeatDivisor: 4
GridSize: 32
TimelineZoom: 2.1

[Metadata]
Title:STEP by STEP UP
TitleUnicode:STEP by STEP UP↑↑↑↑
Artist:fourfolium
ArtistUnicode:fourfolium
Creator:sanairrt
Version:Akitoshi's Insane
Source:NEW GAME!!
Tags:フォーフォリウム ニューゲーム season 2 opening op Sightread FreezingAnimenz akitoshi corinn -laura- ItsCactus [Yoshino] anime pop jpop japanese takeda yuuki 高田憂希 suzukaze aoba 涼風青葉 yamaguchi megumi 山口愛 takimoto hifumi 滝本ひふみ toda megumi 戸田めぐみ shinoda hajime 篠田はじめ ayumi takeo 竹尾歩美 iijima yun 飯島ゆん
BeatmapID:4263520
BeatmapSetID:2035811

[Difficulty]
HPDrainRate:5.3
CircleSize:3.8
OverallDifficulty:7.5
ApproachRate:9
SliderMultiplier:1.55
SliderTickRate:1

[Events]
//Background and Video events
0,0,"bgbgfbdf.jpg",0,0
//Break Periods
2,186252,196630
//Storyboard Layer 0 (Background)
//Storyboard Layer 1 (Fail)
//Storyboard Layer 2 (Pass)
//Storyboard Layer 3 (Foreground)
//Storyboard Layer 4 (Overlay)
//Storyboard Sound Samples

[TimingPoints]
1116,342.857142857143,4,2,1,40,1,0
1116,-142.857142857143,4,2,1,50,0,0
3515,-142.857142857143,4,2,1,50,0,0
3858,-142.857142857143,4,2,1,50,0,0
4887,-142.857142857143,4,2,1,50,0,0
5058,-142.857142857143,4,2,1,50,0,0
5400,-142.857142857143,4,2,1,50,0,0
5573,-142.857142857143,4,2,1,50,0,0
6086,-142.857142857143,4,2,1,50,0,0
6258,-142.857142857143,4,2,1,50,0,0
6943,-142.857142857143,4,2,1,50,0,0
7116,-142.857142857143,4,2,1,50,0,0
7629,-142.857142857143,4,2,1,50,0,0
7801,-142.857142857143,4,2,1,50,0,0
8829,-142.857142857143,4,2,1,50,0,0
9001,-142.857142857143,4,2,1,50,0,0
10029,-142.857142857143,4,2,1,50,0,0
10373,-142.857142857143,4,2,1,50,0,0
11230,-142.857142857143,4,2,1,50,0,0
11401,-142.857142857143,4,2,1,50,0,0
11743,-142.857142857143,4,2,1,50,0,0
11916,-142.857142857143,4,2,1,50,0,0
12001,-142.857142857143,4,2,1,50,0,0
14487,-83.3333333333333,4,2,2,75,0,0
14744,-83.3333333333333,4,2,2,75,0,0
14830,-100,4,2,1,80,0,0
15001,-100,4,2,1,80,0,0
15173,-100,4,2,1,80,0,0
17401,-100,4,2,1,80,0,0
17573,-100,4,2,1,80,0,0
19629,-100,4,2,1,80,0,0
19801,-100,4,2,1,80,0,0
20487,-100,4,2,1,80,0,0
20658,-100,4,2,1,80,0,0
21515,-100,4,2,1,80,0,0
21687,-100,4,2,1,80,0,0
23744,-100,4,2,1,80,0,0
23916,-100,4,2,1,80,0,0
24001,-100,4,2,1,80,0,0
24087,-100,4,2,1,80,0,0
24944,-166.666666666667,4,2,1,50,0,0
25801,-142.857142857143,4,2,1,60,0,0
35401,-125,4,2,1,70,0,0
36430,-83.3333333333333,4,2,1,70,0,0
36687,-83.3333333333333,4,2,1,70,0,0
36773,-111.111111111111,4,2,1,70,0,0
36944,-111.111111111111,4,2,1,70,0,0
37116,-111.111111111111,4,2,1,70,0,0
37373,-111.111111111111,4,2,1,70,0,0
37458,-111.111111111111,4,2,1,70,0,0
38144,-111.111111111111,4,2,1,70,0,0
38316,-111.111111111111,4,2,1,70,0,0
40116,-111.111111111111,4,2,1,70,0,0
40201,-111.111111111111,4,2,1,70,0,0
41572,-111.111111111111,4,2,1,70,0,0
41744,-111.111111111111,4,2,1,70,0,0
42087,-111.111111111111,4,2,1,70,0,0
42258,-111.111111111111,4,2,1,70,0,0
42772,-111.111111111111,4,2,1,70,0,0
42944,-111.111111111111,4,2,1,70,0,0
43629,-111.111111111111,4,2,1,70,0,0
43801,-111.111111111111,4,2,1,70,0,0
44315,-111.111111111111,4,2,1,70,0,0
44487,-111.111111111111,4,2,1,70,0,0
47401,-83.3333333333332,4,2,1,60,0,0
47744,-111.111111111111,4,2,1,75,0,0
47915,-111.111111111111,4,2,1,75,0,0
48087,-111.111111111111,4,2,1,75,0,0
49801,-111.111111111111,4,2,1,75,0,0
49973,-111.111111111111,4,2,1,75,0,0
50658,-111.111111111111,4,2,1,75,0,0
50830,-111.111111111111,4,2,1,75,0,0
53058,-99.9999999999999,4,2,1,80,0,0
54087,-99.9999999999999,4,2,1,80,0,0
54258,-99.9999999999999,4,2,1,80,0,0
55544,-99.9999999999999,4,2,1,80,0,0
55630,-99.9999999999999,4,2,1,80,0,0
57344,-99.9999999999999,4,2,1,80,0,0
57516,-99.9999999999999,4,2,1,80,0,0
58030,-99.9999999999999,4,2,1,70,0,0
58201,-99.9999999999999,4,2,1,70,0,0
58373,-83.3333333333333,4,2,1,70,0,0
58630,-83.3333333333333,4,2,1,70,0,0
58716,-90.9090909090909,4,2,1,85,0,0
58887,-90.9090909090909,4,2,1,85,0,0
59058,-90.9090909090909,4,2,1,85,0,0
59916,-90.9090909090909,4,2,1,85,0,0
80658,-111.111111111111,4,2,1,75,0,0
83573,-99.9999999999999,4,2,1,85,0,0
84944,-99.9999999999999,4,2,1,80,0,0
96258,-166.666666666667,4,2,1,50,0,0
97116,-142.857142857143,4,2,1,60,0,0
107744,-83.3333333333334,4,2,1,60,0,0
108087,-111.111111111111,4,2,1,70,0,0
117858,-99.9999999999999,4,2,1,70,0,0
118716,-83.3333333333333,4,2,1,60,0,0
119058,-111.111111111111,4,2,1,75,0,0
124373,-100,4,2,1,80,0,0
129001,-100,4,2,1,50,0,0
129516,-100,4,2,1,70,0,0
129687,-83.3333333333333,4,2,1,70,0,0
130030,-90.9090909090909,4,2,1,85,0,0
151973,-111.111111111111,4,2,1,75,0,0
154544,-111.111111111111,4,2,1,75,0,0
154715,-111.111111111111,4,2,1,80,0,0
156087,-111.111111111111,4,2,1,75,0,0
156258,-99.9999999999999,4,2,1,75,0,0
157458,-99.9999999999999,4,2,1,85,0,0
168430,-111.111111111111,4,2,1,75,0,0
173573,-83.3333333333333,4,2,1,75,0,0
173916,-99.9999999999999,4,2,1,85,0,0
184716,-125,4,2,1,85,0,0
185401,-125,4,2,1,5,0,0
185573,-125,4,2,1,40,0,0
186258,-166.666666666667,4,2,1,60,0,0
197230,-142.857142857143,4,2,1,45,0,0
206830,-153.846153846154,4,2,1,45,0,0
210258,-100,4,2,1,70,0,0
210601,-83.3333333333333,4,2,1,70,0,0
210944,-90.9090909090909,4,2,1,85,0,0
242487,-90.9090909090909,4,2,1,60,0,0
242658,-142.857142857143,4,2,1,60,0,0
243858,-500,4,2,1,60,0,0

[Colours]
Combo1 : 213,0,0
Combo2 : 0,128,255
Combo3 : 128,64,64
Combo4 : 128,128,192

[HitObjects]
333,151,1116,6,0,P|272:149|230:182,1,108.499996688843,6|2,0:0|0:0,0:0:0:0:
85,240,1801,2,0,P|146:238|188:271,1,108.499996688843,2|2,0:0|0:0,0:0:0:0:
227,333,2316,6,0,P|275:322|343:315,1,108.499996688843,2|2,0:0|0:0,0:0:0:0:
396,367,2830,1,2,0:0:0:0:
457,313,3001,2,0,B|484:231|420:237|442:149,1,162.749995033264,2|0,0:0|0:0,0:0:0:0:
440,156,3858,6,0,P|379:158|337:125,1,108.499996688843,2|2,0:0|0:0,0:0:0:0:
212,41,4544,1,2,0:0:0:0:
212,41,4716,2,0,L|142:50,1,54.2499983444214,2|0,0:0|0:0,0:0:0:0:
78,62,5058,6,0,P|59:102|72:168,1,108.499996688843,2|0,0:0|0:0,0:0:0:0:
113,232,5573,1,2,0:0:0:0:
181,189,5744,2,0,P|233:177|282:197,1,108.499996688843,2|0,0:0|0:0,0:0:0:0:
337,264,6258,1,2,0:0:0:0:
337,264,6430,1,2,0:0:0:0:
406,222,6601,6,0,P|398:162|392:110,1,108.499996688843,2|0,0:0|0:0,0:0:0:0:
382,32,7116,1,2,0:0:0:0:
314,76,7287,2,0,P|261:84|212:61,1,108.499996688843,2|0,0:0|0:0,0:0:0:0:
142,20,7801,6,0,P|89:11|40:34,1,108.499996688843,2|2,0:0|0:0,0:0:0:0:
2,107,8316,1,2,0:0:0:0:
79,131,8487,2,0,P|72:180|64:250,1,108.499996688843,2|0,0:0|0:0,0:0:0:0:
51,319,9001,1,2,0:0:0:0:
200,253,9344,6,0,B|308:228|286:346|410:311,1,216.999993377686,2|0,0:0|0:0,0:0:0:0:
396,314,10373,1,2,0:0:0:0:
492,182,10716,6,0,P|453:125|350:141,1,162.749995033264,2|0,0:0|0:0,0:0:0:0:
301,175,11401,2,0,P|229:165|186:155,1,108.499996688843,2|0,0:0|0:0,0:0:0:0:
114,135,11916,5,2,0:0:0:0:
256,192,12001,12,0,14144,0:0:0:0:
256,192,14487,6,0,B|233:188|208:173|208:173|180:213|129:209,1,139.499995742798,8|0,0:1|0:0,0:0:0:0:
55,200,14830,6,0,B|45:169|45:169|59:115,1,77.5,6|0,1:2|0:0,0:0:0:0:
116,16,15173,1,10,0:0:0:0:
206,80,15344,1,2,0:0:0:0:
206,80,15430,1,8,0:0:0:0:
206,80,15516,2,0,P|245:85|286:68,1,77.5,2|2,1:2|1:2,0:0:0:0:
361,13,15858,1,10,0:0:0:0:
458,90,16030,6,0,B|448:126|436:143|436:143|457:181|457:181|447:196|435:246,1,155,2|2,1:2|1:2,0:0:0:0:
424,331,16544,1,10,0:0:0:0:
305,291,16716,2,0,B|221:322|221:322|188:309|182:272,1,155,2|0,1:2|1:2,0:0:0:0:
271,186,17230,2,0,P|310:192|354:198,1,77.5,8|0,0:0|0:0,0:0:0:0:
458,90,17573,6,0,B|400:104|400:104|366:86|366:86|305:98,1,155,6|10,1:2|0:0,0:0:0:0:
196,133,18087,1,2,0:0:0:0:
196,133,18173,1,8,0:0:0:0:
196,133,18258,1,2,1:2:0:0:
310,192,18430,2,0,P|302:236|296:278,1,77.5,2|10,1:2|0:0,0:0:0:0:
171,359,18773,6,0,B|133:363|83:378|83:378|51:356|65:304,1,155,2|2,1:2|1:2,0:0:0:0:
104,229,19287,1,10,0:0:0:0:
222,271,19458,2,0,B|260:280|260:280|296:268,1,77.5,2|0,1:2|0:0,0:0:0:0:
444,219,19801,1,8,0:0:0:0:
300,159,19973,1,8,0:0:0:0:
286,164,20316,6,0,B|280:130|280:130|284:117|284:117|277:82,1,77.5,6|0,1:2|0:0,0:0:0:0:
189,3,20658,1,10,0:0:0:0:
183,110,20830,1,2,0:0:0:0:
183,110,20916,1,8,0:0:0:0:
183,110,21001,1,2,1:2:0:0:
276,72,21173,1,2,1:2:0:0:
115,48,21344,2,0,P|73:55|33:62,1,77.5,10|0,0:0|0:0,0:0:0:0:
114,214,21687,5,6,1:2:0:0:
183,110,21858,1,0,1:2:0:0:
62,140,22030,1,10,0:0:0:0:
205,197,22201,2,0,B|232:193|260:178|260:178|300:198|300:198|323:184|370:178,1,155,4|0,1:2|1:2,0:0:0:0:
473,184,22716,1,10,0:0:0:0:
387,315,22887,1,2,0:0:0:0:
387,315,22973,1,2,0:0:0:0:
387,315,23058,6,0,P|345:328|299:322,1,77.5,12|0,0:0|1:2,0:0:0:0:
191,294,23401,1,2,1:2:0:0:
277,187,23573,2,0,B|268:155|268:155|270:146|270:146|259:97,1,77.5,14|0,0:0|0:0,0:0:0:0:
151,56,23916,2,0,P|146:83|144:95,1,38.75,0|0,1:2|0:0,0:0:0:0:
136,177,24087,1,10,0:0:0:0:
136,177,24173,1,8,0:0:0:0:
136,177,24258,1,8,0:3:0:0:
7,90,24430,5,10,0:0:0:0:
69,231,24601,1,10,0:0:0:0:
144,94,24773,1,10,0:0:0:0:
144,94,25801,6,0,B|185:115|185:115|252:98,1,108.499996688843,6|2,1:2|1:2,0:0:0:0:
245,99,26487,1,2,1:2:0:0:
310,155,26658,2,0,P|305:184|302:211,1,54.2499983444214,2|0,0:0|1:2,0:0:0:0:
373,258,27001,6,0,P|407:240|480:251,1,108.499996688843,2|2,0:0|0:0,0:0:0:0:
512,331,27516,1,2,1:2:0:0:
512,331,27687,2,0,P|486:336|455:345,1,54.2499983444214,2|0,0:0|0:0,0:0:0:0:
374,364,28030,1,2,0:0:0:0:
305,311,28201,1,2,1:2:0:0:
373,258,28373,1,2,0:0:0:0:
304,205,28544,6,0,P|260:212|241:217,1,54.2499983444214,0|0,1:2|0:0,0:0:0:0:
180,266,28887,2,0,B|153:262|126:256,1,54.2499983444214,2|0,1:2|0:0,0:0:0:0:
61,206,29230,1,2,1:2:0:0:
61,206,29401,2,0,P|55:172|60:147,1,54.2499983444214,2|0,0:0|1:2,0:0:0:0:
131,105,29744,6,0,P|139:140|144:162,1,54.2499983444214,2|0,0:0|1:2,0:0:0:0:
209,78,30087,2,0,P|217:113|222:135,1,54.2499983444214,2|2,0:0|1:2,0:0:0:0:
288,52,30430,2,0,P|296:87|301:109,1,54.2499983444214,0|0,0:0|1:2,0:0:0:0:
361,167,30773,1,10,0:0:0:0:
402,90,30944,1,0,1:2:0:0:
463,153,31116,1,10,0:0:0:0:
422,229,31287,1,6,1:2:0:0:
422,229,31630,6,0,P|454:231|475:240,1,54.2499983444214,2|0,1:2|0:0,0:0:0:0:
431,315,31973,2,0,P|413:341|394:355,1,54.2499983444214,2|0,1:2|0:0,0:0:0:0:
351,280,32316,2,0,P|336:251|334:228,1,54.2499983444214,2|0,1:2|0:0,0:0:0:0:
285,157,32658,6,0,P|239:186|174:177,1,108.499996688843,2|2,1:2|1:2,0:0:0:0:
110,139,33173,2,0,P|81:144|46:150,1,54.2499983444214,2|0,0:0|1:2,0:0:0:0:
2,216,33516,1,2,0:0:0:0:
80,252,33687,2,0,P|75:281|69:316,1,54.2499983444214,2|2,1:2|0:0,0:0:0:0:
143,353,34030,6,0,P|195:370|254:342,2,108.499996688843,2|0|0,1:2|1:2|1:2,0:0:0:0:
252,218,35058,2,0,P|281:223|319:231,1,54.2499983444214,0|0,1:2|0:0,0:0:0:0:
426,258,35401,5,6,1:2:0:0:
327,114,36258,1,0,1:2:0:0:
217,135,36430,6,0,B|122:111|122:111|139:135|149:162,1,139.499995742798,14|0,0:0|0:0,0:0:0:0:
87,205,36773,6,0,P|50:195|10:208,1,69.749997871399,6|0,0:0|0:0,0:0:0:0:
120,317,37116,1,10,0:0:0:0:
180,235,37287,1,2,0:0:0:0:
180,235,37373,1,0,0:0:0:0:
180,235,37458,1,2,1:2:0:0:
257,305,37630,2,0,P|247:346|239:384,1,69.749997871399,2|8,1:2|0:0,0:0:0:0:
370,276,37973,6,0,P|373:238|363:204,1,69.749997871399,2|0,1:2|0:0,0:0:0:0:
226,158,38316,2,0,P|257:179|291:187,1,69.749997871399,2|8,1:2|0:0,0:0:0:0:
399,93,38658,2,0,P|364:109|340:135,1,69.749997871399,2|0,0:0|1:2,0:0:0:0:
482,142,39001,1,2,1:2:0:0:
465,31,39173,2,0,P|433:9|399:1,1,69.749997871399,8|2,0:0|0:0,0:0:0:0:
272,52,39516,6,0,P|199:39|130:29,1,139.499995742798,2|10,1:2|0:0,0:0:0:0:
53,93,40030,1,2,0:0:0:0:
53,93,40116,1,0,0:0:0:0:
53,93,40201,1,2,1:2:0:0:
152,125,40373,1,2,1:2:0:0:
120,25,40544,1,8,0:0:0:0:
82,174,40716,6,0,B|85:205|105:228|105:228|74:313,1,139.499995742798,2|2,1:2|1:2,0:0:0:0:
148,380,41230,1,10,0:0:0:0:
238,327,41401,2,0,P|232:291|222:243,1,69.749997871399,0|0,1:2|0:0,0:0:0:0:
280,152,41744,1,0,1:2:0:0:
377,220,41916,2,0,B|404:227|404:227|454:212,1,69.749997871399,8|0,0:0|0:0,0:0:0:0:
512,95,42258,5,6,1:2:0:0:
499,90,42601,2,0,P|504:58|490:18,1,69.749997871399,10|0,0:0|0:0,0:0:0:0:
390,0,42944,1,2,1:2:0:0:
324,82,43116,2,0,P|281:73|249:67,1,69.749997871399,2|8,1:2|0:0,0:0:0:0:
265,222,43458,6,0,B|276:201|276:201|262:146,1,69.749997871399,2|0,1:2|0:0,0:0:0:0:
167,81,43801,1,2,1:2:0:0:
156,236,43973,1,8,0:0:0:0:
74,160,44144,2,0,P|26:172|2:176,1,69.749997871399,2|0,1:2|0:0,0:0:0:0:
70,284,44487,1,2,1:2:0:0:
160,159,44658,1,8,0:0:0:0:
252,299,44830,6,0,B|284:292|301:285|301:285|333:297|333:297|355:288|396:279,1,139.499995742798,2|2,1:2|1:2,0:0:0:0:
499,201,45344,2,0,P|512:167|509:121,1,69.749997871399,8|2,0:0|0:0,0:0:0:0:
407,40,45687,1,2,1:2:0:0:
412,151,45858,1,0,1:2:0:0:
501,43,46030,1,8,0:0:0:0:
344,101,46201,1,2,1:2:0:0:
342,115,46544,5,10,0:0:0:0:
241,16,46716,1,10,0:0:0:0:
127,94,46887,1,10,0:0:0:0:
211,207,47058,2,0,P|204:244|186:358,1,139.499995742798,10|0,0:0|1:2,0:0:0:0:
187,359,47744,6,0,B|157:348|157:348|107:360,1,69.749997871399,6|0,0:0|0:0,0:0:0:0:
21,383,48087,1,10,0:1:0:0:
21,383,48258,1,0,1:2:0:0:
53,283,48430,2,0,P|47:249|40:210,1,69.749997871399,2|2,1:2|0:0,0:0:0:0:
20,111,48773,1,10,0:1:0:0:
119,141,48944,6,0,P|186:148|250:100,1,139.499995742798,2|2,1:2|1:2,0:0:0:0:
337,60,49458,1,10,0:1:0:0:
337,60,49630,2,0,P|331:103|329:130,1,69.749997871399,2|0,1:2|0:0,0:0:0:0:
316,233,49973,1,10,0:1:0:0:
413,196,50144,2,0,P|449:194|485:205,1,69.749997871399,10|2,0:1|0:0,0:0:0:0:
468,307,50487,6,0,P|432:309|396:298,1,69.749997871399,2|0,1:2|0:0,0:0:0:0:
316,233,50830,1,10,0:1:0:0:
316,233,51001,1,0,1:2:0:0:
242,308,51173,2,0,P|198:299|167:294,1,69.749997871399,2|2,1:2|0:0,0:0:0:0:
71,272,51516,1,10,0:1:0:0:
16,183,51687,6,0,P|1:113|39:46,1,139.499995742798,2|2,1:2|1:2,0:0:0:0:
126,13,52201,1,10,0:1:0:0:
180,114,52373,1,2,0:0:0:0:
180,114,52458,1,8,0:0:0:0:
180,114,52544,1,0,1:2:0:0:
238,10,52716,1,10,0:1:0:0:
120,28,52887,1,10,0:1:0:0:
278,105,53058,6,0,B|311:100|332:90|332:90|372:111|372:111|396:98|432:96,1,155,6|2,1:2|1:2,0:0:0:0:
500,232,53573,1,10,0:0:0:0:
378,207,53744,1,2,1:2:0:0:
508,123,53916,2,0,P|510:83|496:46,1,77.5,10|0,0:0|0:0,0:0:0:0:
382,2,54258,1,8,0:0:0:0:
258,108,54430,6,0,B|162:81|162:81|131:97|125:133,1,155,2|2,1:2|1:2,0:0:0:0:
162,289,54944,1,10,0:0:0:0:
267,199,55116,1,2,1:2:0:0:
248,344,55287,1,10,0:3:0:0:
179,199,55458,1,2,0:0:0:0:
179,199,55544,1,0,0:0:0:0:
179,199,55630,1,8,0:0:0:0:
325,285,55801,6,0,B|414:265|414:265|446:292|491:292,1,155,6|2,0:0|1:2,0:0:0:0:
474,134,56316,2,0,P|435:127|392:119,1,77.5,10|2,0:0|1:2,0:0:0:0:
229,97,56658,1,10,0:0:0:0:
368,29,56830,1,2,1:2:0:0:
299,184,57001,1,10,0:0:0:0:
130,123,57173,6,0,B|92:132|92:132|55:123,1,77.5,2|0,1:2|0:0,0:0:0:0:
238,6,57516,1,8,0:0:0:0:
211,181,57687,1,10,0:0:0:0:
218,188,58201,5,0,1:2:0:0:
218,188,58287,1,0,1:2:0:0:
218,188,58373,2,0,B|248:188|261:184|261:184|285:197|285:197|313:186|313:186|330:194|361:197,1,139.499995742798,10|0,0:0|0:0,0:0:0:0:
426,166,58716,6,0,B|442:194|442:194|425:249,1,85.2500026016236,6|0,1:2|0:0,0:0:0:0:
348,93,59058,1,10,0:0:0:0:
500,109,59230,1,2,0:0:0:0:
500,109,59316,1,8,0:0:0:0:
500,109,59401,1,2,1:2:0:0:
350,195,59573,2,0,P|304:199|265:186,1,85.2500026016236,0|8,1:2|0:0,0:0:0:0:
110,119,59916,6,0,B|69:144|69:144|47:215|92:284,1,170.500005203247,6|2,1:2|1:2,0:0:0:0:
149,360,60430,1,8,0:0:0:0:
274,268,60601,2,0,B|283:229|283:229|267:187,1,85.2500026016236,6|0,1:2|0:0,0:0:0:0:
181,48,60944,1,2,1:2:0:0:
337,92,61116,2,0,P|383:78|429:69,1,85.2500026016236,8|0,0:0|0:0,0:0:0:0:
480,234,61458,6,0,P|429:236|392:225,1,85.2500026016236,6|0,1:2|0:0,0:0:0:0:
261,172,61801,1,10,0:0:0:0:
342,324,61973,1,2,0:0:0:0:
342,324,62058,1,8,0:0:0:0:
342,324,62144,1,2,1:2:0:0:
186,275,62316,2,0,P|142:281|95:290,1,85.2500026016236,0|8,1:2|0:0,0:0:0:0:
169,125,62658,6,0,B|270:148|270:148|292:122|336:101,1,170.500005203247,6|2,1:2|1:2,0:0:0:0:
460,58,63173,1,8,0:0:0:0:
292,27,63344,2,0,B|254:31|254:31|246:37|246:37|192:44,1,85.2500026016236,6|0,1:2|0:0,0:0:0:0:
56,63,63687,1,2,1:2:0:0:
150,204,63858,1,8,0:0:0:0:
147,214,63944,1,8,0:3:0:0:
145,224,64030,2,0,P|150:251|154:271,1,42.6250013008118,8|0,0:3|0:0,0:0:0:0:
168,349,64201,6,0,P|210:351|261:330,1,85.2500026016236,6|0,1:2|0:0,0:0:0:0:
349,242,64544,2,0,P|308:228|266:230,1,85.2500026016236,10|0,0:0|0:0,0:0:0:0:
442,264,64887,2,0,P|434:221|421:167,1,85.2500026016236,2|0,1:2|0:0,0:0:0:0:
329,59,65230,2,0,P|319:100|311:142,1,85.2500026016236,10|0,0:0|0:0,0:0:0:0:
145,224,65573,5,6,1:2:0:0:
216,79,65744,1,0,1:2:0:0:
266,230,65916,1,10,0:0:0:0:
121,125,66087,2,0,B|15:155|15:155|48:84,1,170.500005203247,6|0,1:2|1:2,0:0:0:0:
216,62,66601,1,8,0:0:0:0:
145,224,66773,6,0,B|154:257|154:257|151:273|151:273|162:310,1,85.2500026016236,6|0,1:2|0:0,0:0:0:0:
289,354,67116,1,10,0:0:0:0:
289,354,67201,1,8,0:0:0:0:
289,354,67287,2,0,P|333:331|372:332,1,85.2500026016236,10|10,0:0|0:0,0:0:0:0:
420,270,67544,1,8,0:0:0:0:
420,270,67630,2,0,P|377:249|330:248,1,85.2500026016236,10|10,0:0|0:0,0:0:0:0:
265,270,67887,1,8,0:0:0:0:
265,270,67973,2,0,P|261:244|266:216,1,42.6250013008118,10|0,0:0|0:0,0:0:0:0:
320,137,68144,6,0,B|361:149|361:149|402:136,1,85.2500026016236,6|0,1:2|0:0,0:0:0:0:
208,66,68487,1,8,0:0:0:0:
262,227,68658,1,10,0:0:0:0:
308,35,68830,1,0,0:0:0:0:
187,155,69001,6,0,P|144:146|80:135,1,85.2500026016236,10|0,0:0|1:2,0:0:0:0:
4,276,69344,2,0,P|58:261|154:243,1,127.875003902435,10|0,0:0|0:0,0:0:0:0:
209,239,69687,6,0,B|250:252|250:252|292:238,1,85.2500026016236,6|0,1:2|0:0,0:0:0:0:
445,166,70030,1,10,0:0:0:0:
304,134,70201,1,2,0:0:0:0:
304,134,70287,1,8,0:0:0:0:
304,134,70373,1,2,1:2:0:0:
401,273,70544,2,0,P|390:331|385:369,1,85.2500026016236,0|8,1:2|0:0,0:0:0:0:
215,365,70887,6,0,B|186:352|160:331|160:331|115:377|52:364,1,170.500005203247,6|2,1:2|1:2,0:0:0:0:
0,266,71401,1,8,0:0:0:0:
140,203,71573,2,0,B|152:176|152:176|137:113,1,85.2500026016236,6|0,1:2|0:0,0:0:0:0:
83,266,71916,1,2,1:2:0:0:
233,206,72087,2,0,P|268:212|324:222,1,85.2500026016236,8|0,0:0|0:0,0:0:0:0:
431,105,72430,6,0,P|389:112|347:119,1,85.2500026016236,6|0,1:2|0:0,0:0:0:0:
507,32,72773,1,10,0:0:0:0:
462,198,72944,1,2,0:0:0:0:
462,198,73030,1,8,0:0:0:0:
462,198,73116,1,2,1:2:0:0:
417,17,73287,2,0,P|375:24|333:31,1,85.2500026016236,0|8,1:2|0:0,0:0:0:0:
216,156,73630,6,0,B|210:194|198:211|198:211|224:257|224:257|213:274|201:327,1,170.500005203247,6|2,1:2|1:2,0:0:0:0:
129,159,74144,1,8,0:0:0:0:
293,205,74316,2,0,P|336:214|386:198,1,85.2500026016236,6|0,1:2|0:0,0:0:0:0:
507,126,74658,1,2,1:2:0:0:
332,121,74830,1,10,0:0:0:0:
454,29,75001,1,2,1:2:0:0:
499,220,75173,6,0,B|466:309|466:309|494:335|502:378,1,170.500005203247,6|10,1:2|0:0,0:0:0:0:
349,351,75687,1,2,0:0:0:0:
349,351,75773,1,8,0:0:0:0:
349,351,75858,2,0,P|338:305|348:260,1,85.2500026016236,2|0,1:2|1:2,0:0:0:0:
413,130,76201,1,8,0:0:0:0:
252,189,76373,6,0,B|219:189|192:178|192:178|146:197|146:197|121:181|75:181,1,170.500005203247,6|2,1:2|1:2,0:0:0:0:
0,310,76887,1,8,0:0:0:0:
95,381,77058,2,0,P|174:355|263:341,1,170.500005203247,6|2,1:2|1:2,0:0:0:0:
432,343,77573,2,0,P|437:287|425:252,1,85.2500026016236,8|0,0:0|1:2,0:0:0:0:
321,126,77916,5,14,0:0:0:0:
336,261,78087,1,2,1:2:0:0:
435,166,78258,1,2,1:2:0:0:
250,200,78430,2,0,P|209:189|158:181,1,85.2500026016236,14|0,0:0|0:0,0:0:0:0:
32,161,78773,1,2,1:2:0:0:
120,272,78944,1,10,0:0:0:0:
219,90,79116,6,0,B|232:59|232:59|218:2,1,85.2500026016236,6|0,1:2|0:0,0:0:0:0:
106,112,79458,1,2,1:2:0:0:
252,189,79630,2,0,P|293:178|341:170,1,85.2500026016236,2|0,1:2|0:0,0:0:0:0:
479,223,79973,1,10,0:3:0:0:
495,250,80058,1,8,0:3:0:0:
503,281,80144,1,8,0:3:0:0:
501,312,80230,1,8,0:3:0:0:
489,342,80316,2,0,P|447:334|405:323,1,85.2500026016236,14|0,0:0|0:0,0:0:0:0:
243,284,80658,6,0,B|196:297|161:308|161:308|138:295|114:264,1,139.499995742798,6|0,1:2|0:0,0:0:0:0:
66,181,81173,1,0,1:2:0:0:
169,170,81344,2,0,P|203:174|242:180,1,69.749997871399,0|0,1:2|0:0,0:0:0:0:
326,236,81687,2,0,P|360:232|399:226,1,69.749997871399,10|0,0:0|0:0,0:0:0:0:
497,166,82030,6,0,P|512:98|481:26,1,139.499995742798,2|0,1:2|0:0,0:0:0:0:
372,5,82544,1,0,1:2:0:0:
304,102,82716,2,0,P|262:91|236:86,1,69.749997871399,2|0,1:2|0:0,0:0:0:0:
118,102,83058,1,8,0:0:0:0:
238,179,83230,6,0,B|246:208|246:208|234:254,1,69.749997871399,2|0,1:2|0:0,0:0:0:0:
206,384,83573,1,8,0:0:0:0:
152,257,83744,1,8,0:0:0:0:
305,325,83916,1,8,0:0:0:0:
97,361,84087,5,8,0:0:0:0:
236,246,84258,1,8,0:0:0:0:
52,230,84430,1,8,0:0:0:0:
206,384,84601,1,8,0:0:0:0:
343,136,84944,5,0,1:2:0:0:
400,244,85116,1,10,0:0:0:0:
400,244,85201,1,8,0:0:0:0:
400,244,85287,2,0,L|455:234,1,38.75,0|0,1:2|0:0,0:0:0:0:
497,174,85458,5,10,0:0:0:0:
507,149,85543,1,8,0:0:0:0:
508,121,85629,1,0,1:2:0:0:
499,95,85715,1,8,0:0:0:0:
481,72,85801,2,0,P|439:79|394:64,1,77.5,10|8,0:0|0:0,0:0:0:0:
333,33,86058,1,8,0:0:0:0:
333,33,86144,6,0,B|293:47|293:47|240:33,1,77.5,6|0,1:2|0:0,0:0:0:0:
122,12,86487,1,10,0:0:0:0:
161,114,86658,1,2,0:0:0:0:
161,114,86744,1,8,0:0:0:0:
161,114,86830,2,0,P|150:158|142:201,1,77.5,2|2,1:2|1:2,0:0:0:0:
124,312,87173,1,10,0:0:0:0:
242,276,87344,6,0,B|272:285|294:303|294:303|332:268|389:271,1,155,2|2,1:2|1:2,0:0:0:0:
505,286,87858,1,10,0:0:0:0:
424,152,88030,2,0,B|381:157|333:176|333:176|299:157|288:117,1,155,2|0,1:2|1:2,0:0:0:0:
348,2,88544,2,0,P|364:37|362:76,1,77.5,8|0,0:0|0:0,0:0:0:0:
207,148,88887,6,0,B|99:125|99:125|111:140|126:175,1,155,6|10,1:2|0:0,0:0:0:0:
129,295,89401,1,2,0:0:0:0:
129,295,89487,1,8,0:0:0:0:
129,295,89573,1,2,1:2:0:0:
244,250,89744,2,0,P|281:262|322:255,1,77.5,2|10,1:2|0:0,0:0:0:0:
462,198,90087,6,0,B|490:293|490:293|458:310|443:329,1,155,2|2,1:2|1:2,0:0:0:0:
333,381,90601,1,10,0:0:0:0:
244,250,90773,2,0,P|250:205|258:161,1,77.5,2|0,1:2|0:0,0:0:0:0:
275,19,91116,1,8,0:0:0:0:
142,97,91287,1,8,0:0:0:0:
133,109,91630,6,0,B|148:145|148:145|138:185,1,77.5,6|0,1:2|0:0,0:0:0:0:
102,301,91973,1,10,0:0:0:0:
27,216,92144,1,2,0:0:0:0:
27,216,92230,1,8,0:0:0:0:
27,216,92316,1,2,1:2:0:0:
0,336,92487,1,2,1:2:0:0:
109,287,92658,2,0,P|146:296|187:290,1,77.5,10|0,0:0|0:0,0:0:0:0:
326,227,93001,5,6,1:2:0:0:
266,336,93173,1,0,1:2:0:0:
241,214,93344,1,10,0:0:0:0:
358,315,93516,2,0,B|452:345|452:345|470:329|485:293,1,155,4|0,1:2|1:2,0:0:0:0:
509,145,94030,1,10,0:0:0:0:
401,231,94201,1,2,0:0:0:0:
401,231,94287,1,2,0:0:0:0:
401,231,94373,6,0,P|353:234|311:219,1,77.5,12|0,0:0|1:2,0:0:0:0:
210,177,94716,1,2,1:2:0:0:
117,259,94887,2,0,B|106:296|106:296|121:350,1,77.5,14|0,0:0|0:0,0:0:0:0:
230,384,95230,2,0,P|234:365|237:345,1,38.75,0|0,1:2|0:0,0:0:0:0:
256,272,95401,1,10,0:0:0:0:
256,272,95487,1,8,0:0:0:0:
256,272,95573,1,8,0:3:0:0:
377,367,95744,5,10,0:0:0:0:
360,204,95916,1,10,0:0:0:0:
489,301,96087,1,10,0:0:0:0:
489,301,97116,6,0,B|445:277|445:277|370:291,1,108.499996688843,6|2,1:2|1:2,0:0:0:0:
387,287,97801,1,2,1:2:0:0:
307,250,97973,2,0,P|301:220|309:184,1,54.2499983444214,2|0,0:0|1:2,0:0:0:0:
336,115,98316,1,2,0:0:0:0:
413,75,98487,6,0,P|439:79|468:85,2,54.2499983444214,0|2|2,1:2|0:0|1:2,0:0:0:0:
346,18,99001,2,0,P|319:23|292:27,1,54.2499983444214,2|0,0:0|0:0,0:0:0:0:
208,48,99344,1,2,0:0:0:0:
238,129,99516,1,2,1:2:0:0:
154,150,99687,1,2,0:0:0:0:
124,69,99858,1,0,1:2:0:0:
124,69,100201,6,0,P|82:65|66:68,1,54.2499983444214,2|2,1:2|0:0,0:0:0:0:
2,120,100544,1,2,1:2:0:0:
64,181,100716,2,0,P|56:226|53:244,1,54.2499983444214,2|0,0:0|1:2,0:0:0:0:
110,300,101058,6,0,P|135:295|165:300,1,54.2499983444214,2|0,0:0|0:0,0:0:0:0:
221,234,101401,2,0,P|237:253|248:281,1,54.2499983444214,2|2,0:0|1:2,0:0:0:0:
228,364,101744,1,10,0:0:0:0:
314,377,101916,2,0,P|346:366|381:359,1,54.2499983444214,0|10,0:0|0:0,0:0:0:0:
455,352,102258,1,0,1:2:0:0:
455,352,102430,1,2,1:2:0:0:
499,277,102601,6,0,B|506:251|506:251|497:218,1,54.2499983444214,6|0,1:2|0:0,0:0:0:0:
426,176,102944,2,0,P|397:186|371:186,1,54.2499983444214,2|0,1:2|0:0,0:0:0:0:
291,157,103287,2,0,P|296:126|309:104,1,54.2499983444214,2|0,1:2|0:0,0:0:0:0:
375,50,103630,2,0,P|398:70|411:92,1,54.2499983444214,2|0,1:2|0:0,0:0:0:0:
426,176,103973,6,0,P|419:204|412:242,1,54.2499983444214,2|2,1:2|0:0,0:0:0:0:
365,301,104316,1,2,1:2:0:0:
298,245,104487,2,0,P|266:241|236:251,1,54.2499983444214,2|0,0:0|1:2,0:0:0:0:
164,278,104830,2,0,P|171:306|178:344,1,54.2499983444214,10|2,0:0|1:2,0:0:0:0:
102,378,105173,1,10,0:0:0:0:
21,346,105344,6,0,P|7:295|28:232,1,108.499996688843,2|0,1:2|1:2,0:0:0:0:
69,170,105858,1,8,0:0:0:0:
152,194,106030,2,0,P|177:189|211:184,1,54.2499983444214,0|8,1:2|0:3,0:0:0:0:
291,170,106373,1,0,1:2:0:0:
230,107,106544,1,8,0:3:0:0:
261,250,106716,5,6,1:2:0:0:
268,257,107573,1,0,1:2:0:0:
268,257,107658,1,0,1:2:0:0:
268,257,107744,2,0,B|296:263|315:280|315:280|350:247|398:255,1,139.499995742798,14|0,0:0|0:0,0:0:0:0:
469,271,108087,6,0,B|479:246|479:246|466:187,1,69.749997871399,6|0,0:0|0:0,0:0:0:0:
398,118,108430,2,0,P|364:125|328:117,1,69.749997871399,10|2,0:0|0:0,0:0:0:0:
256,33,108773,1,2,1:2:0:0:
194,125,108944,2,0,P|204:174|209:198,1,69.749997871399,2|8,1:2|0:0,0:0:0:0:
161,295,109287,6,0,P|123:310|79:308,1,69.749997871399,2|0,1:2|0:0,0:0:0:0:
33,216,109630,2,0,P|71:201|115:203,1,69.749997871399,2|8,1:2|0:0,0:0:0:0:
211,210,109973,2,0,P|245:202|284:195,1,69.749997871399,2|0,0:0|1:2,0:0:0:0:
350,282,110316,2,0,P|316:290|277:297,1,69.749997871399,2|8,1:2|0:0,0:0:0:0:
386,376,110658,1,2,0:0:0:0:
468,299,110830,6,0,P|486:249|459:160,2,139.499995742798,2|10|2,1:2|0:0|1:2,0:0:0:0:
386,376,111687,1,2,1:2:0:0:
348,271,111858,1,8,0:0:0:0:
252,373,112030,6,0,B|223:368|200:357|200:357|166:371|166:371|142:359|103:354,1,139.499995742798,2|2,1:2|1:2,0:0:0:0:
8,362,112544,1,10,0:0:0:0:
54,260,112716,2,0,P|48:225|40:180,1,69.749997871399,0|0,1:2|0:0,0:0:0:0:
27,80,113058,1,0,1:2:0:0:
125,132,113230,2,0,P|159:135|205:122,1,69.749997871399,8|0,0:0|0:0,0:0:0:0:
323,75,113573,6,0,B|318:52|318:52|321:35|321:35|312:1,1,69.749997871399,6|0,1:2|0:0,0:0:0:0:
426,78,113916,2,0,P|419:118|413:151,1,69.749997871399,10|2,0:0|0:0,0:0:0:0:
397,256,114258,1,2,1:2:0:0:
301,197,114430,2,0,P|267:194|221:207,1,69.749997871399,2|8,1:2|0:0,0:0:0:0:
166,325,114773,6,0,B|192:325|218:315|218:315|254:330|254:330|279:323|314:322,1,139.499995742798,2|2,1:2|1:2,0:0:0:0:
408,352,115287,1,8,0:0:0:0:
503,294,115458,2,0,P|507:253|496:219,1,69.749997871399,2|0,1:2|0:0,0:0:0:0:
400,187,115801,2,0,P|391:220|396:255,1,69.749997871399,2|8,1:2|0:0,0:0:0:0:
475,105,116144,6,0,B|435:71|435:71|338:93,1,139.499995742798,2|2,1:2|1:2,0:0:0:0:
260,157,116658,2,0,P|227:150|190:143,1,69.749997871399,8|2,0:0|0:0,0:0:0:0:
54,115,117001,1,2,1:2:0:0:
154,66,117173,1,0,1:2:0:0:
106,189,117344,1,8,0:0:0:0:
71,24,117516,1,2,1:2:0:0:
76,39,117858,5,10,0:0:0:0:
191,143,118030,1,10,0:0:0:0:
264,7,118201,1,10,0:0:0:0:
379,111,118373,2,0,P|363:182|346:272,1,155,10|0,0:0|1:2,0:0:0:0:
344,276,119058,6,0,B|312:273|312:273|303:275|303:275|263:271,1,69.749997871399,6|0,0:0|0:0,0:0:0:0:
173,270,119401,1,10,0:1:0:0:
173,270,119573,1,0,1:2:0:0:
227,180,119744,2,0,P|222:148|213:101,1,69.749997871399,2|2,1:2|0:0,0:0:0:0:
161,20,120087,1,10,0:1:0:0:
77,83,120258,6,0,P|56:146|91:227,1,139.499995742798,2|2,1:2|1:2,0:0:0:0:
173,270,120773,1,10,0:1:0:0:
173,270,120944,2,0,P|168:301|165:340,1,69.749997871399,2|0,1:2|0:0,0:0:0:0:
262,379,121287,1,10,0:1:0:0:
304,283,121458,2,0,P|335:278|374:275,1,69.749997871399,10|2,0:1|0:0,0:0:0:0:
478,268,121801,6,0,P|484:235|473:187,1,69.749997871399,2|0,1:2|0:0,0:0:0:0:
450,103,122144,1,10,0:1:0:0:
450,103,122316,1,0,1:2:0:0:
370,170,122487,2,0,P|337:176|289:165,1,69.749997871399,2|2,1:2|0:0,0:0:0:0:
212,115,122830,1,10,0:1:0:0:
143,194,123001,6,0,B|156:269|153:253|167:338,1,139.499995742798,2|2,1:2|1:2,0:0:0:0:
73,383,123516,1,10,0:1:0:0:
4,304,123687,2,0,P|0:267|7:230,1,69.749997871399,2|0,0:0|1:2,0:0:0:0:
33,139,124030,1,10,0:1:0:0:
33,139,124116,1,8,0:0:0:0:
33,139,124201,1,10,0:1:0:0:
167,195,124373,6,0,B|200:190|221:180|221:180|261:201|261:201|285:188|321:186,1,155,6|2,1:2|1:2,0:0:0:0:
339,191,124801,1,0,0:0:0:0:
339,191,124887,2,0,P|325:228|328:268,1,77.5,10|2,0:0|1:2,0:0:0:0:
413,377,125230,1,10,0:0:0:0:
490,255,125401,2,0,P|455:240|417:242,1,77.5,2|8,0:0|0:0,0:0:0:0:
275,338,125744,6,0,B|218:325|218:325|179:342|179:342|108:322,1,155,2|2,1:2|1:2,0:0:0:0:
38,199,126258,1,10,0:0:0:0:
170,250,126430,1,2,1:2:0:0:
170,250,126516,1,0,1:2:0:0:
170,250,126601,1,10,0:3:0:0:
40,304,126773,1,2,0:0:0:0:
123,155,126944,1,8,0:0:0:0:
270,241,127116,6,0,B|322:252|366:215|366:215|385:230|421:244,1,155,6|2,0:0|1:2,0:0:0:0:
504,116,127630,2,0,P|509:77|490:29,1,77.5,10|2,0:0|1:2,0:0:0:0:
337,12,127973,1,10,0:0:0:0:
437,164,128144,1,2,1:2:0:0:
437,164,128230,1,8,0:0:0:0:
437,164,128316,1,10,0:0:0:0:
437,164,128401,1,8,0:0:0:0:
437,164,128487,5,2,1:2:0:0:
444,171,129516,5,0,1:2:0:0:
444,171,129601,1,0,1:2:0:0:
444,171,129687,2,0,B|417:169|398:162|398:162|381:169|359:184|359:184|337:174|305:173,1,139.499995742798,10|0,0:0|0:0,0:0:0:0:
231,167,130030,6,0,B|215:195|215:195|232:250,1,85.2500026016236,6|0,1:2|0:0,0:0:0:0:
307,379,130373,1,10,0:0:0:0:
382,278,130544,1,2,0:0:0:0:
382,278,130630,1,8,0:0:0:0:
382,278,130716,1,2,1:2:0:0:
232,338,130887,2,0,P|192:328|148:320,1,85.2500026016236,0|8,1:2|0:0,0:0:0:0:
68,171,131230,6,0,B|126:159|126:159|170:181|170:181|239:164,1,170.500005203247,6|2,1:2|1:2,0:0:0:0:
346,138,131744,1,8,0:0:0:0:
234,257,131916,2,0,B|219:297|219:297|234:345,1,85.2500026016236,6|0,1:2|0:0,0:0:0:0:
389,372,132258,1,2,1:2:0:0:
328,221,132430,2,0,P|336:184|345:137,1,85.2500026016236,8|0,0:0|0:0,0:0:0:0:
512,168,132773,6,0,P|467:175|424:159,1,85.2500026016236,6|0,1:2|0:0,0:0:0:0:
279,81,133116,1,10,0:0:0:0:
438,77,133287,1,2,0:0:0:0:
438,77,133373,1,8,0:0:0:0:
438,77,133458,1,2,1:2:0:0:
328,221,133630,2,0,P|337:260|350:311,1,85.2500026016236,0|8,1:2|0:0,0:0:0:0:
190,371,133973,6,0,B|144:334|88:341|88:341|68:376|31:385,1,170.500005203247,6|2,1:2|1:2,0:0:0:0:
4,232,134487,1,8,0:0:0:0:
152,193,134658,2,0,B|168:158|168:158|147:91,1,85.2500026016236,6|0,1:2|0:0,0:0:0:0:
27,26,135001,1,2,1:2:0:0:
68,174,135173,1,8,0:0:0:0:
138,23,135344,1,8,0:3:0:0:
138,23,135430,1,8,0:3:0:0:
138,23,135516,6,0,P|182:28|224:32,1,85.2500026016236,6|0,1:2|0:0,0:0:0:0:
346,121,135858,2,0,P|303:125|261:129,1,85.2500026016236,10|0,0:0|0:0,0:0:0:0:
138,223,136201,2,0,P|126:266|138:318,1,85.2500026016236,2|0,1:2|0:0,0:0:0:0:
273,366,136544,2,0,P|285:323|273:271,1,85.2500026016236,10|0,0:0|0:0,0:0:0:0:
243,133,136887,5,6,1:2:0:0:
382,230,137058,1,0,1:2:0:0:
316,72,137230,1,10,0:0:0:0:
218,220,137401,2,0,B|169:211|120:194|120:194|93:219|50:225,1,170.500005203247,6|0,1:2|1:2,0:0:0:0:
229,123,137916,1,8,0:0:0:0:
284,283,138087,6,0,B|279:309|270:325|270:325|283:340|291:368,1,85.2500026016236,6|0,1:2|0:0,0:0:0:0:
454,282,138430,1,10,0:0:0:0:
454,282,138516,1,8,0:0:0:0:
454,282,138601,2,0,P|461:239|446:193,1,85.2500026016236,10|10,0:0|0:0,0:0:0:0:
374,184,138858,1,8,0:0:0:0:
374,184,138944,2,0,P|366:142|378:101,1,85.2500026016236,10|10,0:0|0:0,0:0:0:0:
457,78,139201,1,8,0:0:0:0:
457,78,139287,2,0,P|450:53|446:37,1,42.6250013008118,10|0,0:0|0:0,0:0:0:0:
342,12,139458,6,0,B|320:17|301:29|301:29|282:18|250:16,1,85.2500026016236,6|0,1:2|0:0,0:0:0:0:
104,72,139801,1,8,0:0:0:0:
258,136,139973,1,10,0:0:0:0:
170,3,140144,1,0,1:2:0:0:
54,162,140316,6,0,P|67:202|76:255,1,85.2500026016236,10|0,0:0|1:2,0:0:0:0:
210,346,140658,2,0,P|220:283|241:214,1,127.875003902435,10|0,0:0|0:0,0:0:0:0:
312,189,141001,6,0,B|355:205|355:205|406:191,1,85.2500026016236,6|0,1:2|0:0,0:0:0:0:
494,56,141344,1,10,0:0:0:0:
360,98,141516,1,2,0:0:0:0:
360,98,141601,1,8,0:0:0:0:
360,98,141687,1,2,1:2:0:0:
511,175,141858,2,0,P|501:220|494:259,1,85.2500026016236,0|8,1:2|0:0,0:0:0:0:
378,360,142201,6,0,B|335:323|275:330|275:330|259:364|226:373,1,170.500005203247,6|2,1:2|1:2,0:0:0:0:
96,358,142716,1,8,0:0:0:0:
175,207,142887,2,0,B|216:221|216:221|256:209,1,85.2500026016236,6|0,1:2|0:0,0:0:0:0:
405,169,143230,1,2,1:2:0:0:
261,94,143401,2,0,P|218:100|167:108,1,85.2500026016236,8|0,0:0|0:0,0:0:0:0:
18,171,143744,6,0,B|5:210|5:210|18:259,1,85.2500026016236,6|0,1:2|0:0,0:0:0:0:
108,376,144087,1,10,0:0:0:0:
176,233,144258,1,2,0:0:0:0:
176,233,144344,1,8,0:0:0:0:
176,233,144430,1,2,1:2:0:0:
279,357,144601,2,0,P|323:359|363:343,1,85.2500026016236,0|8,1:2|0:0,0:0:0:0:
407,179,144944,6,0,B|301:147|301:147|271:164|259:204,1,170.500005203247,6|2,1:2|1:2,0:0:0:0:
417,265,145458,1,8,0:0:0:0:
427,94,145630,2,0,P|379:72|337:69,1,85.2500026016236,6|0,1:2|0:0,0:0:0:0:
176,83,145973,1,2,1:2:0:0:
261,199,146144,1,10,0:0:0:0:
267,209,146230,1,8,0:0:0:0:
274,219,146316,2,0,P|270:247|268:266,1,42.6250013008118,2|0,1:2|0:0,0:0:0:0:
251,345,146487,6,0,B|208:315|157:327|157:327|125:360|86:356,1,170.500005203247,6|10,1:2|0:0,0:0:0:0:
17,214,147001,1,2,0:0:0:0:
17,214,147087,1,8,0:0:0:0:
17,214,147173,2,0,P|9:167|23:126,1,85.2500026016236,2|0,1:2|1:2,0:0:0:0:
97,19,147516,1,8,0:0:0:0:
195,166,147687,6,0,B|248:177|296:195|296:195|313:175|354:151,1,170.500005203247,6|2,1:2|1:2,0:0:0:0:
494,109,148201,1,8,0:0:0:0:
405,25,148373,2,0,B|310:9|339:82|246:64,1,170.500005203247,6|2,1:2|1:2,0:0:0:0:
105,124,148887,2,0,P|112:164|121:218,1,85.2500026016236,8|0,0:0|1:2,0:0:0:0:
247,321,149230,5,14,0:0:0:0:
213,189,149401,1,2,1:2:0:0:
131,295,149573,1,2,1:2:0:0:
294,248,149744,2,0,P|332:254|387:265,1,85.2500026016236,14|0,0:0|0:0,0:0:0:0:
486,359,150087,1,2,1:2:0:0:
342,373,150258,1,10,0:0:0:0:
474,251,150430,6,0,B|487:219|487:219|471:159,1,85.2500026016236,6|0,1:2|0:0,0:0:0:0:
308,44,150773,1,2,1:2:0:0:
344,237,150944,1,2,1:2:0:0:
460,84,151116,1,0,1:2:0:0:
253,112,151287,5,10,0:3:0:0:
473,170,151458,1,8,0:3:0:0:
473,170,151544,1,8,0:3:0:0:
473,170,151630,1,8,0:3:0:0:
392,32,151801,1,0,1:2:0:0:
319,158,151973,6,0,B|264:146|264:146|237:160|237:160|171:145,1,139.499995742798,6|0,1:2|0:0,0:0:0:0:
81,131,152487,1,0,1:2:0:0:
9,206,152658,2,0,P|1:241|7:277,1,69.749997871399,0|0,1:2|0:0,0:0:0:0:
105,241,153001,2,0,P|131:265|165:278,1,69.749997871399,10|0,0:0|0:0,0:0:0:0:
281,236,153344,6,0,B|351:228|344:286|417:275,1,139.499995742798,2|0,1:2|0:0,0:0:0:0:
507,195,153858,1,0,1:2:0:0:
412,109,154030,2,0,B|398:140|398:140|405:176,1,69.749997871399,2|0,1:2|0:0,0:0:0:0:
503,63,154373,1,8,0:0:0:0:
354,25,154544,6,0,P|316:32|275:39,1,69.749997871399,2|0,1:2|0:0,0:0:0:0:
156,158,154887,1,8,0:0:0:0:
320,154,155058,1,8,0:0:0:0:
175,57,155230,1,8,0:0:0:0:
235,243,155401,5,8,0:0:0:0:
71,143,155573,1,8,0:0:0:0:
246,113,155744,1,8,0:0:0:0:
139,285,155916,2,0,P|103:279|56:270,1,69.749997871399,8|0,0:0|0:0,0:0:0:0:
240,210,156258,5,0,1:2:0:0:
302,317,156430,2,0,L|289:371,2,38.75,2|8|8,0:0|0:0|0:0,0:0:0:0:
403,242,156773,5,10,0:0:0:0:
403,242,156858,1,8,0:0:0:0:
403,242,156944,1,8,0:0:0:0:
403,242,157030,1,8,0:0:0:0:
403,242,157116,2,0,P|397:217|395:202,1,38.75,10|8,0:0|0:0,0:0:0:0:
331,152,157287,2,0,P|337:127|339:112,1,38.75,8|0,0:3|0:0,0:0:0:0:
327,21,157458,6,0,B|304:25|290:33|290:33|275:25|249:22,1,77.5,6|0,1:2|0:0,0:0:0:0:
117,87,157801,2,0,P|107:120|125:182,1,77.5,10|2,0:0|0:0,0:0:0:0:
169,272,158144,1,2,1:2:0:0:
215,156,158316,1,2,1:2:0:0:
92,237,158487,1,10,0:0:0:0:
254,287,158658,1,2,1:2:0:0:
163,383,158830,6,0,P|103:355|8:344,1,155,2|10,0:0|0:0,0:0:0:0:
2,212,159344,2,0,P|6:171|22:127,1,77.5,2|0,0:0|0:0,0:0:0:0:
78,19,159687,1,2,1:2:0:0:
102,148,159858,1,10,0:0:0:0:
6,56,160030,1,2,0:0:0:0:
135,77,160201,6,0,P|174:70|216:62,1,77.5,2|0,1:2|0:0,0:0:0:0:
315,167,160544,2,0,P|276:160|234:152,1,77.5,10|2,0:0|0:0,0:0:0:0:
375,96,160887,1,2,1:2:0:0:
397,217,161058,1,2,1:2:0:0:
480,85,161230,1,10,0:0:0:0:
502,206,161401,1,2,1:2:0:0:
375,96,161573,6,0,P|368:55|377:16,1,77.5,2|2,0:0|1:2,0:0:0:0:
490,194,161916,1,10,0:0:0:0:
313,166,162087,2,0,B|232:160|249:226|172:216,1,155,2|0,1:2|1:2,0:0:0:0:
164,58,162601,2,0,P|180:93|183:132,1,77.5,8|0,0:0|0:0,0:0:0:0:
117,282,162944,5,6,1:2:0:0:
107,294,163287,2,0,P|67:278|30:277,1,77.5,10|0,0:0|0:0,0:0:0:0:
155,372,163630,1,2,1:2:0:0:
207,259,163801,1,2,1:2:0:0:
288,372,163973,2,0,P|326:369|362:354,1,77.5,10|0,0:0|0:0,0:0:0:0:
432,216,164316,6,0,P|390:224|348:231,1,77.5,6|0,1:2|1:2,0:0:0:0:
502,279,164658,1,10,0:0:0:0:
458,121,164830,2,0,B|366:95|366:95|337:110|321:134,1,155,6|2,1:2|1:2,0:0:0:0:
197,148,165344,2,0,P|184:102|191:63,1,77.5,10|0,0:0|1:2,0:0:0:0:
273,241,165687,6,0,B|261:296|261:296|265:304|265:304|253:365,1,116.25,2|0,1:2|0:0,0:0:0:0:
251,373,166030,2,0,P|208:376|165:364,1,77.5,10|0,0:0|0:0,0:0:0:0:
37,295,166373,1,2,1:2:0:0:
156,261,166544,1,2,1:2:0:0:
79,378,166716,1,10,0:0:0:0:
83,207,166887,6,0,B|75:172|64:155|64:155|82:116|82:116|65:92|55:43,1,155,2|0,1:2|1:2,0:0:0:0:
219,1,167401,1,10,0:0:0:0:
179,127,167573,1,0,1:2:0:0:
329,92,167744,2,0,P|368:98|422:106,1,77.5,0|0,1:2|0:0,0:0:0:0:
495,230,168087,1,10,0:0:0:0:
373,205,168258,1,0,0:0:0:0:
487,112,168430,6,0,B|497:90|497:90|485:40,1,69.749997871399,6|0,1:2|0:0,0:0:0:0:
386,7,168773,1,10,0:1:0:0:
386,7,168944,1,10,0:1:0:0:
312,91,169116,1,2,1:2:0:0:
312,91,169287,2,0,P|266:95|241:87,1,69.749997871399,2|8,1:2|0:1,0:0:0:0:
133,69,169630,6,0,B|146:92|146:92|134:142,1,69.749997871399,6|0,1:2|0:0,0:0:0:0:
101,240,169973,1,2,1:2:0:0:
213,222,170144,1,10,0:1:0:0:
213,222,170316,2,0,P|257:223|285:235,1,69.749997871399,10|0,0:1|0:0,0:0:0:0:
373,294,170658,1,2,1:2:0:0:
379,182,170830,1,10,0:1:0:0:
287,245,171001,1,2,0:0:0:0:
447,245,171173,6,0,B|461:270|461:270|457:322,1,69.749997871399,6|2,1:2|0:0,0:0:0:0:
373,383,171516,1,10,0:1:0:0:
373,383,171687,1,10,0:1:0:0:
282,328,171858,1,2,1:2:0:0:
282,328,172030,2,0,P|244:333|202:340,1,69.749997871399,2|10,1:2|0:1,0:0:0:0:
161,200,172373,6,0,B|177:223|177:223|166:265,1,69.749997871399,6|0,1:2|0:0,0:0:0:0:
96,142,172716,1,2,1:2:0:0:
240,163,172887,1,10,0:1:0:0:
203,28,173058,2,0,B|174:32|152:57|152:57|115:30|59:45,1,139.499995742798,10|0,0:1|1:2,0:0:0:0:
14,190,173573,6,0,B|23:214|34:230|34:230|19:253|15:295|15:295|32:281|50:275,1,139.499995742798,10|0,0:1|0:0,0:0:0:0:
112,261,173916,6,0,B|148:273|148:273|185:260,1,77.5,6|0,1:2|0:0,0:0:0:0:
295,203,174258,1,10,0:0:0:0:
359,309,174430,1,8,0:0:0:0:
418,200,174601,2,0,P|423:156|409:117,1,77.5,2|0,1:2|1:2,0:0:0:0:
290,127,174944,2,0,P|284:165|294:202,1,77.5,10|0,0:0|0:0,0:0:0:0:
348,40,175287,6,0,P|283:23|205:67,1,155,6|10,1:2|0:0,0:0:0:0:
158,175,175801,2,0,P|152:213|146:252,1,77.5,8|0,0:0|0:0,0:0:0:0:
128,374,176144,1,0,1:2:0:0:
225,297,176316,1,10,0:0:0:0:
71,283,176487,6,0,B|39:241|44:175|44:175|75:144,1,155,6|0,1:2|1:2,0:0:0:0:
168,66,177001,1,8,0:0:0:0:
172,190,177173,1,8,0:0:0:0:
273,119,177344,2,0,P|313:124|355:129,1,77.5,2|2,1:2|1:2,0:0:0:0:
472,147,177687,1,10,0:0:0:0:
369,236,177858,6,0,B|288:224|305:294|220:276,1,155,2|2,1:2|1:2,0:0:0:0:
96,246,178373,1,8,0:0:0:0:
170,351,178544,1,0,1:2:0:0:
172,190,178716,1,10,0:3:0:0:
58,327,178887,1,10,0:0:0:0:
58,327,178973,1,8,0:0:0:0:
58,327,179058,1,8,0:0:0:0:
23,151,179230,6,0,B|44:48|44:48|0:75,1,155,6|2,1:2|1:2,0:0:0:0:
153,187,179744,2,0,P|147:147|141:101,1,77.5,8|0,0:0|0:0,0:0:0:0:
257,30,180087,1,10,0:0:0:0:
252,153,180258,1,0,1:2:0:0:
367,73,180430,2,0,P|405:78|443:83,1,77.5,10|2,0:0|1:2,0:0:0:0:
387,228,180773,6,0,P|373:192|382:149,1,77.5,10|0,0:0|0:0,0:0:0:0:
503,247,181116,2,0,P|509:284|495:320,1,77.5,8|0,0:0|1:2,0:0:0:0:
368,377,181458,1,8,0:3:0:0:
300,266,181630,1,8,0:3:0:0:
300,266,181716,1,8,0:3:0:0:
300,266,181801,2,0,P|258:272|218:278,1,77.5,8|0,0:0|1:2,0:0:0:0:
68,296,182144,5,10,0:0:0:0:
162,174,182316,1,8,0:3:0:0:
162,174,182401,1,8,0:3:0:0:
162,174,182487,2,0,L|153:130,3,38.75,10|8|8|8,0:0|0:0|0:3|0:3,0:0:0:0:
149,58,182830,5,10,0:0:0:0:
176,49,182916,1,8,0:0:0:0:
205,48,183001,1,8,0:3:0:0:
233,56,183087,1,8,0:3:0:0:
257,71,183173,2,0,P|279:62|305:59,1,38.75,10|0,0:0|0:0,0:0:0:0:
394,68,183344,6,0,B|407:98|407:98|398:149,1,77.5,6|0,1:2|0:0,0:0:0:0:
373,304,183687,1,8,0:0:0:0:
289,168,183858,1,8,0:0:0:0:
476,231,184030,1,8,0:0:0:0:
262,267,184201,5,8,0:0:0:0:
399,142,184373,1,8,0:3:0:0:
371,322,184544,1,8,0:3:0:0:
212,197,184716,6,0,B|185:183|156:185|156:185|126:166|114:140|114:140|37:122|0:195|0:195|29:196|58:217,1,310,4|2,1:2|0:0,0:0:0:0:
219,259,197230,6,0,P|203:305|224:370,1,108.499996688843,2|2,0:0|0:0,0:0:0:0:
381,361,197916,2,0,P|395:309|379:258,1,108.499996688843,2|2,0:0|0:0,0:0:0:0:
348,183,198430,6,0,P|398:171|465:157,1,108.499996688843,2|2,0:0|0:0,0:0:0:0:
489,86,198944,1,2,0:0:0:0:
438,19,199116,2,0,B|355:7|370:81|288:63,1,162.749995033264,2|0,0:0|0:0,0:0:0:0:
289,63,199973,6,0,P|227:56|178:81,1,108.499996688843,2|2,0:0|0:0,0:0:0:0:
40,147,200658,2,0,P|102:140|151:165,1,108.499996688843,2|2,0:0|0:0,0:0:0:0:
201,215,201173,6,0,P|185:266|175:328,1,108.499996688843,2|2,0:0|0:0,0:0:0:0:
236,375,201687,1,2,0:0:0:0:
292,317,201858,2,0,P|336:302|400:317,1,108.499996688843,2|0,0:0|0:0,0:0:0:0:
465,366,202373,1,2,0:0:0:0:
465,366,202544,1,2,0:0:0:0:
509,297,202716,6,0,P|500:240|489:184,1,108.499996688843,2|0,0:0|0:0,0:0:0:0:
476,109,203230,1,2,0:0:0:0:
409,156,203401,2,0,P|356:168|305:153,1,108.499996688843,2|0,0:0|0:0,0:0:0:0:
278,75,203916,6,0,P|225:62|174:77,1,108.499996688843,2|2,0:0|0:0,0:0:0:0:
106,122,204430,1,2,0:0:0:0:
160,182,204601,2,0,P|150:238|141:291,1,108.499996688843,2|0,0:0|0:0,0:0:0:0:
97,358,205116,2,0,P|61:355|40:344,1,54.2499983444214,2|0,0:0|0:0,0:0:0:0:
26,267,205458,6,0,B|146:233|124:337|244:295,1,216.999993377686,2|0,0:0|0:0,0:0:0:0:
231,299,206487,2,0,P|226:271|232:244,1,54.2499983444214,2|0,0:0|0:0,0:0:0:0:
286,155,206830,6,0,B|341:124|378:149|416:149|385:169|397:135|410:169|378:149|434:184|497:171|497:171|515:141|492:114|485:117|479:120|473:116|472:106|478:101|486:98|474:86|470:80|464:78|459:86|463:93|461:100|453:102|448:95|429:76|425:66|429:76|437:81|446:77|448:66|442:59|432:58|426:66|405:58|385:67,1,402.999981552125,2|0,0:0|0:0,0:0:0:0:
256,192,208287,12,0,209916,0:0:0:0:
256,192,210430,5,0,1:2:0:0:
256,192,210516,1,0,1:2:0:0:
256,192,210601,2,0,B|207:192|176:209|176:209|148:195|137:156,1,139.499995742798,10|0,0:0|0:0,0:0:0:0:
188,101,210944,6,0,B|226:106|226:106|234:102|234:102|274:108,1,85.2500026016236,6|0,1:2|0:0,0:0:0:0:
424,122,211287,1,10,0:0:0:0:
345,35,211458,1,2,0:0:0:0:
345,35,211544,1,8,0:0:0:0:
345,35,211630,1,2,1:2:0:0:
353,187,211801,2,0,P|344:227|335:271,1,85.2500026016236,0|8,1:2|0:0,0:0:0:0:
193,365,212144,6,0,B|163:358|143:329|143:329|95:373|39:355,1,170.500005203247,6|2,1:2|1:2,0:0:0:0:
0,245,212658,1,8,0:0:0:0:
155,198,212830,2,0,B|172:160|172:160|157:117,1,85.2500026016236,6|0,1:2|0:0,0:0:0:0:
68,0,213173,1,2,1:2:0:0:
0,155,213344,2,0,P|39:170|85:160,1,85.2500026016236,8|0,0:0|0:0,0:0:0:0:
237,112,213687,6,0,P|194:107|146:101,1,85.2500026016236,6|0,1:2|0:0,0:0:0:0:
318,28,214030,1,10,0:0:0:0:
345,161,214201,1,2,0:0:0:0:
345,161,214287,1,8,0:0:0:0:
345,161,214373,1,2,1:2:0:0:
470,89,214544,2,0,P|477:49|458:7,1,85.2500026016236,0|8,1:2|0:0,0:0:0:0:
362,168,214887,6,0,B|344:226|344:226|370:270|370:270|352:334,1,170.500005203247,6|2,1:2|1:2,0:0:0:0:
437,214,215401,1,8,0:0:0:0:
278,282,215573,2,0,B|238:298|238:298|188:284,1,85.2500026016236,6|0,1:2|0:0,0:0:0:0:
66,248,215916,1,2,1:2:0:0:
214,187,216087,1,8,0:0:0:0:
214,187,216173,1,8,0:0:0:0:
214,187,216258,1,8,0:0:0:0:
214,187,216344,1,8,0:0:0:0:
214,187,216430,6,0,P|224:144|204:90,1,85.2500026016236,6|0,1:2|0:0,0:0:0:0:
347,77,216773,2,0,P|314:46|257:37,1,85.2500026016236,10|0,0:0|0:0,0:0:0:0:
310,177,217116,2,0,P|353:167|403:155,1,85.2500026016236,2|0,1:2|0:0,0:0:0:0:
309,295,217458,2,0,P|267:285|226:275,1,85.2500026016236,10|0,0:0|0:0,0:0:0:0:
434,238,217801,5,6,1:2:0:0:
385,367,217973,1,0,1:2:0:0:
312,198,218144,1,10,0:0:0:0:
220,358,218316,2,0,B|170:345|170:345|127:369|127:369|93:345|48:344,1,170.500005203247,6|0,1:2|1:2,0:0:0:0:
0,223,218830,1,8,0:0:0:0:
162,172,219001,6,0,B|152:205|152:205|156:220|156:220|147:258,1,85.2500026016236,6|0,1:2|0:0,0:0:0:0:
316,302,219344,1,10,0:3:0:0:
316,302,219430,1,8,0:0:0:0:
316,302,219516,2,0,P|306:258|297:213,1,85.2500026016236,10|10,0:0|0:0,0:0:0:0:
249,159,219773,1,8,0:0:0:0:
249,159,219858,2,0,P|259:115|268:70,1,85.2500026016236,10|10,0:0|0:0,0:0:0:0:
334,27,220116,1,8,0:0:0:0:
334,27,220201,2,0,P|360:26|383:35,1,42.6250013008118,10|0,0:0|0:0,0:0:0:0:
460,98,220373,6,0,B|477:140|477:140|461:189,1,85.2500026016236,6|0,1:2|0:0,0:0:0:0:
336,297,220716,1,8,0:0:0:0:
373,131,220887,1,10,0:0:0:0:
428,264,221058,1,0,0:0:0:0:
257,250,221230,6,0,P|218:266|164:259,1,85.2500026016236,10|0,0:0|1:2,0:0:0:0:
28,218,221573,1,10,0:0:0:0:
200,160,221744,1,8,0:0:0:0:
200,160,221830,1,8,0:0:0:0:
200,160,221916,6,0,B|211:135|211:135|194:73,1,85.2500026016236,6|0,1:2|0:0,0:0:0:0:
44,1,222258,1,10,0:0:0:0:
73,134,222430,1,2,0:0:0:0:
73,134,222516,1,8,0:0:0:0:
73,134,222601,1,2,1:2:0:0:
190,63,222773,2,0,P|232:68|285:75,1,85.2500026016236,0|8,1:2|0:0,0:0:0:0:
422,158,223116,6,0,B|426:219|384:253|384:253|419:284|424:318,1,170.500005203247,6|2,1:2|1:2,0:0:0:0:
328,381,223630,1,8,0:0:0:0:
228,253,223801,2,0,B|232:220|232:220|226:205|226:205|233:166,1,85.2500026016236,6|0,1:2|0:0,0:0:0:0:
307,304,224144,1,2,1:2:0:0:
139,268,224316,2,0,P|96:281|46:267,1,85.2500026016236,8|0,0:0|0:0,0:0:0:0:
1,121,224658,6,0,B|33:104|33:104|81:115,1,85.2500026016236,6|0,1:2|0:0,0:0:0:0:
234,155,225001,1,10,0:0:0:0:
139,254,225173,1,2,0:0:0:0:
139,254,225258,1,8,0:0:0:0:
139,254,225344,1,2,1:2:0:0:
170,103,225516,2,0,P|162:56|154:10,1,85.2500026016236,0|8,1:2|0:0,0:0:0:0:
348,49,225858,6,0,B|329:105|329:105|352:152|352:152|326:223,1,170.500005203247,6|2,1:2|1:2,0:0:0:0:
255,53,226373,1,8,0:0:0:0:
426,102,226544,2,0,P|466:91|511:81,1,85.2500026016236,6|0,1:2|0:0,0:0:0:0:
354,34,226887,1,2,1:2:0:0:
449,204,227058,1,10,0:0:0:0:
449,204,227144,1,8,0:0:0:0:
449,204,227230,1,10,1:2:0:0:
449,204,227316,1,8,0:0:0:0:
449,204,227401,6,0,B|422:316|422:316|479:289,1,170.500005203247,6|10,1:2|0:0,0:0:0:0:
309,242,227916,1,2,0:0:0:0:
309,242,228001,1,8,0:0:0:0:
309,242,228087,2,0,P|318:285|330:336,1,85.2500026016236,2|0,1:2|1:2,0:0:0:0:
449,204,228430,1,8,0:0:0:0:
285,131,228601,6,0,B|250:132|224:143|224:143|180:120|180:120|154:133|111:139,1,170.500005203247,6|2,1:2|1:2,0:0:0:0:
3,233,229116,1,8,0:0:0:0:
81,322,229287,2,0,P|147:343|245:279,1,170.500005203247,6|2,1:2|1:2,0:0:0:0:
286,148,229801,1,8,0:0:0:0:
373,306,229973,1,0,1:2:0:0:
373,306,230058,1,0,1:2:0:0:
373,306,230144,5,14,0:0:0:0:
408,191,230316,1,2,1:2:0:0:
296,233,230487,1,2,1:2:0:0:
462,268,230658,2,0,P|470:309|454:360,1,85.2500026016236,14|0,0:0|0:0,0:0:0:0:
308,379,231001,1,2,1:2:0:0:
296,233,231173,1,10,0:0:0:0:
146,313,231344,6,0,B|105:329|105:329|61:316,1,85.2500026016236,6|0,1:2|0:0,0:0:0:0:
6,147,231687,1,2,1:2:0:0:
169,219,231858,1,2,1:2:0:0:
0,245,232030,1,0,0:0:0:0:
118,111,232201,5,10,0:0:0:0:
153,320,232373,1,2,0:0:0:0:
153,320,232458,1,8,0:0:0:0:
153,320,232544,2,0,P|145:357|142:375,1,42.6250013008118,10|8,0:0|0:0,0:0:0:0:
228,380,232716,2,0,P|236:343|239:325,1,42.6250013008118,8|8,0:0|0:0,0:0:0:0:
319,270,232887,6,0,B|359:286|359:286|399:274,1,85.2500026016236,6|0,1:2|0:0,0:0:0:0:
299,126,233230,1,8,0:0:0:0:
239,246,233401,1,0,1:2:0:0:
388,162,233573,2,0,P|394:121|377:67,1,85.2500026016236,8|0,0:0|1:2,0:0:0:0:
214,79,233916,2,0,P|203:120|209:162,1,85.2500026016236,10|0,0:0|0:0,0:0:0:0:
239,246,234173,1,0,1:2:0:0:
239,246,234258,6,0,P|195:263|145:257,1,85.2500026016236,14|0,0:0|1:2,0:0:0:0:
7,178,234601,1,8,0:0:0:0:
96,313,234773,1,0,1:2:0:0:
114,152,234944,1,10,0:0:0:0:
8,273,235116,1,0,1:2:0:0:
8,273,235201,1,0,1:2:0:0:
8,273,235287,1,8,0:0:0:0:
199,262,235458,6,0,B|233:264|257:271|257:271|300:246|300:246|330:260|376:262,1,170.500005203247,6|2,1:2|1:2,0:0:0:0:
497,251,235973,1,10,0:0:0:0:
373,133,236144,6,0,B|263:160|263:160|250:135|209:101,1,170.500005203247,6|2,1:2|1:2,0:0:0:0:
370,40,236658,1,10,0:0:0:0:
507,168,236830,6,0,B|499:202|499:202|504:218|504:218|495:261,1,85.2500026016236,6|0,1:2|0:0,0:0:0:0:
388,383,237173,1,10,0:0:0:0:
351,225,237344,1,10,0:0:0:0:
491,271,237516,1,0,1:2:0:0:
326,312,237687,5,2,1:2:0:0:
294,306,237772,1,8,0:3:0:0:
262,301,237858,1,0,1:2:0:0:
231,296,237944,1,0,1:2:0:0:
198,290,238030,2,0,P|148:298|108:306,1,85.2500026016236,14|0,0:0|1:2,0:0:0:0:
18,162,238373,6,0,B|7:134|7:134|22:74,1,85.2500026016236,14|0,0:0|0:0,0:0:0:0:
89,29,238630,1,0,0:0:0:0:
89,29,238716,2,0,P|129:22|175:38,1,85.2500026016236,8|0,0:0|1:2,0:0:0:0:
306,137,239058,1,8,0:0:0:0:
170,153,239230,1,0,1:2:0:0:
291,34,239401,1,10,0:0:0:0:
373,213,239573,1,0,1:2:0:0:
373,213,239658,1,0,1:2:0:0:
373,213,239744,6,0,P|362:267|357:303,1,85.2500026016236,14|0,0:0|0:0,0:0:0:0:
504,179,240087,2,0,P|497:136|488:95,1,85.2500026016236,8|0,0:0|1:2,0:0:0:0:
311,30,240430,1,10,0:0:0:0:
377,194,240601,1,0,1:2:0:0:
461,0,240773,1,8,0:0:0:0:
294,124,240944,6,0,B|259:120|259:120|244:124|244:124|195:119,1,85.2500026016236,6|0,1:2|0:0,0:0:0:0:
12,107,241287,1,8,0:0:0:0:
171,213,241458,1,8,0:0:0:0:
106,28,241630,1,8,0:0:0:0:
44,248,241801,5,8,0:0:0:0:
259,205,241973,1,8,0:0:0:0:
103,368,242144,1,8,0:0:0:0:
125,136,242316,1,8,0:0:0:0:
125,136,242658,5,8,0:3:0:0:
210,120,242830,1,8,0:3:0:0:
295,104,243001,1,8,0:3:0:0:
356,166,243173,2,0,B|378:146|403:148|408:146|414:143|421:138|406:156|415:155|423:153|416:160|415:168|411:171|415:150|439:147|444:148|448:149|441:164|448:162|455:160|459:157|463:152|465:144|484:137|489:137|496:137|501:137|501:143|501:149|501:155|495:155|490:155|484:155|463:175|461:218,1,216.999993377686,8|4,0:3|1:2,0:0:0:0:
