osu file format v14

[General]
AudioFilename: audio.mp3
AudioLeadIn: 0
PreviewTime: 57704
Countdown: 0
SampleSet: Soft
StackLeniency: 0.7
Mode: 3
LetterboxInBreaks: 0
SpecialStyle: 0
WidescreenStoryboard: 0

[Editor]
DistanceSpacing: 2.7
BeatDivisor: 4
GridSize: 4
TimelineZoom: 2.6

[Metadata]
Title:STEP by STEP UP
TitleUnicode:STEP by STEP UP↑↑↑↑
Artist:fourfolium
ArtistUnicode:fourfolium
Creator:Tofu1222
Version:NEW GAME!!
Source:NEW GAME!!
Tags:nika mika Virtue- Amiichii フォーフォリウム ニューゲーム season 2 two opening tv size takada yuuki 高田憂希 suzukaze aoba 涼風青葉 yamaguchi megumi 山口愛 takimoto hifumi 滝本ひふみ toda megumi 戸田めぐみ shinoda hazime 篠田はじめ ayumi takeo 竹尾歩美 iizima yun 飯島ゆん
BeatmapID:1357081
BeatmapSetID:639906

[Difficulty]
HPDrainRate:8
CircleSize:4
OverallDifficulty:8
ApproachRate:5
SliderMultiplier:1.4
SliderTickRate:1

[Events]
//Background and Video events
0,0,"bg.jpg",0,0
//Break Periods
//Storyboard Layer 0 (Background)
//Storyboard Layer 1 (Fail)
//Storyboard Layer 2 (Pass)
//Storyboard Layer 3 (Foreground)
//Storyboard Sound Samples

[TimingPoints]
890,342.857142857143,4,2,1,50,1,0
58490,-100,4,2,1,50,0,1
80432,-100,4,2,1,50,0,0

[HitObjects]
192,192,204,5,0,0:0:0:0:
320,192,547,1,0,0:0:0:0:
64,192,889,128,2,2090:0:0:0:0:
192,192,889,1,4,0:0:0:0:
448,192,889,1,8,0:0:0:0:
192,192,1747,1,0,0:0:0:0:
320,192,1918,1,0,0:0:0:0:
192,192,2090,128,0,2775:0:0:0:0:
448,192,2090,1,0,0:0:0:0:
64,192,2775,1,0,0:0:0:0:
320,192,2775,128,0,3632:0:0:0:0:
192,192,3290,1,0,0:0:0:0:
64,192,3632,1,0,0:0:0:0:
448,192,3632,128,0,4832:0:0:0:0:
320,192,4318,1,0,0:0:0:0:
192,192,4490,1,0,0:0:0:0:
64,192,4832,1,0,0:0:0:0:
320,192,4832,128,0,5518:0:0:0:0:
192,192,5175,1,0,0:0:0:0:
64,192,5347,1,0,0:0:0:0:
192,192,5518,128,0,6375:0:0:0:0:
448,192,5518,1,0,0:0:0:0:
320,192,6032,1,0,0:0:0:0:
448,192,6032,1,0,0:0:0:0:
64,192,6204,1,0,0:0:0:0:
448,192,6204,1,0,0:0:0:0:
64,192,6375,128,0,7575:0:0:0:0:
320,192,6375,1,0,0:0:0:0:
192,192,6890,1,0,0:0:0:0:
448,192,6890,1,0,0:0:0:0:
192,192,7061,1,0,0:0:0:0:
448,192,7061,1,0,0:0:0:0:
320,192,7232,1,0,0:0:0:0:
448,192,7404,1,0,0:0:0:0:
192,192,7575,128,0,8261:0:0:0:0:
320,192,7575,1,0,0:0:0:0:
320,192,7918,1,0,0:0:0:0:
448,192,7918,1,0,0:0:0:0:
64,192,8090,1,0,0:0:0:0:
448,192,8090,1,0,0:0:0:0:
64,192,8261,1,0,0:0:0:0:
320,192,8261,128,0,9118:0:0:0:0:
192,192,8775,1,0,0:0:0:0:
448,192,8775,1,0,0:0:0:0:
64,192,9118,1,0,0:0:0:0:
192,192,9118,128,0,10147:0:0:0:0:
320,192,9461,1,0,0:0:0:0:
64,192,9632,1,0,0:0:0:0:
320,192,9804,1,0,0:0:0:0:
448,192,9804,1,0,0:0:0:0:
64,192,9975,1,0,0:0:0:0:
448,192,10147,128,0,11175:0:0:0:0:
320,192,10318,1,0,0:0:0:0:
64,192,10490,128,0,11175:0:0:0:0:
192,192,10490,1,0,0:0:0:0:
192,192,11175,128,0,11518:0:0:0:0:
320,192,11175,128,0,11518:0:0:0:0:
448,192,11347,1,0,0:0:0:0:
64,192,11518,1,0,0:0:0:0:
64,192,11690,128,0,12718:0:0:0:0:
448,192,11690,128,0,13232:0:0:0:0:
192,192,12375,1,0,0:0:0:0:
320,192,12718,1,0,0:0:0:0:
192,192,12804,1,0,0:0:0:0:
64,192,12890,1,0,0:0:0:0:
320,192,12975,1,0,0:0:0:0:
192,192,13061,1,0,0:0:0:0:
64,192,13147,1,0,0:0:0:0:
320,192,13232,1,0,0:0:0:0:
64,192,13318,1,2,0:0:0:0:
192,192,13318,1,0,0:0:0:0:
320,192,13404,1,2,0:0:0:0:
448,192,13404,1,0,0:0:0:0:
64,192,13490,1,2,0:0:0:0:
192,192,13490,1,0,0:0:0:0:
320,192,13575,1,2,0:0:0:0:
448,192,13575,1,0,0:0:0:0:
64,192,13661,1,2,0:0:0:0:
192,192,13661,1,0,0:0:0:0:
320,192,13747,1,2,0:0:0:0:
448,192,13747,1,0,0:0:0:0:
64,192,13832,1,2,0:0:0:0:
192,192,13832,1,0,0:0:0:0:
448,192,13918,1,0,0:0:0:0:
64,192,14261,1,8,0:0:0:0:
192,192,14261,1,4,0:0:0:0:
320,192,14261,1,0,0:0:0:0:
448,192,14261,1,0,0:0:0:0:
64,192,14604,1,2,0:0:0:0:
448,192,14604,1,0,0:0:0:0:
192,192,14604,1,0,0:0:0:0:
320,192,14775,1,0,0:0:0:0:
64,192,14947,1,8,0:0:0:0:
448,192,14947,1,0,0:0:0:0:
192,192,14947,1,0,0:0:0:0:
320,192,15118,1,0,0:0:0:0:
64,192,15204,1,8,0:0:0:0:
192,192,15204,1,0,0:0:0:0:
320,192,15290,1,2,0:0:0:0:
448,192,15290,1,0,0:0:0:0:
192,192,15461,1,2,0:0:0:0:
320,192,15461,1,0,0:0:0:0:
64,192,15632,1,8,0:0:0:0:
448,192,15632,1,0,0:0:0:0:
192,192,15632,1,0,0:0:0:0:
64,192,15804,128,2,16147:0:0:0:0:
320,192,15804,1,0,0:0:0:0:
320,192,16147,1,0,0:0:0:0:
192,192,16147,128,2,16318:0:0:0:0:
64,192,16318,1,8,0:0:0:0:
448,192,16318,1,0,0:0:0:0:
320,192,16318,128,0,16490:0:0:0:0:
192,192,16490,1,2,0:0:0:0:
448,192,16490,128,0,16832:0:0:0:0:
192,192,16832,1,2,0:0:0:0:
320,192,16832,1,0,0:0:0:0:
64,192,17004,1,8,0:0:0:0:
192,192,17004,1,0,0:0:0:0:
448,192,17004,1,0,0:0:0:0:
320,192,17175,1,0,0:0:0:0:
64,192,17347,1,2,0:0:0:0:
448,192,17347,1,0,0:0:0:0:
192,192,17518,1,0,0:0:0:0:
64,192,17690,1,8,0:0:0:0:
320,192,17690,1,0,0:0:0:0:
448,192,17690,1,0,0:0:0:0:
192,192,17861,1,0,0:0:0:0:
320,192,17947,1,8,0:0:0:0:
448,192,17947,1,0,0:0:0:0:
64,192,18032,1,2,0:0:0:0:
192,192,18032,1,0,0:0:0:0:
320,192,18204,1,0,0:0:0:0:
192,192,18204,1,2,0:0:0:0:
64,192,18375,1,8,0:0:0:0:
320,192,18375,1,0,0:0:0:0:
448,192,18375,1,0,0:0:0:0:
192,192,18547,1,2,0:0:0:0:
448,192,18547,128,0,18890:0:0:0:0:
192,192,18890,1,2,0:0:0:0:
320,192,18890,128,0,19061:0:0:0:0:
64,192,19061,1,8,0:0:0:0:
448,192,19061,1,0,0:0:0:0:
192,192,19061,128,0,19232:0:0:0:0:
64,192,19232,128,2,19575:0:0:0:0:
320,192,19232,1,0,0:0:0:0:
192,192,19575,1,8,0:0:0:0:
320,192,19575,1,0,0:0:0:0:
448,192,19575,1,0,0:0:0:0:
64,192,19747,1,8,0:0:0:0:
320,192,19747,1,0,0:0:0:0:
448,192,19747,1,0,0:0:0:0:
192,192,19918,1,0,0:0:0:0:
64,192,20090,1,2,0:0:0:0:
320,192,20090,1,0,0:0:0:0:
448,192,20090,128,0,20261:0:0:0:0:
192,192,20261,1,0,0:0:0:0:
64,192,20432,1,8,0:0:0:0:
320,192,20432,1,0,0:0:0:0:
448,192,20432,128,0,20604:0:0:0:0:
192,192,20604,1,0,0:0:0:0:
64,192,20775,1,2,0:0:0:0:
320,192,20775,128,0,20947:0:0:0:0:
192,192,20947,1,2,0:0:0:0:
448,192,20947,1,0,0:0:0:0:
64,192,21118,1,8,0:0:0:0:
320,192,21118,1,0,0:0:0:0:
448,192,21118,128,0,21290:0:0:0:0:
192,192,21290,1,0,0:0:0:0:
64,192,21461,128,2,21632:0:0:0:0:
320,192,21461,1,0,0:0:0:0:
192,192,21632,128,2,21804:0:0:0:0:
448,192,21632,1,0,0:0:0:0:
64,192,21804,1,8,0:0:0:0:
320,192,21804,1,0,0:0:0:0:
448,192,21804,128,0,21975:0:0:0:0:
192,192,21975,1,2,0:0:0:0:
320,192,21975,128,0,22318:0:0:0:0:
64,192,22318,1,2,0:0:0:0:
448,192,22318,1,0,0:0:0:0:
192,192,22375,1,0,0:0:0:0:
320,192,22432,1,0,0:0:0:0:
64,192,22490,1,8,0:0:0:0:
448,192,22490,1,0,0:0:0:0:
192,192,22547,1,0,0:0:0:0:
320,192,22604,1,0,0:0:0:0:
64,192,22661,1,2,0:0:0:0:
448,192,22661,1,0,0:0:0:0:
320,192,22747,1,0,0:0:0:0:
64,192,22832,1,8,0:0:0:0:
192,192,22832,1,0,0:0:0:0:
448,192,22832,128,0,23004:0:0:0:0:
192,192,23004,1,2,0:0:0:0:
320,192,23004,128,0,23175:0:0:0:0:
64,192,23175,1,2,0:0:0:0:
192,192,23175,128,0,23347:0:0:0:0:
64,192,23347,128,8,23690:0:0:0:0:
320,192,23347,1,0,0:0:0:0:
448,192,23347,1,0,0:0:0:0:
192,192,23518,1,2,0:0:0:0:
320,192,23518,1,0,0:0:0:0:
320,192,23690,1,2,0:0:0:0:
448,192,23690,1,0,0:0:0:0:
192,192,23747,1,0,0:0:0:0:
64,192,23804,1,0,0:0:0:0:
320,192,23861,1,8,0:0:0:0:
448,192,23861,1,0,0:0:0:0:
192,192,23947,1,8,0:0:0:0:
64,192,23947,1,0,0:0:0:0:
320,192,24032,1,2,0:0:0:0:
448,192,24032,1,0,0:0:0:0:
64,192,24204,1,8,0:0:0:0:
448,192,24204,1,0,0:0:0:0:
192,192,24204,128,2,24375:0:0:0:0:
64,192,24375,1,8,0:0:0:0:
448,192,24375,1,0,0:0:0:0:
320,192,24375,128,2,24547:0:0:0:0:
64,192,24547,128,8,24890:0:0:0:0:
192,192,24547,1,2,0:0:0:0:
448,192,24547,128,0,24890:0:0:0:0:
320,192,24718,1,0,0:0:0:0:
192,192,24804,1,0,0:0:0:0:
320,192,24890,1,0,0:0:0:0:
64,192,25061,1,0,0:0:0:0:
448,192,25232,1,0,0:0:0:0:
192,192,25404,1,0,0:0:0:0:
320,192,25490,1,0,0:0:0:0:
64,192,25575,1,2,0:0:0:0:
192,192,25575,1,4,0:0:0:0:
448,192,25575,1,0,0:0:0:0:
64,192,25747,1,0,0:0:0:0:
64,192,25918,1,2,0:0:0:0:
320,192,25918,1,0,0:0:0:0:
64,192,26090,1,0,0:0:0:0:
64,192,26261,1,2,0:0:0:0:
448,192,26261,1,0,0:0:0:0:
64,192,26432,1,0,0:0:0:0:
192,192,26432,1,0,0:0:0:0:
64,192,26604,1,2,0:0:0:0:
320,192,26604,1,0,0:0:0:0:
64,192,26775,1,0,0:0:0:0:
448,192,26775,1,0,0:0:0:0:
64,192,26947,1,2,0:0:0:0:
192,192,26947,1,0,0:0:0:0:
64,192,27118,1,0,0:0:0:0:
448,192,27118,1,0,0:0:0:0:
64,192,27290,1,2,0:0:0:0:
320,192,27290,1,0,0:0:0:0:
64,192,27461,1,0,0:0:0:0:
64,192,27632,1,2,0:0:0:0:
448,192,27632,1,0,0:0:0:0:
64,192,27804,1,0,0:0:0:0:
192,192,27804,128,0,27975:0:0:0:0:
64,192,27975,1,2,0:0:0:0:
448,192,27975,128,0,28147:0:0:0:0:
64,192,28147,1,0,0:0:0:0:
320,192,28147,128,0,28318:0:0:0:0:
64,192,28318,1,2,0:0:0:0:
192,192,28318,1,0,0:0:0:0:
448,192,28318,1,0,0:0:0:0:
448,192,28490,1,0,0:0:0:0:
192,192,28661,1,2,0:0:0:0:
448,192,28661,1,0,0:0:0:0:
448,192,28832,1,0,0:0:0:0:
64,192,29004,1,2,0:0:0:0:
448,192,29004,1,0,0:0:0:0:
320,192,29175,1,0,0:0:0:0:
448,192,29175,1,0,0:0:0:0:
192,192,29347,1,2,0:0:0:0:
448,192,29347,1,0,0:0:0:0:
64,192,29518,1,0,0:0:0:0:
448,192,29518,1,0,0:0:0:0:
192,192,29690,1,2,0:0:0:0:
448,192,29690,1,0,0:0:0:0:
448,192,29861,1,0,0:0:0:0:
64,192,30032,1,2,0:0:0:0:
448,192,30032,1,0,0:0:0:0:
192,192,30204,1,0,0:0:0:0:
448,192,30204,1,0,0:0:0:0:
64,192,30375,1,2,0:0:0:0:
320,192,30375,1,0,0:0:0:0:
448,192,30375,1,0,0:0:0:0:
64,192,30547,1,8,0:0:0:0:
192,192,30547,1,0,0:0:0:0:
448,192,30547,1,0,0:0:0:0:
64,192,30718,1,2,0:0:0:0:
320,192,30718,1,0,0:0:0:0:
448,192,30718,1,0,0:0:0:0:
64,192,30890,1,8,0:0:0:0:
192,192,30890,1,0,0:0:0:0:
448,192,30890,1,0,0:0:0:0:
64,192,31061,1,2,0:0:0:0:
320,192,31061,1,0,0:0:0:0:
448,192,31061,1,0,0:0:0:0:
320,192,31232,1,0,0:0:0:0:
192,192,31404,1,2,0:0:0:0:
320,192,31404,1,0,0:0:0:0:
320,192,31575,1,0,0:0:0:0:
64,192,31747,1,2,0:0:0:0:
320,192,31747,1,0,0:0:0:0:
320,192,31918,1,0,0:0:0:0:
192,192,32090,1,2,0:0:0:0:
320,192,32090,1,0,0:0:0:0:
320,192,32261,1,0,0:0:0:0:
192,192,32347,1,0,0:0:0:0:
64,192,32432,1,2,0:0:0:0:
320,192,32432,1,0,0:0:0:0:
320,192,32604,1,0,0:0:0:0:
192,192,32775,1,2,0:0:0:0:
320,192,32775,1,0,0:0:0:0:
320,192,32947,1,0,0:0:0:0:
448,192,32947,1,0,0:0:0:0:
64,192,33118,1,2,0:0:0:0:
320,192,33118,1,0,0:0:0:0:
192,192,33290,1,0,0:0:0:0:
320,192,33290,1,0,0:0:0:0:
320,192,33461,1,2,0:0:0:0:
448,192,33461,1,0,0:0:0:0:
320,192,33632,1,0,0:0:0:0:
64,192,33804,1,2,0:0:0:0:
192,192,33804,1,0,0:0:0:0:
448,192,33804,1,0,0:0:0:0:
192,192,33975,1,0,0:0:0:0:
192,192,34147,1,2,0:0:0:0:
320,192,34147,1,0,0:0:0:0:
192,192,34318,1,0,0:0:0:0:
192,192,34490,1,2,0:0:0:0:
448,192,34490,1,0,0:0:0:0:
192,192,34661,1,0,0:0:0:0:
320,192,34661,1,0,0:0:0:0:
64,192,34832,1,2,0:0:0:0:
192,192,34832,1,0,0:0:0:0:
448,192,34832,1,0,0:0:0:0:
192,192,35004,1,0,0:0:0:0:
320,192,35090,1,0,0:0:0:0:
64,192,35175,1,2,0:0:0:0:
192,192,35175,128,4,35518:0:0:0:0:
448,192,35175,1,0,0:0:0:0:
64,192,35518,1,0,0:0:0:0:
320,192,35518,128,0,35861:0:0:0:0:
64,192,35861,128,0,36204:0:0:0:0:
448,192,35861,1,0,0:0:0:0:
192,192,36032,1,2,0:0:0:0:
320,192,36032,1,0,0:0:0:0:
192,192,36204,1,8,0:0:0:0:
320,192,36204,1,0,0:0:0:0:
448,192,36204,128,0,36547:0:0:0:0:
64,192,36547,1,2,0:0:0:0:
192,192,36547,1,0,0:0:0:0:
320,192,36547,1,0,0:0:0:0:
64,192,36890,1,8,0:0:0:0:
320,192,36890,1,0,0:0:0:0:
448,192,36890,1,0,0:0:0:0:
192,192,37061,1,0,0:0:0:0:
320,192,37147,1,8,0:0:0:0:
448,192,37147,1,0,0:0:0:0:
64,192,37232,1,2,0:0:0:0:
192,192,37232,1,0,0:0:0:0:
64,192,37404,1,2,0:0:0:0:
192,192,37404,1,0,0:0:0:0:
64,192,37575,1,8,0:0:0:0:
320,192,37575,1,0,0:0:0:0:
448,192,37575,1,0,0:0:0:0:
192,192,37747,1,2,0:0:0:0:
320,192,37747,128,0,37918:0:0:0:0:
64,192,37918,1,0,0:0:0:0:
192,192,38090,1,2,0:0:0:0:
448,192,38090,1,0,0:0:0:0:
64,192,38261,1,8,0:0:0:0:
320,192,38261,1,0,0:0:0:0:
448,192,38261,1,0,0:0:0:0:
192,192,38432,1,0,0:0:0:0:
320,192,38604,1,2,0:0:0:0:
448,192,38604,1,0,0:0:0:0:
320,192,38775,1,2,0:0:0:0:
448,192,38775,1,0,0:0:0:0:
64,192,38947,1,8,0:0:0:0:
192,192,38947,1,0,0:0:0:0:
448,192,38947,1,0,0:0:0:0:
320,192,39118,128,0,39804:0:0:0:0:
64,192,39290,1,2,0:0:0:0:
192,192,39290,1,0,0:0:0:0:
448,192,39461,1,0,0:0:0:0:
64,192,39632,1,8,0:0:0:0:
192,192,39632,1,0,0:0:0:0:
448,192,39632,1,0,0:0:0:0:
192,192,39804,1,0,0:0:0:0:
320,192,39890,1,8,0:0:0:0:
448,192,39890,1,0,0:0:0:0:
64,192,39975,1,2,0:0:0:0:
192,192,39975,1,0,0:0:0:0:
192,192,40147,1,2,0:0:0:0:
320,192,40147,1,0,0:0:0:0:
64,192,40318,1,8,0:0:0:0:
320,192,40318,1,0,0:0:0:0:
448,192,40318,1,0,0:0:0:0:
192,192,40490,128,2,41518:0:0:0:0:
64,192,40490,1,0,0:0:0:0:
320,192,40661,1,0,0:0:0:0:
64,192,40832,1,2,0:0:0:0:
448,192,40832,1,0,0:0:0:0:
64,192,41004,1,8,0:0:0:0:
320,192,41004,1,0,0:0:0:0:
448,192,41004,1,0,0:0:0:0:
320,192,41175,1,2,0:0:0:0:
448,192,41175,1,0,0:0:0:0:
320,192,41347,1,0,0:0:0:0:
448,192,41518,1,0,0:0:0:0:
64,192,41518,1,2,0:0:0:0:
320,192,41575,1,0,0:0:0:0:
192,192,41632,1,0,0:0:0:0:
64,192,41690,1,8,0:0:0:0:
448,192,41690,1,0,0:0:0:0:
320,192,41747,1,0,0:0:0:0:
192,192,41804,1,0,0:0:0:0:
64,192,41861,1,0,0:0:0:0:
192,192,42032,1,2,0:0:0:0:
320,192,42032,1,0,0:0:0:0:
448,192,42032,1,0,0:0:0:0:
64,192,42375,1,8,0:0:0:0:
192,192,42375,1,0,0:0:0:0:
448,192,42375,1,0,0:0:0:0:
320,192,42547,1,0,0:0:0:0:
64,192,42718,1,2,0:0:0:0:
448,192,42718,1,0,0:0:0:0:
192,192,42890,1,2,0:0:0:0:
320,192,42890,1,0,0:0:0:0:
64,192,43061,1,8,0:0:0:0:
320,192,43061,1,0,0:0:0:0:
448,192,43061,1,0,0:0:0:0:
192,192,43232,1,2,0:0:0:0:
448,192,43232,1,0,0:0:0:0:
64,192,43232,1,4,0:0:0:0:
320,192,43404,1,0,0:0:0:0:
192,192,43575,1,2,0:0:0:0:
448,192,43575,1,0,0:0:0:0:
64,192,43747,1,8,0:0:0:0:
320,192,43747,1,0,0:0:0:0:
448,192,43747,1,0,0:0:0:0:
192,192,43918,1,2,0:0:0:0:
320,192,43918,1,0,0:0:0:0:
64,192,44090,1,0,0:0:0:0:
192,192,44090,1,0,0:0:0:0:
320,192,44261,1,2,0:0:0:0:
448,192,44261,1,0,0:0:0:0:
64,192,44432,1,8,0:0:0:0:
192,192,44432,1,0,0:0:0:0:
448,192,44432,1,0,0:0:0:0:
192,192,44604,1,2,0:0:0:0:
320,192,44604,1,0,0:0:0:0:
64,192,44604,1,4,0:0:0:0:
64,192,44947,1,2,0:0:0:0:
192,192,44947,1,0,0:0:0:0:
64,192,45118,1,8,0:0:0:0:
320,192,45118,1,0,0:0:0:0:
448,192,45118,1,0,0:0:0:0:
192,192,45290,128,0,45461:0:0:0:0:
64,192,45461,1,2,0:0:0:0:
448,192,45461,128,0,45632:0:0:0:0:
192,192,45632,128,2,45804:0:0:0:0:
320,192,45632,1,0,0:0:0:0:
64,192,45804,1,8,0:0:0:0:
320,192,45804,128,0,45975:0:0:0:0:
448,192,45804,1,0,0:0:0:0:
64,192,45975,1,2,0:0:0:0:
448,192,45975,128,0,46147:0:0:0:0:
64,192,46318,1,8,0:0:0:0:
192,192,46318,128,2,46490:0:0:0:0:
320,192,46490,128,2,46661:0:0:0:0:
448,192,46490,1,8,0:0:0:0:
64,192,46661,1,8,0:0:0:0:
192,192,46661,128,2,46832:0:0:0:0:
320,192,46832,128,2,47004:0:0:0:0:
448,192,46832,1,8,0:0:0:0:
64,192,47175,1,2,0:0:0:0:
192,192,47175,128,0,47518:0:0:0:0:
448,192,47175,1,0,0:0:0:0:
64,192,47518,1,2,0:0:0:0:
320,192,47518,1,4,0:0:0:0:
448,192,47518,1,0,0:0:0:0:
64,192,47861,128,8,48032:0:0:0:0:
192,192,47861,1,0,0:0:0:0:
448,192,47861,1,0,0:0:0:0:
320,192,48032,1,2,0:0:0:0:
448,192,48032,1,0,0:0:0:0:
64,192,48204,1,2,0:0:0:0:
192,192,48204,1,0,0:0:0:0:
320,192,48375,1,0,0:0:0:0:
64,192,48547,1,8,0:0:0:0:
192,192,48547,1,0,0:0:0:0:
448,192,48547,128,0,48718:0:0:0:0:
192,192,48718,128,2,49061:0:0:0:0:
320,192,48718,1,0,0:0:0:0:
320,192,49061,1,2,0:0:0:0:
448,192,49061,1,0,0:0:0:0:
64,192,49232,1,8,0:0:0:0:
192,192,49232,1,0,0:0:0:0:
448,192,49232,128,0,49404:0:0:0:0:
192,192,49404,1,2,0:0:0:0:
320,192,49404,1,0,0:0:0:0:
64,192,49575,1,2,0:0:0:0:
192,192,49575,1,0,0:0:0:0:
64,192,49747,1,0,0:0:0:0:
448,192,49747,1,0,0:0:0:0:
320,192,49747,128,0,49918:0:0:0:0:
64,192,49918,1,8,0:0:0:0:
448,192,49918,1,0,0:0:0:0:
192,192,49918,128,0,50090:0:0:0:0:
320,192,50090,1,0,0:0:0:0:
64,192,50261,1,2,0:0:0:0:
192,192,50261,1,0,0:0:0:0:
448,192,50261,1,0,0:0:0:0:
64,192,50604,1,8,0:0:0:0:
320,192,50604,1,0,0:0:0:0:
448,192,50604,128,0,50775:0:0:0:0:
64,192,50775,1,2,0:0:0:0:
192,192,50775,1,0,0:0:0:0:
320,192,50947,1,2,0:0:0:0:
448,192,50947,1,0,0:0:0:0:
192,192,51118,1,0,0:0:0:0:
64,192,51290,128,8,51461:0:0:0:0:
320,192,51290,1,0,0:0:0:0:
448,192,51290,1,0,0:0:0:0:
192,192,51461,1,2,0:0:0:0:
320,192,51461,128,0,51804:0:0:0:0:
192,192,51804,1,2,0:0:0:0:
448,192,51804,1,0,0:0:0:0:
64,192,51975,128,8,52147:0:0:0:0:
320,192,51975,1,0,0:0:0:0:
448,192,51975,1,0,0:0:0:0:
192,192,52147,1,2,0:0:0:0:
320,192,52147,1,0,0:0:0:0:
448,192,52232,1,2,0:0:0:0:
64,192,52318,1,2,0:0:0:0:
192,192,52318,1,0,0:0:0:0:
320,192,52404,1,0,0:0:0:0:
64,192,52490,1,8,0:0:0:0:
448,192,52490,1,0,0:0:0:0:
192,192,52490,128,2,52661:0:0:0:0:
64,192,52661,1,8,0:0:0:0:
448,192,52661,1,0,0:0:0:0:
320,192,52661,128,2,52832:0:0:0:0:
64,192,52832,1,2,0:0:0:0:
192,192,52832,1,0,0:0:0:0:
448,192,52832,128,0,53175:0:0:0:0:
192,192,53175,1,2,0:0:0:0:
320,192,53175,1,0,0:0:0:0:
64,192,53347,1,8,0:0:0:0:
320,192,53347,1,0,0:0:0:0:
448,192,53347,1,0,0:0:0:0:
192,192,53518,1,2,0:0:0:0:
448,192,53518,1,0,0:0:0:0:
64,192,53690,1,8,0:0:0:0:
192,192,53690,1,0,0:0:0:0:
320,192,53690,1,0,0:0:0:0:
64,192,53861,1,2,0:0:0:0:
448,192,53861,1,0,0:0:0:0:
192,192,54032,1,8,0:0:0:0:
320,192,54032,1,0,0:0:0:0:
448,192,54032,1,0,0:0:0:0:
64,192,54204,128,0,54547:0:0:0:0:
320,192,54204,1,2,0:0:0:0:
192,192,54547,1,2,0:0:0:0:
320,192,54547,1,0,0:0:0:0:
64,192,54718,1,8,0:0:0:0:
192,192,54718,1,0,0:0:0:0:
448,192,54718,1,0,0:0:0:0:
64,192,54890,1,2,0:0:0:0:
320,192,54890,1,0,0:0:0:0:
192,192,55061,1,8,0:0:0:0:
448,192,55061,1,0,0:0:0:0:
192,192,55232,1,2,0:0:0:0:
320,192,55232,1,0,0:0:0:0:
64,192,55404,1,8,0:0:0:0:
320,192,55404,1,0,0:0:0:0:
448,192,55404,1,0,0:0:0:0:
448,192,55575,128,2,55918:0:0:0:0:
192,192,55575,1,0,0:0:0:0:
192,192,55918,1,2,0:0:0:0:
64,192,55918,1,0,0:0:0:0:
64,192,56090,1,8,0:0:0:0:
320,192,56090,1,0,0:0:0:0:
448,192,56090,1,0,0:0:0:0:
192,192,56261,1,2,0:0:0:0:
320,192,56261,1,0,0:0:0:0:
64,192,56432,1,8,0:0:0:0:
192,192,56432,1,0,0:0:0:0:
448,192,56432,1,0,0:0:0:0:
64,192,56604,1,2,0:0:0:0:
320,192,56604,1,0,0:0:0:0:
192,192,56775,1,8,0:0:0:0:
320,192,56775,1,0,0:0:0:0:
448,192,56775,1,0,0:0:0:0:
64,192,56947,1,2,0:0:0:0:
448,192,56947,128,0,57290:0:0:0:0:
64,192,57290,1,2,0:0:0:0:
192,192,57290,1,8,0:0:0:0:
320,192,57290,1,0,0:0:0:0:
64,192,57461,1,2,0:0:0:0:
320,192,57461,1,8,0:0:0:0:
448,192,57461,1,0,0:0:0:0:
64,192,57975,1,2,0:0:0:0:
192,192,57975,1,0,0:0:0:0:
320,192,58061,1,2,0:0:0:0:
64,192,58147,1,4,0:0:0:0:
192,192,58147,1,8,0:0:0:0:
448,192,58147,1,0,0:0:0:0:
64,192,58490,1,2,0:0:0:0:
320,192,58490,1,0,0:0:0:0:
448,192,58490,1,0,0:0:0:0:
64,192,58832,1,8,0:0:0:0:
192,192,58832,1,0,0:0:0:0:
448,192,58832,1,0,0:0:0:0:
320,192,59004,1,0,0:0:0:0:
192,192,59090,1,8,0:0:0:0:
448,192,59090,1,0,0:0:0:0:
64,192,59175,1,2,0:0:0:0:
320,192,59175,1,0,0:0:0:0:
192,192,59347,1,2,0:0:0:0:
448,192,59347,1,0,0:0:0:0:
64,192,59518,1,8,0:0:0:0:
320,192,59518,1,0,0:0:0:0:
448,192,59518,1,0,0:0:0:0:
64,192,59690,1,2,0:0:0:0:
192,192,59690,1,0,0:0:0:0:
448,192,59690,128,0,60032:0:0:0:0:
192,192,60032,1,2,0:0:0:0:
320,192,60032,1,0,0:0:0:0:
64,192,60204,1,8,0:0:0:0:
192,192,60204,1,0,0:0:0:0:
448,192,60204,1,0,0:0:0:0:
64,192,60375,128,2,60718:0:0:0:0:
320,192,60375,1,0,0:0:0:0:
448,192,60375,1,0,0:0:0:0:
192,192,60718,1,2,0:0:0:0:
448,192,60718,1,0,0:0:0:0:
64,192,60890,1,8,0:0:0:0:
320,192,60890,1,0,0:0:0:0:
448,192,60890,1,0,0:0:0:0:
192,192,60975,1,0,0:0:0:0:
448,192,61061,1,0,0:0:0:0:
320,192,61147,1,0,0:0:0:0:
64,192,61232,1,2,0:0:0:0:
192,192,61232,1,0,0:0:0:0:
448,192,61232,1,0,0:0:0:0:
64,192,61575,1,8,0:0:0:0:
320,192,61575,1,0,0:0:0:0:
448,192,61575,1,0,0:0:0:0:
192,192,61747,1,0,0:0:0:0:
64,192,61832,1,8,0:0:0:0:
320,192,61832,1,0,0:0:0:0:
192,192,61918,1,2,0:0:0:0:
448,192,61918,1,0,0:0:0:0:
64,192,62090,1,2,0:0:0:0:
320,192,62090,1,0,0:0:0:0:
64,192,62261,1,8,0:0:0:0:
192,192,62261,1,0,0:0:0:0:
448,192,62261,1,0,0:0:0:0:
64,192,62432,1,2,0:0:0:0:
320,192,62432,128,0,62775:0:0:0:0:
448,192,62432,1,0,0:0:0:0:
64,192,62775,1,2,0:0:0:0:
192,192,62775,1,0,0:0:0:0:
64,192,62947,1,8,0:0:0:0:
320,192,62947,1,0,0:0:0:0:
448,192,62947,1,0,0:0:0:0:
64,192,63118,1,2,0:0:0:0:
192,192,63118,128,0,63461:0:0:0:0:
448,192,63118,1,0,0:0:0:0:
64,192,63461,1,2,0:0:0:0:
320,192,63461,1,0,0:0:0:0:
64,192,63632,1,8,0:0:0:0:
192,192,63632,1,0,0:0:0:0:
448,192,63632,1,0,0:0:0:0:
320,192,63718,1,8,0:0:0:0:
64,192,63804,1,8,0:0:0:0:
448,192,63804,1,0,0:0:0:0:
192,192,63890,1,0,0:0:0:0:
64,192,63975,1,2,0:0:0:0:
320,192,63975,1,0,0:0:0:0:
448,192,63975,1,0,0:0:0:0:
192,192,64147,1,0,0:0:0:0:
64,192,64318,1,8,0:0:0:0:
320,192,64318,1,0,0:0:0:0:
448,192,64318,1,0,0:0:0:0:
192,192,64490,1,0,0:0:0:0:
64,192,64661,128,2,64832:0:0:0:0:
448,192,64661,1,0,0:0:0:0:
320,192,64832,128,2,65004:0:0:0:0:
64,192,65004,1,8,0:0:0:0:
192,192,65004,128,0,65175:0:0:0:0:
448,192,65004,1,0,0:0:0:0:
320,192,65175,128,0,65347:0:0:0:0:
64,192,65347,1,2,0:0:0:0:
192,192,65347,1,0,0:0:0:0:
448,192,65347,128,0,65690:0:0:0:0:
192,192,65518,1,2,0:0:0:0:
320,192,65518,1,0,0:0:0:0:
64,192,65690,1,8,0:0:0:0:
192,192,65690,1,0,0:0:0:0:
320,192,65690,1,0,0:0:0:0:
64,192,65861,128,2,66204:0:0:0:0:
320,192,65861,1,0,0:0:0:0:
448,192,65861,1,0,0:0:0:0:
192,192,66204,1,2,0:0:0:0:
320,192,66204,1,0,0:0:0:0:
64,192,66375,1,8,0:0:0:0:
192,192,66375,1,0,0:0:0:0:
448,192,66375,1,0,0:0:0:0:
64,192,66547,1,2,0:0:0:0:
320,192,66547,1,0,0:0:0:0:
448,192,66547,128,0,66890:0:0:0:0:
64,192,66890,1,8,0:0:0:0:
192,192,66890,1,0,0:0:0:0:
320,192,66975,1,8,0:0:0:0:
448,192,66975,1,0,0:0:0:0:
64,192,67061,1,2,0:0:0:0:
192,192,67061,1,0,0:0:0:0:
320,192,67232,1,8,0:0:0:0:
448,192,67232,1,0,0:0:0:0:
64,192,67318,1,8,0:0:0:0:
192,192,67318,1,0,0:0:0:0:
320,192,67404,1,2,0:0:0:0:
448,192,67404,1,0,0:0:0:0:
64,192,67575,1,8,0:0:0:0:
192,192,67575,1,0,0:0:0:0:
320,192,67661,1,8,0:0:0:0:
448,192,67661,1,0,0:0:0:0:
64,192,67747,1,8,0:0:0:0:
192,192,67747,1,0,0:0:0:0:
64,192,67918,128,2,68432:0:0:0:0:
320,192,67918,1,0,0:0:0:0:
448,192,67918,1,0,0:0:0:0:
192,192,68261,1,2,0:0:0:0:
448,192,68261,1,0,0:0:0:0:
320,192,68432,1,2,0:0:0:0:
448,192,68432,1,0,0:0:0:0:
64,192,68604,1,2,0:0:0:0:
192,192,68604,1,0,0:0:0:0:
64,192,68775,1,8,0:0:0:0:
320,192,68775,1,0,0:0:0:0:
448,192,68775,1,0,0:0:0:0:
192,192,68947,1,2,0:0:0:0:
320,192,68947,1,0,0:0:0:0:
64,192,69118,1,8,0:0:0:0:
192,192,69118,1,0,0:0:0:0:
448,192,69118,1,0,0:0:0:0:
64,192,69461,1,2,0:0:0:0:
320,192,69461,1,0,0:0:0:0:
448,192,69461,1,0,0:0:0:0:
64,192,69804,1,8,0:0:0:0:
192,192,69804,1,0,0:0:0:0:
448,192,69804,1,0,0:0:0:0:
320,192,69975,1,0,0:0:0:0:
64,192,70061,1,8,0:0:0:0:
192,192,70061,1,0,0:0:0:0:
320,192,70147,1,2,0:0:0:0:
448,192,70147,1,0,0:0:0:0:
192,192,70318,1,2,0:0:0:0:
320,192,70318,1,0,0:0:0:0:
64,192,70490,1,8,0:0:0:0:
192,192,70490,1,0,0:0:0:0:
448,192,70490,1,0,0:0:0:0:
64,192,70661,128,2,71004:0:0:0:0:
320,192,70661,1,0,0:0:0:0:
448,192,70661,1,0,0:0:0:0:
192,192,71004,1,2,0:0:0:0:
320,192,71004,1,0,0:0:0:0:
64,192,71175,1,8,0:0:0:0:
320,192,71175,1,0,0:0:0:0:
448,192,71175,1,0,0:0:0:0:
64,192,71347,1,2,0:0:0:0:
192,192,71347,1,0,0:0:0:0:
448,192,71347,128,0,71690:0:0:0:0:
192,192,71690,1,2,0:0:0:0:
320,192,71690,1,0,0:0:0:0:
64,192,71861,1,8,0:0:0:0:
192,192,71861,1,0,0:0:0:0:
448,192,71861,1,0,0:0:0:0:
320,192,72032,1,0,0:0:0:0:
64,192,72204,1,2,0:0:0:0:
192,192,72204,1,0,0:0:0:0:
448,192,72204,1,0,0:0:0:0:
64,192,72547,1,8,0:0:0:0:
320,192,72547,1,0,0:0:0:0:
448,192,72547,1,0,0:0:0:0:
192,192,72718,1,0,0:0:0:0:
320,192,72804,1,8,0:0:0:0:
448,192,72804,1,0,0:0:0:0:
64,192,72890,1,2,0:0:0:0:
192,192,72890,1,0,0:0:0:0:
192,192,73061,1,2,0:0:0:0:
320,192,73061,1,0,0:0:0:0:
64,192,73232,1,8,0:0:0:0:
320,192,73232,1,0,0:0:0:0:
448,192,73232,1,0,0:0:0:0:
64,192,73404,1,2,0:0:0:0:
192,192,73404,128,0,73747:0:0:0:0:
448,192,73404,1,0,0:0:0:0:
320,192,73747,1,2,0:0:0:0:
448,192,73747,1,0,0:0:0:0:
64,192,73918,1,8,0:0:0:0:
192,192,73918,1,0,0:0:0:0:
448,192,73918,1,0,0:0:0:0:
64,192,74090,1,2,0:0:0:0:
320,192,74090,128,0,74432:0:0:0:0:
448,192,74090,1,0,0:0:0:0:
64,192,74432,1,2,0:0:0:0:
192,192,74432,1,0,0:0:0:0:
64,192,74604,1,8,0:0:0:0:
320,192,74604,1,0,0:0:0:0:
448,192,74604,1,0,0:0:0:0:
192,192,74690,1,8,0:0:0:0:
320,192,74775,1,8,0:0:0:0:
448,192,74775,1,0,0:0:0:0:
64,192,74947,1,2,0:0:0:0:
192,192,74947,1,0,0:0:0:0:
448,192,74947,1,0,0:0:0:0:
64,192,75290,1,8,0:0:0:0:
192,192,75290,1,0,0:0:0:0:
448,192,75290,1,0,0:0:0:0:
320,192,75461,1,0,0:0:0:0:
64,192,75547,1,8,0:0:0:0:
192,192,75547,1,0,0:0:0:0:
320,192,75632,1,2,0:0:0:0:
448,192,75632,1,0,0:0:0:0:
192,192,75804,1,2,0:0:0:0:
320,192,75804,1,0,0:0:0:0:
64,192,75975,1,8,0:0:0:0:
192,192,75975,1,0,0:0:0:0:
448,192,75975,1,0,0:0:0:0:
64,192,76147,1,2,0:0:0:0:
320,192,76147,1,0,0:0:0:0:
448,192,76147,128,0,76490:0:0:0:0:
192,192,76490,1,2,0:0:0:0:
320,192,76490,1,0,0:0:0:0:
64,192,76661,1,8,0:0:0:0:
320,192,76661,1,0,0:0:0:0:
448,192,76661,1,0,0:0:0:0:
64,192,76832,128,2,77175:0:0:0:0:
192,192,76832,1,0,0:0:0:0:
448,192,76832,1,0,0:0:0:0:
192,192,77175,1,2,0:0:0:0:
320,192,77175,1,0,0:0:0:0:
64,192,77347,1,8,0:0:0:0:
320,192,77347,1,0,0:0:0:0:
448,192,77347,1,0,0:0:0:0:
192,192,77518,1,2,0:0:0:0:
320,192,77518,1,0,0:0:0:0:
64,192,77690,1,8,0:0:0:0:
192,192,77690,1,0,0:0:0:0:
448,192,77690,1,0,0:0:0:0:
192,192,77861,1,2,0:0:0:0:
320,192,77861,1,0,0:0:0:0:
320,192,78032,1,2,0:0:0:0:
448,192,78032,1,0,0:0:0:0:
64,192,78204,128,8,78375:0:0:0:0:
192,192,78204,1,0,0:0:0:0:
448,192,78204,1,0,0:0:0:0:
192,192,78547,128,2,78718:0:0:0:0:
320,192,78547,1,0,0:0:0:0:
64,192,78718,1,8,0:0:0:0:
320,192,78718,1,0,0:0:0:0:
448,192,78718,1,0,0:0:0:0:
64,192,78890,1,2,0:0:0:0:
192,192,78890,1,0,0:0:0:0:
448,192,78890,128,0,79232:0:0:0:0:
64,192,79232,1,2,0:0:0:0:
192,192,79232,1,8,0:0:0:0:
320,192,79404,1,8,0:0:0:0:
448,192,79404,1,2,0:0:0:0:
64,192,79575,1,2,0:0:0:0:
192,192,79575,1,0,0:0:0:0:
64,192,79747,1,2,0:0:0:0:
320,192,79747,1,0,0:0:0:0:
448,192,79747,1,0,0:0:0:0:
192,192,79832,1,2,0:0:0:0:
64,192,79918,1,2,0:0:0:0:
448,192,79918,1,0,0:0:0:0:
320,192,80004,1,2,0:0:0:0:
64,192,80090,128,8,80261:0:0:0:0:
192,192,80090,1,0,0:0:0:0:
448,192,80090,1,0,0:0:0:0:
64,192,80432,128,2,81804:0:0:0:0:
192,192,80432,1,0,0:0:0:0:
448,192,80432,1,0,0:0:0:0:
320,192,80947,1,2,0:0:0:0:
448,192,80947,1,0,0:0:0:0:
192,192,81118,1,2,0:0:0:0:
448,192,81118,1,0,0:0:0:0:
192,192,81461,1,8,0:0:0:0:
320,192,81461,1,0,0:0:0:0:
448,192,81461,1,0,0:0:0:0:
192,192,81804,128,2,83004:0:0:0:0:
448,192,81804,1,0,0:0:0:0:
64,192,82318,1,2,0:0:0:0:
320,192,82318,1,0,0:0:0:0:
64,192,82490,1,2,0:0:0:0:
448,192,82490,1,0,0:0:0:0:
64,192,82832,1,8,0:0:0:0:
320,192,82832,1,0,0:0:0:0:
448,192,82832,1,0,0:0:0:0:
64,192,83004,1,2,0:0:0:0:
448,192,83004,128,0,84375:0:0:0:0:
192,192,83347,1,2,0:0:0:0:
320,192,83347,1,8,0:0:0:0:
64,192,83518,1,8,0:0:0:0:
320,192,83518,1,2,0:0:0:0:
64,192,83690,1,2,0:0:0:0:
192,192,83690,1,8,0:0:0:0:
192,192,83861,1,8,0:0:0:0:
320,192,83861,1,2,0:0:0:0:
64,192,84032,1,2,0:0:0:0:
320,192,84032,1,8,0:0:0:0:
64,192,84204,1,2,0:0:0:0:
192,192,84204,1,8,0:0:0:0:
192,192,84375,1,2,0:0:0:0:
320,192,84375,1,8,0:0:0:0:
64,192,84718,1,8,0:0:0:0:
192,192,84718,128,2,84890:0:0:0:0:
320,192,84890,128,8,85061:0:0:0:0:
448,192,84890,1,2,0:0:0:0:
64,192,85061,1,8,0:0:0:0:
192,192,85061,128,2,85232:0:0:0:0:
320,192,85232,128,8,85404:0:0:0:0:
448,192,85232,128,2,85918:0:0:0:0:
64,192,85918,128,2,88661:0:0:0:0:
192,192,85918,1,8,0:0:0:0:
320,192,85918,1,0,0:0:0:0:
