osu file format v14

[General]
AudioFilename: audio.mp3
AudioLeadIn: 0
PreviewTime: 57686
Countdown: 0
SampleSet: Soft
StackLeniency: 0.7
Mode: 2
LetterboxInBreaks: 0
WidescreenStoryboard: 0

[Editor]
DistanceSpacing: 1.2
BeatDivisor: 2
GridSize: 4
TimelineZoom: 1.2

[Metadata]
Title:STEP by STEP UP
TitleUnicode:STEP by STEP UP↑↑↑↑
Artist:fourfolium
ArtistUnicode:fourfolium
Creator:Kagari
Version:Salad
Source:NEW GAME!!
Tags:フォーフォリウム ニューゲーム season 2 two opening tv size takada yuuki 高田憂希 suzukaze aoba 涼風青葉 yamaguchi megumi 山口愛 takimoto hifumi 滝本ひふみ toda megumi 戸田めぐみ shinoda hazime 篠田はじめ ayumi takeo 竹尾歩美 iizima yun 飯島ゆん hafizakiyama
BeatmapID:1389805
BeatmapSetID:653124

[Difficulty]
HPDrainRate:3
CircleSize:3.4
OverallDifficulty:7
ApproachRate:7
SliderMultiplier:1.72
SliderTickRate:2

[Events]
//Background and Video events
0,0,"newgame.png",0,0
Video,-398,"ng2op.avi"
//Break Periods
//Storyboard Layer 0 (Background)
//Storyboard Layer 1 (Fail)
//Storyboard Layer 2 (Pass)
//Storyboard Layer 3 (Foreground)
//Storyboard Sound Samples

[TimingPoints]
-599,342.857142857143,4,2,0,50,1,0
14486,-100,4,2,1,80,0,0
25458,-100,4,2,1,70,0,0
36429,-100,4,2,1,80,0,0
58372,-100,4,2,1,90,0,1
69001,-100,4,2,1,80,0,0
69343,-100,4,2,1,90,0,1
80315,-100,4,2,1,80,0,0
84429,-100,4,2,0,70,0,0
86143,-100,4,2,0,50,0,0

[Colours]
Combo1 : 255,192,0
Combo2 : 128,0,128
Combo3 : 128,128,192
Combo4 : 128,64,64

[HitObjects]
256,192,86,5,2,0:0:0:0:
360,136,429,1,2,0:0:0:0:
136,136,772,5,6,0:0:0:0:
256,120,1115,1,2,0:0:0:0:
136,204,1458,1,2,0:0:0:0:
256,212,1801,1,2,0:0:0:0:
140,284,1972,6,0,P|68:256|32:172,1,172,2|0,0:0|0:0,0:0:0:0:
92,120,2486,1,2,0:0:0:0:
204,104,2658,2,0,P|272:148|312:228,1,172,2|0,0:0|0:0,0:0:0:0:
284,280,3172,1,2,0:0:0:0:
136,128,3515,5,2,0:0:0:0:
256,128,3858,1,2,0:0:0:0:
136,192,4201,1,2,0:0:0:0:
196,228,4372,1,2,0:0:0:0:
368,96,4715,6,0,P|436:144|472:224,1,172,2|0,0:0|0:0,0:0:0:0:
396,252,5229,1,2,0:0:0:0:
284,300,5401,2,0,P|204:288|156:216,1,172,2|0,0:0|0:0,0:0:0:0:
160,140,5915,1,2,0:0:0:0:
220,88,6086,1,2,0:0:0:0:
332,264,6258,6,0,P|412:248|452:172,1,172,2|0,0:0|0:0,0:0:0:0:
408,120,6772,1,2,0:0:0:0:
292,248,6943,2,0,P|216:220|184:140,1,172,2|0,0:0|0:0,0:0:0:0:
300,64,7458,6,0,P|376:140|384:200,1,172,2|2,0:0|0:0,0:0:0:0:
308,220,7972,1,2,0:0:0:0:
192,252,8143,2,0,P|112:236|64:164,1,172,2|0,0:0|0:0,0:0:0:0:
96,96,8658,1,2,0:0:0:0:
320,248,9001,6,0,P|384:192|376:112,1,172,2|0,0:0|0:0,0:0:0:0:
256,136,9686,1,0,0:0:0:0:
376,84,10029,1,2,0:0:0:0:
152,72,10372,6,0,P|80:116|28:188,1,172,2|0,0:0|0:0,0:0:0:0:
180,244,11058,2,0,P|240:208|276:116,1,172,2|0,0:0|0:0,0:0:0:0:
112,128,11572,1,2,0:0:0:0:
256,192,11915,12,0,13801,0:0:0:0:
324,208,14143,5,8,0:0:0:0:
100,212,14486,6,0,L|236:104,1,172,4|8,0:0|0:0,0:0:0:0:
408,200,15172,1,2,0:0:0:0:
472,176,15343,1,2,0:0:0:0:
408,148,15515,1,8,0:0:0:0:
324,256,15686,6,6,P|248:216|236:136,1,172,6|2,0:0|0:0,0:0:0:0:
300,92,16201,1,8,0:0:0:0:
384,248,16372,2,0,P|456:212|456:128,1,172,2|2,0:0|0:0,0:0:0:0:
416,100,16886,1,8,0:0:0:0:
140,240,17229,6,0,P|76:204|88:116,1,172,4|8,0:0|0:0,0:0:0:0:
200,116,17743,1,2,0:0:0:0:
224,64,17915,1,2,0:0:0:0:
140,116,18086,1,2,0:0:0:0:
116,72,18258,1,8,0:0:0:0:
200,260,18429,6,6,P|272:220|320:144,1,172,6|2,0:0|0:0,0:0:0:0:
304,104,18943,1,8,0:0:0:0:
220,256,19115,2,0,P|152:208|132:124,1,172,6|2,0:0|0:0,0:0:0:0:
176,76,19629,1,8,0:0:0:0:
400,200,19972,6,0,L|256:104,1,172,6|8,0:0|0:0,0:0:0:0:
84,176,20658,1,2,0:0:0:0:
144,160,20829,1,2,0:0:0:0:
84,140,21001,1,8,0:0:0:0:
312,200,21343,5,6,0:0:0:0:
372,168,21515,1,2,0:0:0:0:
312,140,21686,1,8,0:0:0:0:
228,260,21858,2,0,P|156:228|132:144,1,172,6|2,0:0|0:0,0:0:0:0:
164,100,22372,1,8,0:0:0:0:
388,128,22715,5,6,0:0:0:0:
456,152,22886,1,2,0:0:0:0:
388,188,23058,1,8,0:0:0:0:
304,320,23229,2,0,L|148:244,1,172,2|2,0:0|0:0,0:0:0:0:
80,180,23743,1,8,0:0:0:0:
80,116,23829,1,8,0:0:0:0:
120,56,23915,1,8,0:0:0:0:
240,300,24086,5,12,0:3:0:0:
260,248,24258,1,12,0:3:0:0:
272,184,24429,1,12,0:3:0:0:
280,136,24601,1,0,0:0:0:0:
240,116,24686,1,0,0:0:0:0:
184,100,24772,1,0,0:0:0:0:
124,128,24943,1,0,0:0:0:0:
124,180,25115,1,0,0:0:0:0:
184,212,25286,1,0,0:0:0:0:
296,264,25458,6,0,L|448:184,1,172,6|2,0:0|0:0,0:0:0:0:
392,148,25972,1,0,0:0:0:0:
328,136,26143,1,2,0:0:0:0:
384,96,26315,1,0,0:0:0:0:
448,96,26486,1,2,0:0:0:0:
276,244,26829,5,2,0:0:0:0:
396,236,27172,1,2,0:0:0:0:
244,144,27515,1,2,0:0:0:0:
184,108,27686,1,0,0:0:0:0:
260,136,27858,1,2,0:0:0:0:
320,84,28029,1,0,0:0:0:0:
216,264,28201,6,0,L|64:184,1,172,2|2,0:0|0:0,0:0:0:0:
184,132,28886,1,2,0:0:0:0:
124,116,29058,1,0,0:0:0:0:
64,104,29229,1,2,0:0:0:0:
148,76,29401,1,0,0:0:0:0:
208,80,29572,5,2,0:0:0:0:
88,96,29915,1,2,0:0:0:0:
240,172,30258,1,2,0:0:0:0:
212,136,30429,1,2,0:0:0:0:
152,136,30601,1,8,0:0:0:0:
212,84,30772,1,0,0:0:0:0:
296,256,30943,6,0,L|408:124,1,172,2|2,0:0|0:0,0:0:0:0:
260,260,31629,2,0,L|376:124,1,172,2|2,0:0|0:0,0:0:0:0:
148,192,32315,5,2,0:0:0:0:
120,160,32486,1,0,0:0:0:0:
148,120,32658,1,2,0:0:0:0:
232,100,32829,1,0,0:0:0:0:
292,144,33001,1,2,0:0:0:0:
120,240,33343,1,2,0:0:0:0:
292,264,33686,6,0,L|412:140,1,172,2|2,0:0|0:0,0:0:0:0:
256,248,34372,2,0,L|112:148,1,172,2|2,0:0|0:0,0:0:0:0:
356,264,35058,6,0,P|416:200|420:116,1,172,6|0,0:0|0:0,0:0:0:0:
208,224,35743,1,0,0:0:0:0:
172,184,35915,1,2,0:0:0:0:
188,120,36086,1,4,0:0:0:0:
464,260,36429,6,0,P|488:176|440:112,1,172,6|8,0:0|0:0,0:0:0:0:
388,88,36943,1,0,0:0:0:0:
348,60,37029,1,0,0:0:0:0:
304,44,37115,1,2,0:0:0:0:
220,196,37286,1,2,0:0:0:0:
164,156,37458,1,8,0:0:0:0:
248,248,37629,6,0,P|328:220|388:160,1,172,2|2,0:0|0:0,0:0:0:0:
348,120,38143,1,8,0:0:0:0:
264,304,38315,2,0,P|192:264|152:184,1,172,2|2,0:0|0:0,0:0:0:0:
152,128,38829,1,8,0:0:0:0:
192,80,39001,1,0,0:0:0:0:
276,260,39172,6,0,P|352:212|368:136,1,172,2|8,0:0|0:0,0:0:0:0:
212,164,39858,1,2,0:0:0:0:
152,135,40029,1,2,0:0:0:0:
212,88,40201,1,8,0:0:0:0:
296,276,40372,6,0,P|388:232|400:168,1,172,2|2,0:0|0:0,0:0:0:0:
316,336,40886,2,0,P|236:308|180:244,1,172,8|2,0:0|0:0,0:0:0:0:
144,192,41401,1,2,0:0:0:0:
180,140,41572,1,8,0:0:0:0:
404,248,41915,6,0,P|472:200|456:120,1,172,6|8,0:0|0:0,0:0:0:0:
360,84,42601,1,2,0:0:0:0:
304,80,42772,1,2,0:0:0:0:
244,64,42943,1,8,0:0:0:0:
160,256,43115,6,0,P|100:200|128:124,1,172,6|2,0:0|0:0,0:0:0:0:
188,120,43629,1,8,0:0:0:0:
272,268,43801,2,0,L|396:136,1,172,2|2,0:0|0:0,0:0:0:0:
332,108,44315,1,8,0:0:0:0:
212,288,44486,6,0,P|132:216|148:164,1,172,6|2,0:0|0:0,0:0:0:0:
192,128,45001,1,8,0:0:0:0:
364,88,45343,1,2,0:0:0:0:
436,120,45515,1,2,0:0:0:0:
364,164,45686,1,8,0:0:0:0:
280,240,45858,5,2,0:0:0:0:
348,200,46201,1,8,0:0:0:0:
288,156,46372,1,8,0:0:0:0:
348,104,46543,1,8,0:0:0:0:
236,232,46715,2,0,P|164:216|128:132,1,172,10|4,0:0|0:3,0:0:0:0:
384,228,47401,38,0,L|484:84,1,172,6|8,0:1|0:0,0:0:0:0:
312,60,48086,1,2,0:0:0:0:
260,96,48258,1,2,0:0:0:0:
312,128,48429,1,8,0:0:0:0:
344,240,48601,6,0,P|390:200|432:96,1,172,2|2,0:0|0:0,0:0:0:0:
376,76,49115,1,8,0:0:0:0:
260,68,49286,2,0,P|232:140|296:196,1,172,2|2,0:0|0:0,0:0:0:0:
364,188,49801,1,8,0:0:0:0:
160,232,50143,38,0,L|60:88,1,172,2|8,0:0|0:0,0:0:0:0:
232,64,50828,1,2,0:0:0:0:
284,100,51000,1,2,0:0:0:0:
232,132,51171,1,8,0:0:0:0:
144,276,51343,6,0,P|72:240|48:156,1,172,2|2,0:0|0:0,0:0:0:0:
88,116,51857,1,8,0:0:0:0:
196,204,52029,1,2,0:0:0:0:
220,168,52115,1,0,0:0:0:0:
204,132,52201,1,8,0:0:0:0:
160,100,52372,1,2,0:0:0:0:
108,68,52543,1,8,0:0:0:0:
268,276,52715,22,0,P|344:240|376:160,1,172,6|2,0:1|0:0,0:0:0:0:
312,156,53229,1,8,0:0:0:0:
244,144,53401,1,2,0:0:0:0:
324,204,53572,2,8,P|384:152|372:64,1,172
244,276,54086,22,0,P|168:240|136:160,1,172,6|2,0:1|0:0,0:0:0:0:
100,144,54601,1,8,0:0:0:0:
136,112,54772,1,2,0:0:0:0:
256,180,54943,1,6,0:3:0:0:
308,160,55115,1,6,0:3:0:0:
256,144,55286,1,8,0:0:0:0:
124,252,55458,6,0,P|64:200|76:116,1,172,6|2,0:1|0:0,0:0:0:0:
104,84,55972,1,8,0:0:0:0:
160,60,56143,1,0,0:0:0:0:
244,172,56315,1,2,0:0:0:0:
296,140,56486,1,2,0:0:0:0:
244,112,56658,1,8,0:0:0:0:
128,272,56829,6,0,P|44:200|52:148,1,172,6|10,0:1|0:0,0:0:0:0:
108,108,57343,1,10,0:0:0:0:
240,120,57686,1,6,0:3:0:0:
108,208,58029,1,12,0:3:0:0:
432,80,58372,5,6,0:1:0:0:
268,136,58715,1,8,0:0:0:0:
432,144,59058,1,2,0:0:0:0:
352,192,59229,1,2,0:0:0:0:
272,176,59401,1,8,0:0:0:0:
156,204,59572,6,0,P|88:156|80:72,1,172,6|2,0:0|0:0,0:0:0:0:
156,64,60086,1,8,0:0:0:0:
268,252,60258,2,0,P|344:212|376:136,1,172,6|2,0:0|0:0,0:0:0:0:
352,88,60772,1,8,0:0:0:0:
80,80,61115,5,6,0:1:0:0:
244,136,61458,1,8,0:0:0:0:
80,144,61801,1,2,0:0:0:0:
160,192,61972,1,2,0:0:0:0:
240,176,62144,1,8,0:0:0:0:
356,204,62315,6,0,P|424:156|432:72,1,172,6|2,0:0|0:0,0:0:0:0:
356,64,62829,1,8,0:0:0:0:
244,252,63001,2,0,P|168:212|136:136,1,172,6|2,0:0|0:0,0:0:0:0:
156,88,63515,1,8,0:0:0:0:
380,244,63858,6,0,P|464:212|472:140,1,172,6|8,0:0|0:0,0:0:0:0:
308,232,64543,2,0,L|428:108,1,172,2|8,0:0|0:0,0:0:0:0:
204,88,65229,5,6,0:0:0:0:
152,120,65401,1,2,0:0:0:0:
204,144,65572,1,8,0:0:0:0:
324,228,65743,2,0,P|397:187|416:106,1,172,6|2,0:0|0:0,0:0:0:0:
356,88,66258,1,8,0:0:0:0:
236,300,66429,6,0,P|156:268|128:192,1,172,6|2,0:0|0:0,0:0:0:0:
212,180,66943,2,0,L|280:124,1,86,8|2,0:0|0:0,0:0:0:0:
196,120,67286,1,8,0:0:0:0:
160,84,67458,1,2,0:0:0:0:
220,56,67629,1,8,0:0:0:0:
384,272,67801,6,0,P|468:200|460:148,1,172,6|2,0:0|0:0,0:0:0:0:
404,128,68315,1,12,0:3:0:0:
272,80,68658,1,6,0:0:0:0:
332,144,68829,1,0,0:0:0:0:
392,212,69001,1,12,0:0:0:0:
80,80,69343,5,6,0:1:0:0:
244,136,69686,1,8,0:0:0:0:
80,144,70029,1,2,0:0:0:0:
160,192,70200,1,2,0:0:0:0:
240,176,70372,1,8,0:0:0:0:
356,204,70543,6,0,P|424:156|432:72,1,172,6|2,0:0|0:0,0:0:0:0:
356,64,71057,1,8,0:0:0:0:
244,252,71229,2,0,P|168:212|136:136,1,172,6|2,0:0|0:0,0:0:0:0:
160,88,71743,1,8,0:0:0:0:
432,80,72086,5,6,0:1:0:0:
268,136,72429,1,8,0:0:0:0:
432,144,72772,1,2,0:0:0:0:
352,192,72943,1,2,0:0:0:0:
272,176,73115,1,8,0:0:0:0:
156,204,73286,6,0,P|88:156|80:72,1,172,6|2,0:0|0:0,0:0:0:0:
156,64,73800,1,8,0:0:0:0:
268,252,73972,2,0,P|344:212|376:136,1,172,6|2,0:0|0:0,0:0:0:0:
356,88,74486,1,8,0:0:0:0:
324,68,74658,1,2,0:0:0:0:
204,280,74829,6,0,P|128:240|116:160,1,172,6|8,0:0|0:0,0:0:0:0:
172,112,75343,1,2,0:0:0:0:
284,124,75515,1,2,0:0:0:0:
336,152,75686,1,2,0:0:0:0:
284,184,75858,1,8,0:0:0:0:
196,248,76029,6,0,P|128:200|120:116,1,172,6|2,0:0|0:0,0:0:0:0:
180,88,76543,1,8,0:0:0:0:
292,264,76715,2,0,P|368:236|408:156,1,172,6|2,0:0|0:0,0:0:0:0:
384,100,77230,1,8,0:0:0:0:
144,192,77572,5,6,0:0:0:0:
88,168,77743,1,2,0:0:0:0:
144,144,77915,1,8,0:0:0:0:
260,236,78086,2,0,P|348:232|400:172,1,172,2|2,0:0|0:0,0:0:0:0:
372,116,78601,1,8,0:0:0:0:
220,280,78772,6,0,P|140:256|124:176,1,172,6|6,0:0|0:3,0:0:0:0:
156,64,79286,1,12,0:3:0:0:
320,68,79629,1,2,0:0:0:0:
156,176,79972,1,8,0:0:0:0:
388,308,80315,6,0,P|456:260|472:176,1,172,6|0,0:1|0:0,0:0:0:0:
412,124,80829,1,2,0:0:0:0:
300,208,81001,2,0,P|264:136|324:84,1,172,8|8,0:0|0:0,0:0:0:0:
124,308,81686,6,0,P|56:260|40:176,1,172,6|0,0:0|0:0,0:0:0:0:
100,124,82201,1,2,0:0:0:0:
212,208,82372,2,0,P|284:176|288:92,1,172,8|8,0:0|0:0,0:0:0:0:
132,96,82886,5,4,0:1:0:0:
252,120,83229,1,4,0:3:0:0:
168,216,83401,1,12,0:3:0:0:
192,160,83572,1,4,0:3:0:0:
276,208,83743,1,12,0:3:0:0:
200,200,83915,1,12,0:3:0:0:
276,148,84086,1,4,0:3:0:0:
116,212,84258,5,12,0:3:0:0:
144,164,84601,1,2,0:0:0:0:
228,132,84772,1,2,0:0:0:0:
312,100,84943,1,0,0:0:0:0:
440,88,85115,1,2,0:0:0:0:
356,212,85458,1,0,0:0:0:0:
184,204,85801,1,6,0:0:0:0:
256,192,86143,12,0,88886,0:0:0:0:
