osu file format v14

[General]
AudioFilename: step.mp3
AudioLeadIn: 0
PreviewTime: 57604
Countdown: 0
SampleSet: Soft
StackLeniency: 0.7
Mode: 0
LetterboxInBreaks: 0
WidescreenStoryboard: 1

[Editor]
Bookmarks: 17075
DistanceSpacing: 1.3
BeatDivisor: 4
GridSize: 4
TimelineZoom: 1.5

[Metadata]
Title:STEP by STEP UP
TitleUnicode:STEP by STEP UP↑↑↑↑
Artist:fourfolium
ArtistUnicode:fourfolium
Creator:Doormat
Version:Xxdeathx's Hard
Source:NEW GAME!!
Tags:Gaia Kalibe Moecho Moeri xxdeathx フォーフォリウム ニューゲーム season 2 two opening tv size takada yuuki 高田憂希 suzukaze aoba 涼風青葉 yamaguchi megumi 山口愛 takimoto hifumi 滝本ひふみ toda megumi 戸田めぐみ shinoda hazime 篠田はじめ ayumi takeo 竹尾歩美 iizima yun 飯島ゆん
BeatmapID:1358469
BeatmapSetID:630663

[Difficulty]
HPDrainRate:4
CircleSize:4
OverallDifficulty:6
ApproachRate:7.8
SliderMultiplier:1.36
SliderTickRate:1

[Events]
//Background and Video events
0,0,"newgame_background.jpg",0,0
Video,0,"newgame_op.avi"
//Break Periods
//Storyboard Layer 0 (Background)
//Storyboard Layer 1 (Fail)
//Storyboard Layer 2 (Pass)
//Storyboard Layer 3 (Foreground)
//Storyboard Sound Samples

[TimingPoints]
-596,342.857142857143,4,2,2,40,1,0
-596,-125,4,2,2,40,0,0
13804,-100,4,2,2,5,0,0
14146,-100,4,2,2,80,0,0
14404,-100,4,2,2,5,0,0
14489,-100,4,2,1,70,0,0
24604,-125,4,2,2,50,0,0
25461,-111.111111111111,4,2,1,50,0,0
27689,-111.111111111111,4,2,2,50,0,0
28204,-111.111111111111,4,2,1,50,0,0
32318,-111.111111111111,4,2,2,50,0,0
33775,-111.111111111111,4,2,1,50,0,0
36432,-100,4,2,1,60,0,0
47318,-100,4,2,1,5,0,0
47404,-125,4,2,1,50,0,0
52718,-100,4,2,1,60,0,0
54089,-100,4,2,1,70,0,0
54090,-100,4,2,1,70,0,0
55461,-100,4,2,1,80,0,0
58032,-100,4,2,1,80,0,0
58289,-100,4,2,1,5,0,0
58375,-86.9565217391304,4,2,1,80,0,1
69261,-90.9090909090909,4,2,1,5,0,0
69346,-90.9090909090909,4,2,1,80,0,0
69347,-90.9090909090909,4,2,1,80,0,1
80232,-90.9090909090909,4,2,1,5,0,1
80318,-125,4,2,1,60,0,0
82889,-100,4,2,1,80,0,0
84604,-125,4,2,1,60,0,0
85804,-125,4,2,1,30,0,0
88546,-125,4,2,1,10,0,0

[Colours]
Combo1 : 241,142,86
Combo2 : 250,191,27
Combo3 : 149,216,62
Combo4 : 181,178,148
Combo5 : 195,123,177
Combo6 : 149,208,183
Combo7 : 237,121,128
Combo8 : 129,205,219

[HitObjects]
64,256,89,6,0,B|96:236|136:272|176:248,1,108.8,0|0,0:0|0:0,0:0:0:0:
148,68,775,6,0,L|144:176,2,108.8,6|0|2,0:0|0:0|0:0,0:0:0:0:
300,40,1804,1,0,0:0:0:0:
300,40,1975,2,0,P|315:80|271:144,1,108.8,2|0,0:0|0:0,0:0:0:0:
227,189,2489,1,2,0:0:0:0:
308,216,2661,2,0,L|480:208,1,163.2,2|0,0:0|0:0,0:0:0:0:
232,364,3518,6,0,P|216:323|260:260,1,108.8,2|0,0:0|0:0,0:0:0:0:
408,204,4204,1,2,0:0:0:0:
408,204,4375,2,0,L|404:280,1,54.4,2|0,0:0|0:0,0:0:0:0:
320,328,4718,2,0,L|328:208,1,108.8,2|0,0:0|0:0,0:0:0:0:
333,137,5232,1,2,0:0:0:0:
261,176,5404,2,0,P|206:185|154:148,1,108.8,2|0,0:0|0:0,0:0:0:0:
158,81,5918,2,0,P|178:61|182:29,1,54.4,2|2,0:0|0:0,0:0:0:0:
75,79,6261,6,0,L|83:191,1,108.8,2|0,0:0|0:0,0:0:0:0:
95,271,6775,1,2,0:0:0:0:
95,271,6946,2,0,P|123:251|203:267,1,108.8,2|0,0:0|0:0,0:0:0:0:
271,343,7461,2,0,B|251:307|291:275|267:231,1,108.8,2|0,0:0|0:0,0:0:0:0:
211,179,7975,1,2,0:0:0:0:
211,179,8146,2,0,L|335:171,1,108.8,2|0,0:0|0:0,0:0:0:0:
399,167,8661,2,0,L|387:99,1,54.4,2|0,0:0|0:0,0:0:0:0:
474,191,9004,6,0,P|411:244|319:160,1,217.6,2|0,0:0|0:0,0:0:0:0:
319,171,10032,1,2,0:0:0:0:
319,171,10375,2,0,B|267:207|219:139|159:183,1,163.2,2|0,0:0|0:0,0:0:0:0:
83,227,11061,2,0,L|79:111,1,108.8,2|0,0:0|0:0,0:0:0:0:
75,35,11575,1,2,0:0:0:0:
256,192,11746,12,8,14146,0:1:0:0:
132,236,14489,6,0,P|116:268|128:320,1,68,6|0,0:0|0:0,0:0:0:0:
188,376,14832,2,0,P|204:344|192:292,1,68,8|2,0:0|0:0,0:0:0:0:
196,284,15089,1,8,0:0:0:0:
196,284,15175,2,0,P|260:283|352:280,1,136,2|8,0:0|0:0,0:0:0:0:
456,268,15689,6,0,P|400:240|384:164,1,136,4|2,0:0|0:0,0:0:0:0:
416,92,16204,1,8,0:0:0:0:
292,188,16375,2,0,P|224:188|184:120,1,136,6|2,0:0|0:0,0:0:0:0:
188,44,16889,1,8,0:0:0:0:
188,44,17232,6,0,L|96:48,1,68,6|0,0:0|0:0,0:0:0:0:
45,91,17575,1,8,0:0:0:0:
45,91,17746,2,0,P|29:55|37:19,1,68,0|2,0:0|0:0,0:0:0:0:
120,46,18089,2,0,P|136:82|128:118,1,68,2|8,0:0|0:0,0:0:0:0:
28,194,18432,6,0,B|76:166|112:222|172:190,1,136,6|2,0:0|0:0,0:0:0:0:
220,128,18946,1,8,0:0:0:0:
224,264,19118,2,0,P|248:296|356:288,1,136,4|8,0:0|0:0,0:0:0:0:
400,216,19632,1,8,0:0:0:0:
400,216,19975,6,0,L|404:76,2,136,6|8|2,0:0|0:0|0:0,0:0:0:0:
396,304,20832,1,2,0:0:0:0:
312,256,21004,2,0,P|264:244|212:276,1,102,8|0,0:0|0:0,0:0:0:0:
204,280,21346,6,0,L|180:200,1,68,6|2,0:0|0:0,0:0:0:0:
156,128,21689,1,10,0:0:0:0:
260,164,21861,2,0,P|328:148|364:92,1,136,6|2,0:0|0:0,0:0:0:0:
272,70,22375,2,0,P|239:64|208:31,1,68,8|0,0:0|0:0,0:0:0:0:
358,31,22718,6,0,P|369:61|356:105,1,68,8|2,0:0|0:0,0:0:0:0:
296,161,23061,1,2,0:0:0:0:
424,165,23232,2,0,P|460:201|436:289,1,136,8|2,0:0|0:0,0:0:0:0:
364,320,23746,2,0,L|308:313,2,34,8|8|8,3:0|3:0|3:0,0:0:0:0:
508,344,24089,5,0,1:0:0:0:
508,344,24261,1,0,1:0:0:0:
508,344,24432,2,0,P|475:366|437:366,1,68,0|2,1:0|0:0,0:0:0:0:
424,348,24689,1,2,0:0:0:0:
424,348,24775,6,0,L|416:284,1,54.4,2|2,0:0|0:0,0:0:0:0:
328,268,25118,2,0,L|336:332,1,54.4,2|2,0:0|0:0,0:0:0:0:
243,297,25461,6,0,P|187:277|123:309,1,122.399996264649,6|2,0:0|0:0,0:0:0:0:
63,341,25975,2,0,L|55:265,1,61.1999981323243,0|2,0:0|0:0,0:0:0:0:
79,205,26318,2,0,P|119:213|183:169,2,122.399996264649,0|0|0,0:0|0:0|0:0,0:0:0:0:
11,149,27175,1,2,0:0:0:0:
11,149,27346,2,0,L|23:21,1,122.399996264649,0|2,0:0|0:0,0:0:0:0:
112,24,27861,2,0,P|140:40|176:36,1,61.1999981323243,2|2,0:0|0:0,0:0:0:0:
248,28,28204,6,0,B|224:72|264:104|240:148,1,122.399996264649,2|2,0:0|0:0,0:0:0:0:
104,120,28889,1,2,0:0:0:0:
104,120,29061,2,0,P|136:112|168:120,1,61.1999981323243,0|2,0:0|0:0,0:0:0:0:
176,200,29404,2,0,P|212:228|296:200,2,122.399996264649,0|0|0,0:0|0:0|0:0,0:0:0:0:
163,117,30261,2,0,L|239:113,1,61.1999981323243,4|4,0:3|0:3,0:0:0:0:
312,112,30604,1,8,0:3:0:0:
312,112,30775,1,8,0:3:0:0:
272,196,30946,6,0,B|248:256|248:256|276:324,1,122.399996264649,6|2,0:0|0:0,0:0:0:0:
424,264,31632,2,0,B|448:204|448:204|420:136,1,122.399996264649,2|2,0:0|0:0,0:0:0:0:
304,48,32318,2,0,P|260:96|184:88,1,122.399996264649,2|2,0:0|0:0,0:0:0:0:
124,64,32832,1,2,0:0:0:0:
124,64,33175,2,0,L|44:68,2,61.1999981323243,2|2|2,0:0|0:0|0:0,0:0:0:0:
136,156,33689,6,0,P|128:188|136:220,1,61.1999981323243,2|0,0:0|0:0,0:0:0:0:
216,240,34032,2,0,P|224:208|216:176,1,61.1999981323243,2|0,0:0|0:0,0:0:0:0:
205,98,34375,2,0,L|285:94,1,61.1999981323243,2|0,0:0|0:0,0:0:0:0:
279,177,34718,2,0,L|199:181,1,61.1999981323243,2|0,0:0|0:0,0:0:0:0:
337,238,35061,6,0,P|363:183|347:126,2,122.399996264649,6|0|0,0:0|0:0|0:0,0:0:0:0:
256,258,35918,1,2,0:0:0:0:
317,323,36089,2,0,L|413:319,1,91.7999971984864,8|0,0:0|0:0,0:0:0:0:
440,317,36432,6,0,L|448:227,1,68,6|0,0:0|0:0,0:0:0:0:
452,160,36775,2,0,P|420:176|376:168,1,68,8|0,0:0|0:0,0:0:0:0:
308,136,37118,1,2,0:0:0:0:
308,136,37289,2,0,L|316:220,1,68,0|8,0:0|0:0,0:0:0:0:
328,292,37632,6,0,P|268:256|200:276,1,136,0|0,0:0|0:0,0:0:0:0:
125,305,38146,1,8,0:0:0:0:
125,305,38318,2,0,B|102:260|148:217|121:168,1,136,0|2,0:0|0:0,0:0:0:0:
74,98,38832,1,8,0:0:0:0:
74,98,39004,6,0,B|140:116|140:116|214:88,1,136
286,61,39518,2,0,P|260:118|309:171,1,136,8|2,0:0|0:0,0:0:0:0:
390,192,40032,1,2,0:0:0:0:
328,255,40204,1,8,0:0:0:0:
448,260,40375,6,0,P|496:320|460:376,1,136,2|2,0:0|0:0,0:0:0:0:
388,384,40889,1,8,0:0:0:0:
388,384,41061,2,0,L|228:376,1,136,2|2,0:0|0:0,0:0:0:0:
164,372,41575,2,0,L|184:292,1,68,8|0,0:0|0:0,0:0:0:0:
204,216,41918,5,6,0:0:0:0:
204,216,42261,2,0,P|128:224|80:176,1,136,8|2,0:0|0:0,0:0:0:0:
160,140,42775,2,0,L|232:132,1,68,2|8,0:0|0:0,0:0:0:0:
109,66,43118,6,0,P|73:121|85:187,1,136,6|2,0:0|0:0,0:0:0:0:
164,228,43632,1,8,0:0:0:0:
88,272,43804,2,0,L|12:276,1,68,0|2,0:0|0:0,0:0:0:0:
68,360,44146,2,0,L|144:356,1,68,2|8,0:0|0:0,0:0:0:0:
280,352,44489,5,6,0:0:0:0:
280,352,44832,2,0,P|256:320|264:280,1,68,0|8,0:0|0:0,0:0:0:0:
296,216,45175,1,0,0:0:0:0:
296,216,45346,2,0,P|335:211|366:238,1,68,2|2,0:0|0:0,0:0:0:0:
400,300,45689,1,8,0:0:0:0:
422,172,45861,5,2,0:0:0:0:
196,175,46204,1,10,0:0:0:0:
260,137,46375,1,10,0:0:0:0:
195,100,46546,1,10,0:0:0:0:
256,56,46718,1,10,0:0:0:0:
256,56,47061,2,0,P|216:80|152:68,1,102,2|0,0:0|0:0,0:0:0:0:
136,64,47404,6,0,L|144:192,1,108.8,6|8,0:0|0:1,0:0:0:0:
96,304,48089,1,2,0:0:0:0:
96,304,48261,2,0,L|92:236,1,54.4,0|8,0:0|0:1,0:0:0:0:
142,172,48604,2,0,P|200:168|236:208,1,108.8,2|0,0:0|0:0,0:0:0:0:
252,288,49118,1,8,0:1:0:0:
252,288,49289,2,0,P|268:324|292:340,1,54.4,2|2,0:0|0:0,0:0:0:0:
368,336,49632,1,8,0:1:0:0:
368,336,49803,2,0,P|391:304|393:275,1,54.4,8|0,0:1|0:0,0:0:0:0:
320,220,50146,6,0,P|276:232|212:196,1,108.8,2|8,0:0|0:1,0:0:0:0:
272,76,50832,1,2,0:0:0:0:
272,76,51004,2,0,P|284:104|272:144,1,54.4,0|8,0:0|0:1,0:0:0:0:
220,208,51346,2,0,B|164:192|164:192|100:208,1,108.8,2|0,0:0|0:0,0:0:0:0:
36,232,51861,1,8,0:1:0:0:
43,152,52032,2,0,L|47:112,2,27.2,0|0|0,3:0|3:0|3:0,0:0:0:0:
36,232,52375,1,8,0:1:0:0:
36,232,52546,1,8,0:1:0:0:
120,328,52718,6,0,P|181:333|238:274,1,136,6|0,0:0|0:0,0:0:0:0:
163,178,53232,2,0,P|150:211|163:262,1,68,8|0,0:0|0:0,0:0:0:0:
233,285,53575,2,0,P|245:251|232:200,1,68,8|0,0:0|0:0,0:0:0:0:
163,178,53918,1,8,0:0:0:0:
296,150,54089,6,0,P|316:92|274:22,1,136,6|0,0:0|0:0,0:0:0:0:
196,12,54604,2,0,L|120:20,1,68,8|0,0:0|0:0,0:0:0:0:
80,108,54946,2,0,L|156:100,1,68,8|0,0:3|0:0,0:0:0:0:
232,96,55289,1,8,0:0:0:0:
156,188,55461,6,0,P|144:272|188:308,1,136,6|0,0:0|0:0,0:0:0:0:
272,308,55975,2,0,L|268:236,1,68,8|0,0:0|0:0,0:0:0:0:
356,192,56318,2,0,L|360:264,1,68,8|0,0:0|0:0,0:0:0:0:
364,348,56661,1,8,0:0:0:0:
448,244,56832,5,0,1:0:0:0:
448,244,57175,1,0,1:0:0:0:
356,192,57346,2,0,B|300:160|276:216|220:188,1,136,0|0,1:0|0:0,0:0:0:0:
163,120,57861,1,2,0:0:0:0:
163,120,57946,1,2,0:0:0:0:
163,120,58032,2,0,P|169:65|204:24,1,102,8|0,0:0|0:0,0:0:0:0:
229,15,58375,6,0,P|270:12|325:44,1,78.2000014915467,6|0,0:0|0:0,0:0:0:0:
356,130,58718,2,0,P|315:133|260:101,1,78.2000014915467,8|0,0:0|0:0,0:0:0:0:
254,103,58975,1,8,0:0:0:0:
254,103,59061,2,0,L|248:228,1,117.30000223732,2|0,0:0|0:0,0:0:0:0:
248,248,59404,1,8,0:0:0:0:
156,152,59575,6,0,P|84:133|24:200,1,156.400002983093,6|0,0:0|0:0,0:0:0:0:
4,280,60089,1,8,0:0:0:0:
92,348,60261,2,0,L|248:340,1,156.400002983093,6|2,0:0|0:0,0:0:0:0:
352,336,60775,1,8,0:0:0:0:
352,336,61118,6,0,P|379:298|375:249,1,78.2000014915467,6|0,0:0|0:0,0:0:0:0:
322,164,61461,2,0,P|294:201|298:250,1,78.2000014915467,8|0,0:0|0:0,0:0:0:0:
293,266,61718,1,8,0:0:0:0:
293,266,61804,2,0,P|225:252|178:284,1,117.30000223732,2|0,0:0|0:0,0:0:0:0:
170,300,62146,1,8,0:0:0:0:
88,216,62318,6,0,L|96:56,1,156.400002983093,6|0,0:0|0:0,0:0:0:0:
176,4,62832,1,8,0:0:0:0:
180,120,63004,2,0,B|252:156|252:156|332:120,1,156.400002983093,6|0,0:0|0:0,0:0:0:0:
404,88,63518,2,0,L|412:24,2,39.1000007457733,8|8|8,3:0|3:0|3:0,0:0:0:0:
392,188,63861,5,6,0:0:0:0:
392,188,64204,2,0,P|464:188|508:272,2,156.400002983093,8|2|8,0:0|0:0|0:0,0:0:0:0:
348,268,65061,1,0,0:0:0:0:
308,144,65232,6,0,P|300:108|319:59,1,78.2000014915467,6|2,0:0|0:0,0:0:0:0:
376,4,65575,1,8,0:0:0:0:
220,60,65746,2,0,B|158:92|121:30|63:63,1,156.400002983093,6|0,0:0|0:0,0:0:0:0:
16,148,66261,1,8,0:0:0:0:
96,236,66432,6,0,P|168:260|240:208,1,156.400002983093,6|0,0:0|3:0,0:0:0:0:
248,192,66861,1,0,3:0:0:0:
248,192,66946,2,0,L|244:144,3,39.1000007457733,0|0|0|0,3:0|0:0|3:0|3:0,0:0:0:0:
224,128,67289,2,0,L|136:124,1,78.2000014915467,0|0,3:0|3:0,0:0:0:0:
120,124,67546,1,0,3:0:0:0:
120,124,67632,1,0,3:0:0:0:
192,32,67804,6,0,P|264:32|324:100,1,156.400002983093,6|0,0:0|0:0,0:0:0:0:
328,184,68318,1,8,0:3:0:0:
407,133,68489,1,8,0:3:0:0:
412,228,68661,2,0,L|416:320,1,78.2000014915467,8|2,0:0|0:0,0:0:0:0:
504,256,69004,2,0,L|496:135,1,117.30000223732,8|0,0:0|0:0,0:0:0:0:
492,112,69346,6,0,P|466:139|418:148,1,74.8000022827149,6|0,0:0|0:0,0:0:0:0:
336,108,69689,2,0,P|324:71|341:26,1,74.8000022827149,8|0,0:0|0:0,0:0:0:0:
353,8,69946,1,8,0:0:0:0:
353,8,70032,2,0,L|241:12,1,112.200003424072,2|0,0:0|0:0,0:0:0:0:
208,12,70375,1,8,0:0:0:0:
244,120,70546,6,0,B|272:176|208:212|240:268,1,149.60000456543,6|0,0:0|0:0,0:0:0:0:
276,344,71061,1,8,0:0:0:0:
140,244,71232,2,0,P|48:248|28:308,1,149.60000456543,6|2,0:0|0:0,0:0:0:0:
40,380,71746,1,8,0:0:0:0:
40,380,72089,6,0,P|80:372|104:336,1,74.8000022827149,6|0,0:0|0:0,0:0:0:0:
100,236,72432,2,0,P|73:205|29:202,1,74.8000022827149,8|0,0:0|0:0,0:0:0:0:
8,204,72689,1,8,0:0:0:0:
8,204,72775,2,0,L|16:92,1,112.200003424072,2|0,0:0|0:0,0:0:0:0:
20,64,73118,1,8,0:0:0:0:
132,132,73289,6,0,P|196:152|256:92,1,149.60000456543,6|0,0:0|0:0,0:0:0:0:
272,12,73804,1,8,0:0:0:0:
352,120,73975,2,0,B|384:188|384:188|352:260,1,149.60000456543,6|0,0:0|0:0,0:0:0:0:
296,324,74489,1,8,0:0:0:0:
296,324,74661,1,0,0:0:0:0:
272,212,74832,6,0,P|216:172|136:200,1,149.60000456543,6|8,0:0|0:0,0:0:0:0:
76,260,75346,1,0,0:0:0:0:
76,260,75518,2,0,P|52:220|56:176,1,74.8000022827149,2|2,0:0|0:0,0:0:0:0:
92,104,75861,1,8,0:0:0:0:
220,80,76032,6,0,L|384:76,1,149.60000456543,6|0,0:0|0:0,0:0:0:0:
464,76,76546,1,8,0:0:0:0:
352,164,76718,2,0,P|332:236|396:300,1,149.60000456543,6|0,0:0|0:0,0:0:0:0:
468,340,77232,1,8,0:0:0:0:
468,340,77575,6,0,L|464:264,1,74.8000022827149,6|2,0:0|0:0,0:0:0:0:
460,176,77918,1,2,0:0:0:0:
373,291,78089,2,0,B|320:316|284:252|228:284,1,149.60000456543,6|0,0:0|0:0,0:0:0:0:
168,356,78604,1,8,0:0:0:0:
164,216,78775,6,0,P|116:176|36:196,1,149.60000456543,6|4,0:0|0:3,0:0:0:0:
16,296,79289,1,4,0:3:0:0:
16,296,79632,2,0,L|8:356,2,37.4000011413575,8|8|8,0:3|0:3|0:3,0:0:0:0:
36,195,79975,2,0,P|70:201|116:172,1,74.8000022827149,4|0,0:0|0:0,0:0:0:0:
192,64,80318,6,0,B|152:116|224:164|184:224,1,163.2,6|2,0:0|0:0,0:0:0:0:
140,300,81004,2,0,L|256:304,1,108.8,2|8,0:0|0:0,0:0:0:0:
456,228,81689,2,0,L|288:220,1,163.2,2|2,0:0|0:0,0:0:0:0:
232,156,82375,2,0,P|277:130|343:156,1,108.8,2|8,0:0|0:0,0:0:0:0:
408,200,82889,6,0,L|413:41,1,136,6|4,0:0|0:3,0:0:0:0:
324,52,83404,2,0,P|292:56|256:88,1,68,4|4,0:3|0:3,0:0:0:0:
252,188,83746,2,0,P|271:213|317:228,1,68,4|4,0:3|0:3,0:0:0:0:
408,200,84089,1,4,0:3:0:0:
385,299,84261,1,4,0:0:0:0:
385,299,84604,6,0,L|457:295,1,54.4,8|8,0:3|0:3,0:0:0:0:
462,196,84946,2,0,L|390:200,1,54.4,8|8,0:3|0:3,0:0:0:0:
407,199,85804,5,4,0:0:0:0:
256,192,85975,12,0,88546,0:0:0:0:
