osu file format v14

[General]
AudioFilename: step.mp3
AudioLeadIn: 0
PreviewTime: 57604
Countdown: 0
SampleSet: Soft
StackLeniency: 0.7
Mode: 0
LetterboxInBreaks: 0
WidescreenStoryboard: 1

[Editor]
DistanceSpacing: 1
BeatDivisor: 4
GridSize: 4
TimelineZoom: 1.6

[Metadata]
Title:STEP by STEP UP
TitleUnicode:STEP by STEP UP↑↑↑↑
Artist:fourfolium
ArtistUnicode:fourfolium
Creator:Doormat
Version:Normal
Source:NEW GAME!!
Tags:Gaia Kalibe Moecho Moeri xxdeathx フォーフォリウム ニューゲーム season 2 two opening tv size takada yuuki 高田憂希 suzukaze aoba 涼風青葉 yamaguchi megumi 山口愛 takimoto hifumi 滝本ひふみ toda megumi 戸田めぐみ shinoda hazime 篠田はじめ ayumi takeo 竹尾歩美 iizima yun 飯島ゆん
BeatmapID:1342417
BeatmapSetID:630663

[Difficulty]
HPDrainRate:4
CircleSize:3.5
OverallDifficulty:4
ApproachRate:5
SliderMultiplier:1.1
SliderTickRate:1

[Events]
//Background and Video events
0,0,"newgame_background.jpg",0,0
Video,0,"newgame_op.avi"
//Break Periods
//Storyboard Layer 0 (Background)
//Storyboard Layer 1 (Fail)
//Storyboard Layer 2 (Pass)
//Storyboard Layer 3 (Foreground)
//Storyboard Sound Samples

[TimingPoints]
-596,342.857142857143,4,2,2,40,1,0
13804,-100,4,2,2,5,0,0
14146,-100,4,2,2,80,0,0
14404,-100,4,2,2,5,0,0
14489,-100,4,2,1,70,0,0
24604,-100,4,2,2,50,0,0
25461,-100,4,2,1,50,0,0
27689,-100,4,2,2,50,0,0
28204,-100,4,2,1,50,0,0
32318,-100,4,2,2,50,0,0
33775,-100,4,2,1,50,0,0
36432,-100,4,2,1,60,0,0
47318,-100,4,2,1,5,0,0
47404,-100,4,2,1,50,0,0
52718,-100,4,2,1,60,0,0
54089,-100,4,2,1,70,0,0
55461,-100,4,2,1,80,0,0
58289,-100,4,2,1,5,0,0
58375,-100,4,2,1,80,0,1
69261,-100,4,2,1,5,0,0
69346,-100,4,2,1,80,0,1
80232,-100,4,2,1,5,0,1
80318,-100,4,2,1,60,0,0
82889,-100,4,2,1,80,0,0
84604,-100,4,2,1,60,0,0
85804,-100,4,2,1,30,0,0
88546,-100,4,2,1,10,0,0

[Colours]
Combo1 : 241,142,86
Combo2 : 250,191,27
Combo3 : 149,216,62
Combo4 : 181,178,148
Combo5 : 195,123,177
Combo6 : 149,208,183
Combo7 : 237,121,128
Combo8 : 129,205,219

[HitObjects]
308,160,775,6,0,P|299:214|298:269,1,110,6|0,0:0|0:0,0:0:0:0:
195,316,1461,2,0,P|193:261|185:206,1,110,2|0,0:0|0:0,0:0:0:0:
191,152,1975,2,0,P|143:177|89:171,1,110,2|0,0:0|0:0,0:0:0:0:
44,148,2489,1,2,0:0:0:0:
44,148,2661,2,0,P|69:195|24:300,1,165,2|0,0:0|0:0,0:0:0:0:
112,368,3518,6,0,L|236:352,1,110,2|0,0:0|0:0,0:0:0:0:
328,348,4204,2,0,L|312:224,1,110,2|0,0:0|0:0,0:0:0:0:
340,191,4718,2,0,P|288:209|237:193,1,110,2|0,0:0|0:0,0:0:0:0:
200,160,5232,1,2,0:0:0:0:
200,160,5404,1,2,0:0:0:0:
316,40,5918,2,0,L|392:48,1,55,2|2,0:0|0:0,0:0:0:0:
423,28,6261,6,0,P|403:78|414:131,1,110,2|0,0:0|0:0,0:0:0:0:
456,176,6775,1,2,0:0:0:0:
456,176,6946,2,0,P|466:229|447:279,1,110,2|0,0:0|0:0,0:0:0:0:
404,316,7461,2,0,P|344:264|248:272,1,165,2|2,0:0|0:0,0:0:0:0:
216,296,8146,1,2,0:0:0:0:
96,180,8661,1,2,0:0:0:0:
172,100,9004,6,0,B|236:72|284:100|284:100|332:128|392:100,1,220,2|0,0:0|0:0,0:0:0:0:
472,40,10032,1,2,0:0:0:0:
488,148,10375,2,0,L|468:276,1,110,2|0,0:0|0:0,0:0:0:0:
364,292,11061,2,0,L|347:183,1,110,2|0,0:0|0:0,0:0:0:0:
336,128,11575,5,2,0:0:0:0:
256,192,12261,12,0,13804,0:0:0:0:
64,132,14489,6,0,L|132:123,1,55,6|0,0:0|0:0,0:0:0:0:
167,149,14832,2,0,L|235:140,1,55,8|2,0:0|0:0,0:0:0:0:
264,104,15175,2,0,P|252:148|280:224,1,110,2|8,0:0|0:0,0:0:0:0:
308,248,15689,1,4,0:0:0:0:
356,152,16032,2,0,L|356:84,1,55,2|8,0:0|0:0,0:0:0:0:
324,52,16375,2,0,L|459:52,1,110,6|2,0:0|0:0,0:0:0:0:
488,52,16889,1,8,0:0:0:0:
456,155,17232,6,0,P|449:182|447:210,1,55,6|0,0:0|0:0,0:0:0:0:
484,256,17575,1,8,0:0:0:0:
484,256,17746,2,0,P|429:253|383:282,1,110,0|2,0:0|0:0,0:0:0:0:
288,340,18432,2,0,P|233:342|187:313,1,110,6|2,0:0|0:0,0:0:0:0:
152,280,18946,1,8,0:0:0:0:
152,280,19118,2,0,P|200:255|225:207,1,110,4|8,0:0|0:0,0:0:0:0:
240,152,19632,1,8,0:0:0:0:
336,208,19975,5,6,0:0:0:0:
432,152,20318,2,0,L|424:80,1,55,8|0,0:0|0:0,0:0:0:0:
416,44,20661,1,2,0:0:0:0:
320,100,21004,1,8,0:0:0:0:
336,208,21346,2,0,P|336:236|328:272,1,55,6|2,0:0|0:0,0:0:0:0:
304,312,21689,1,10,0:0:0:0:
304,312,21861,2,0,P|212:292|156:336,1,165,6|8,0:0|0:0,0:0:0:0:
56,292,22718,6,0,L|45:237,1,55,8|2,0:0|0:0,0:0:0:0:
4,212,23061,1,2,0:0:0:0:
4,212,23232,2,0,P|60:212|108:180,1,110,8|2,0:0|0:0,0:0:0:0:
132,136,23746,1,8,3:0:0:0:
228,192,24089,2,0,L|224:264,2,55,0|0|0,1:0|1:0|1:0,0:0:0:0:
300,108,24775,2,0,P|326:114|354:116,1,55,2|2,0:0|0:0,0:0:0:0:
408,116,25118,2,0,P|435:113|462:107,1,55,2|2,0:0|0:0,0:0:0:0:
508,80,25461,5,6,0:0:0:0:
512,192,25804,2,0,L|504:248,1,55,2|0,0:0|0:0,0:0:0:0:
492,304,26146,1,2,0:0:0:0:
492,304,26318,1,0,0:0:0:0:
392,260,26661,2,0,P|356:248|280:276,1,110,0|0,0:0|0:0,0:0:0:0:
248,304,27175,1,2,0:0:0:0:
248,304,27346,1,0,0:0:0:0:
152,248,27689,2,0,L|160:176,2,55,2|2|2,0:0|0:0|0:0,0:0:0:0:
108,280,28204,5,2,0:0:0:0:
28,208,28546,1,2,0:0:0:0:
71,109,28889,1,2,0:0:0:0:
71,109,29061,2,0,L|144:116,1,55,0|2,0:0|0:0,0:0:0:0:
180,120,29404,1,0,0:0:0:0:
272,60,29746,1,0,0:0:0:0:
332,152,30089,2,0,P|328:184|336:272,2,110,0|4|8,0:0|0:3|0:3,0:0:0:0:
352,100,30946,5,6,0:0:0:0:
244,112,31289,1,2,0:0:0:0:
136,124,31632,1,2,0:0:0:0:
28,136,31975,1,2,0:0:0:0:
92,223,32318,2,0,P|100:268|96:296,1,55,2|2,0:0|0:0,0:0:0:0:
64,320,32661,1,2,0:0:0:0:
64,320,32832,2,0,P|104:308|184:328,1,110,2|2,0:0|0:0,0:0:0:0:
212,356,33346,2,0,L|272:336,1,55,2|2,0:0|0:0,0:0:0:0:
316,320,33689,5,2,0:0:0:0:
260,224,34032,1,2,0:0:0:0:
333,141,34375,1,2,0:0:0:0:
434,185,34718,1,2,0:0:0:0:
422,295,35061,1,6,0:0:0:0:
422,295,35918,2,0,L|364:288,1,55,2|8,0:0|0:0,0:0:0:0:
268,244,36432,6,0,L|158:256,1,110,6|8,0:0|0:0,0:0:0:0:
116,288,36946,1,0,0:0:0:0:
116,288,37118,2,0,P|128:236|92:176,1,110,2|8,0:0|0:0,0:0:0:0:
60,156,37632,1,0,0:0:0:0:
152,100,37975,2,0,L|211:110,1,55,0|8,0:0|0:0,0:0:0:0:
251,141,38318,2,0,L|359:122,1,110,0|2,0:0|0:0,0:0:0:0:
407,93,38832,1,8,0:0:0:0:
407,93,39004,6,0,P|387:149|451:233,1,165,0|8,0:0|0:0,0:0:0:0:
495,249,39689,1,0,0:0:0:0:
460,352,40032,2,0,L|380:344,1,55,2|8,0:0|0:0,0:0:0:0:
360,316,40375,2,0,P|301:369|224:352,1,165,2|8,0:0|0:0,0:0:0:0:
176,328,41061,2,0,L|180:200,1,110,2|2,0:0|0:0,0:0:0:0:
184,164,41575,1,8,0:0:0:0:
278,106,41918,5,6,0:0:0:0:
180,53,42261,2,0,L|63:67,1,110,8|2,0:0|0:0,0:0:0:0:
16,76,42775,1,2,0:0:0:0:
64,172,43118,2,0,P|64:216|52:292,1,110,6|2,0:0|0:0,0:0:0:0:
164,304,43804,2,0,P|164:260|176:184,1,110,0|2,0:0|0:0,0:0:0:0:
228,100,44489,6,0,P|148:110|80:56,1,165,6|8,0:0|0:0,0:0:0:0:
176,4,45346,2,0,L|292:12,1,110,2|8,0:0|0:0,0:0:0:0:
340,16,45861,1,2,0:0:0:0:
288,112,46204,2,0,L|296:180,1,55,10|10,0:0|0:0,0:0:0:0:
304,220,46546,1,10,0:0:0:0:
304,220,46718,1,10,0:0:0:0:
244,316,47061,1,2,0:0:0:0:
140,268,47404,6,0,P|85:263|30:269,1,110,6|8,0:0|0:1,0:0:0:0:
32,160,48089,2,0,P|86:164|141:158,1,110,2|8,0:0|0:1,0:0:0:0:
188,188,48604,2,0,P|175:134|192:83,1,110,2|0,0:0|0:0,0:0:0:0:
232,44,49118,1,8,0:1:0:0:
232,44,49289,2,0,P|285:31|336:48,1,110,2|8,0:0|0:1,0:0:0:0:
384,80,49804,1,8,0:1:0:0:
332,176,50146,6,0,L|339:285,1,110,2|8,0:0|0:1,0:0:0:0:
444,252,50832,2,0,L|436:142,1,110,2|8,0:0|0:1,0:0:0:0:
460,92,51346,2,0,P|404:100|348:64,1,110,2|0,0:0|0:0,0:0:0:0:
320,44,51861,1,8,0:1:0:0:
320,44,52032,1,0,3:0:0:0:
236,116,52375,2,0,L|244:188,1,55,8|8,0:1|0:1,0:0:0:0:
280,212,52718,6,0,P|228:204|168:240,1,110,6|0,0:0|0:0,0:0:0:0:
136,264,53232,2,0,L|124:200,1,55,8|0,0:0|0:0,0:0:0:0:
112,156,53575,1,8,0:0:0:0:
220,32,54089,2,0,L|344:44,1,110,6|0,0:0|0:0,0:0:0:0:
384,28,54604,2,0,P|376:68|380:108,1,55,8|0,0:0|0:0,0:0:0:0:
400,136,54946,1,8,0:3:0:0:
400,136,55118,1,0,0:0:0:0:
312,200,55461,6,0,L|188:184,1,110,6|0,0:0|0:0,0:0:0:0:
156,160,55975,2,0,L|156:236,1,55,8|0,0:0|0:0,0:0:0:0:
116,252,56318,2,0,L|116:328,1,55,8|0,0:0|0:0,0:0:0:0:
76,344,56661,1,8,0:0:0:0:
76,344,56832,6,0,P|116:336|200:352,1,110,0|0,1:0|1:0,0:0:0:0:
232,372,57346,1,0,1:0:0:0:
328,320,57689,1,0,0:0:0:0:
308,212,58032,1,8,0:0:0:0:
199,197,58375,5,6,0:0:0:0:
265,110,58718,2,0,L|332:100,1,55,8|0,0:0|0:0,0:0:0:0:
367,75,59061,2,0,P|361:128|383:178,1,110,2|8,0:0|0:0,0:0:0:0:
424,216,59575,2,0,P|374:237|342:281,1,110,6|0,0:0|0:0,0:0:0:0:
320,332,60089,1,8,0:0:0:0:
320,332,60261,2,0,P|284:304|168:328,1,165,6|8,0:0|0:0,0:0:0:0:
80,264,61118,5,6,0:0:0:0:
138,170,61461,2,0,L|128:96,1,55,8|0,0:0|0:0,0:0:0:0:
84,84,61804,2,0,P|137:90|187:67,1,110,2|8,0:0|0:0,0:0:0:0:
236,40,62318,2,0,P|229:93|252:143,1,110,6|0,0:0|0:0,0:0:0:0:
300,180,62832,1,8,0:0:0:0:
300,180,63004,2,0,P|356:148|460:180,1,165,6|8,0:0|3:0,0:0:0:0:
380,256,63861,5,6,0:0:0:0:
274,287,64204,1,8,0:0:0:0:
194,211,64546,1,2,0:0:0:0:
300,180,64889,1,8,0:0:0:0:
380,256,65232,2,0,L|372:332,2,55,6|2|8,0:0|0:0|0:0,0:0:0:0:
416,216,65746,2,0,P|396:172|416:60,1,165,6|8,0:0|0:0,0:0:0:0:
456,24,66432,5,6,0:0:0:0:
344,8,66775,2,0,L|288:8,1,55,0|0,3:0|3:0,0:0:0:0:
244,40,67118,2,0,L|188:40,1,55,0|0,3:0|3:0,0:0:0:0:
144,72,67461,2,0,L|88:72,1,55,0|0,3:0|3:0,0:0:0:0:
40,48,67804,2,0,P|60:116|48:168,1,110,6|0,0:0|0:0,0:0:0:0:
20,196,68318,1,8,0:3:0:0:
100,272,68661,1,8,0:0:0:0:
197,219,69004,1,8,0:0:0:0:
176,110,69346,5,6,0:0:0:0:
279,146,69689,2,0,L|336:132,1,55,8|0,0:0|0:0,0:0:0:0:
372,91,70032,2,0,P|359:145|373:197,1,110,2|8,0:0|0:0,0:0:0:0:
408,240,70546,2,0,P|355:256|317:294,1,110,6|0,0:0|0:0,0:0:0:0:
296,348,71061,1,8,0:0:0:0:
296,348,71232,2,0,P|248:304|136:332,1,165,6|8,0:0|0:0,0:0:0:0:
56,264,72089,5,6,0:0:0:0:
102,165,72432,2,0,L|168:172,1,55,8|0,0:0|0:0,0:0:0:0:
196,208,72775,2,0,P|187:153|198:100,1,110,2|8,0:0|0:0,0:0:0:0:
228,56,73289,2,0,P|173:64|120:53,1,110,6|0,0:0|0:0,0:0:0:0:
72,40,73804,1,8,0:0:0:0:
72,40,73975,1,6,0:0:0:0:
0,184,74489,2,0,L|8:244,1,55,8|0,0:0|0:0,0:0:0:0:
0,292,74832,6,0,L|124:276,1,110,6|8,0:0|0:0,0:0:0:0:
164,300,75346,1,0,0:0:0:0:
164,300,75518,2,0,L|288:284,1,110,2|8,0:0|0:0,0:0:0:0:
324,304,76032,2,0,P|308:256|332:192,1,110,6|0,0:0|0:0,0:0:0:0:
356,156,76546,1,8,0:0:0:0:
356,156,76718,2,0,P|306:145|263:93,1,110,6|0,0:0|0:0,0:0:0:0:
240,56,77232,1,8,0:0:0:0:
144,108,77575,6,0,L|68:100,1,55,6|2,0:0|0:0,0:0:0:0:
40,88,77918,1,2,0:0:0:0:
40,88,78089,2,0,L|52:216,1,110,6|0,0:0|0:0,0:0:0:0:
20,244,78604,1,8,0:0:0:0:
20,244,78775,2,0,P|73:232|125:248,1,110,6|4,0:0|0:3,0:0:0:0:
168,280,79289,1,4,0:3:0:0:
224,184,79632,1,8,0:3:0:0:
128,128,79975,1,4,0:0:0:0:
184,32,80318,6,0,L|352:40,1,165,6|2,0:0|0:0,0:0:0:0:
404,44,81004,1,2,0:0:0:0:
380,152,81346,1,8,0:0:0:0:
272,144,81689,2,0,L|104:136,1,165,2|2,0:0|0:0,0:0:0:0:
52,132,82375,2,0,P|60:180|32:252,1,110,2|8,0:0|0:0,0:0:0:0:
0,276,82889,6,0,P|36:260|112:280,1,110,6|4,0:0|0:3,0:0:0:0:
140,316,83404,2,0,L|208:308,1,55,4|4,0:3|0:3,0:0:0:0:
244,332,83746,2,0,L|312:324,1,55,4|4,0:3|0:3,0:0:0:0:
348,348,84089,2,0,L|416:340,1,55,4|4,0:3|0:0,0:0:0:0:
496,296,84604,2,0,P|504:322|504:356,2,55,8|8|8,0:3|0:3|0:3,0:0:0:0:
464,252,85118,1,8,0:3:0:0:
256,192,85804,12,0,88546,0:0:0:0:
