osu file format v14

[General]
AudioFilename: step.mp3
AudioLeadIn: 0
PreviewTime: 57604
Countdown: 0
SampleSet: Soft
StackLeniency: 0.7
Mode: 0
LetterboxInBreaks: 0
WidescreenStoryboard: 1

[Editor]
DistanceSpacing: 1
BeatDivisor: 4
GridSize: 4
TimelineZoom: 1.5

[Metadata]
Title:STEP by STEP UP
TitleUnicode:STEP by STEP UP↑↑↑↑
Artist:fourfolium
ArtistUnicode:fourfolium
Creator:Doormat
Version:Extra
Source:NEW GAME!!
Tags:Gaia Kalibe Moecho Moeri xxdeathx フォーフォリウム ニューゲーム season 2 two opening tv size takada yuuki 高田憂希 suzukaze aoba 涼風青葉 yamaguchi megumi 山口愛 takimoto hifumi 滝本ひふみ toda megumi 戸田めぐみ shinoda hazime 篠田はじめ ayumi takeo 竹尾歩美 iizima yun 飯島ゆん
BeatmapID:1331340
BeatmapSetID:630663

[Difficulty]
HPDrainRate:6
CircleSize:4
OverallDifficulty:8.5
ApproachRate:9
SliderMultiplier:1.7
SliderTickRate:1

[Events]
//Background and Video events
0,0,"newgame_background.jpg",0,0
Video,0,"newgame_op.avi"
//Break Periods
//Storyboard Layer 0 (Background)
//Storyboard Layer 1 (Fail)
//Storyboard Layer 2 (Pass)
//Storyboard Layer 3 (Foreground)
//Storyboard Sound Samples

[TimingPoints]
-596,342.857142857143,4,2,2,40,1,0
775,-125,4,2,2,40,0,0
13804,-125,4,2,2,5,0,0
14146,-66.6666666666667,4,2,2,80,0,0
14404,-66.6666666666667,4,2,2,5,0,0
14489,-100,4,2,1,70,0,0
24604,-100,4,2,2,50,0,0
25461,-125,4,2,1,50,0,0
27689,-125,4,2,2,50,0,0
28204,-125,4,2,1,50,0,0
32318,-125,4,2,2,50,0,0
33775,-125,4,2,1,50,0,0
36432,-100,4,2,1,60,0,0
47318,-100,4,2,1,5,0,0
47404,-125,4,2,1,50,0,0
52718,-100,4,2,1,60,0,0
54089,-100,4,2,1,70,0,0
55461,-100,4,2,1,80,0,0
58032,-66.6666666666667,4,2,1,80,0,0
58289,-66.6666666666667,4,2,1,5,0,0
58375,-90.9090909090909,4,2,1,80,0,1
69004,-66.6666666666667,4,2,1,80,0,1
69261,-90.9090909090909,4,2,1,5,0,0
69346,-90.9090909090909,4,2,1,80,0,1
80232,-90.9090909090909,4,2,1,5,0,1
80318,-166.666666666667,4,2,1,60,0,0
82889,-100,4,2,1,80,0,0
84604,-166.666666666667,4,2,1,60,0,0
85804,-166.666666666667,4,2,1,30,0,0
88546,-100,4,2,1,10,0,0

[Colours]
Combo1 : 241,142,86
Combo2 : 250,191,27
Combo3 : 149,216,62
Combo4 : 181,178,148
Combo5 : 195,123,177
Combo6 : 149,208,183
Combo7 : 237,121,128
Combo8 : 129,205,219

[HitObjects]
152,108,775,6,0,P|218:120|286:119,1,136,6|0,0:0|0:0,0:0:0:0:
484,268,1461,2,0,P|416:267|349:279,1,136,2|0,0:0|0:0,0:0:0:0:
276,332,1975,6,0,P|223:292|152:300,1,136,2|0,0:0|0:0,0:0:0:0:
196,384,2489,1,2,0:0:0:0:
349,278,2661,2,0,P|352:212|344:120,1,136,2|0,0:0|0:0,0:0:0:0:
176,68,3175,2,0,P|172:124|180:164,1,68
216,228,3518,6,0,P|148:218|80:212,1,136,2|0,0:0|0:0,0:0:0:0:
288,348,4204,1,2,0:0:0:0:
288,348,4375,2,0,P|321:344|355:340,1,68,2|0,0:0|0:0,0:0:0:0:
455,251,4718,6,0,P|411:202|411:135,1,136,2|0,0:0|0:0,0:0:0:0:
500,168,5232,1,2,0:0:0:0:
368,304,5404,2,0,L|234:276,1,136,2|0,0:0|0:0,0:0:0:0:
116,224,5918,1,2,0:0:0:0:
221,147,6089,1,2,0:0:0:0:
300,290,6261,6,0,P|353:307|440:252,1,136,2|0,0:0|0:0,0:0:0:0:
444,183,6775,1,2,0:0:0:0:
341,76,6946,2,0,L|352:212,1,136,2|0,0:0|0:0,0:0:0:0:
144,152,7461,6,0,L|155:16,1,136,2|0,0:0|0:0,0:0:0:0:
244,100,7975,1,2,0:0:0:0:
195,224,8146,2,0,P|133:244|76:210,1,136,2|0,0:0|0:0,0:0:0:0:
244,100,8661,2,0,P|277:93|310:95,1,68,2|0,0:0|0:0,0:0:0:0:
308,336,9004,6,0,P|276:277|294:208,1,136,2|0,0:0|0:0,0:0:0:0:
416,192,9518,2,0,L|409:259,2,68
335,93,10032,2,0,L|401:80,1,68,2|0,0:0|0:0,0:0:0:0:
442,282,10375,6,0,P|345:291|289:211,1,204,2|0,0:0|0:0,0:0:0:0:
192,96,11061,2,0,P|188:164|140:228,1,136,2|0,0:0|0:0,0:0:0:0:
0,108,11575,6,0,P|103:74|60:180,1,272,2|2,0:0|0:0,0:0:0:0:
256,192,12346,12,0,13804,0:0:0:0:
127,174,14146,6,0,B|115:310|115:310|79:242,1,191.250007295609,8|0,0:1|0:0,0:0:0:0:
71,116,14489,6,0,P|144:95|204:148,1,127.5,6|0,0:0|0:0,0:0:0:0:
283,164,14832,2,0,L|291:80,1,85,8|2,0:0|0:0,0:0:0:0:
291,80,15089,1,8,0:0:0:0:
291,80,15175,1,2,0:0:0:0:
384,208,15346,1,2,0:0:0:0:
452,72,15518,1,8,0:0:0:0:
260,186,15689,6,0,L|91:205,1,170,4|2,0:0|0:0,0:0:0:0:
268,84,16204,1,8,0:0:0:0:
392,292,16375,2,0,L|373:123,1,170,6|2,0:0|0:0,0:0:0:0:
176,44,16889,2,0,P|168:88|184:136,1,85,8|0,0:0|0:0,0:0:0:0:
392,292,17232,6,0,P|311:271|239:311,1,170,6|8,0:0|0:0,0:0:0:0:
68,240,17746,1,0,0:0:0:0:
68,240,17832,1,8,0:0:0:0:
68,240,17918,1,2,0:0:0:0:
208,116,18089,2,0,L|204:216,1,85,2|8,0:0|0:0,0:0:0:0:
44,32,18432,6,0,L|213:24,1,170,6|2,0:0|0:0,0:0:0:0:
392,20,18946,1,8,0:0:0:0:
224,248,19118,2,0,P|202:188|218:128,1,127.5,4|0,0:0|0:0,0:0:0:0:
300,64,19461,1,8,0:0:0:0:
400,308,19632,1,8,0:0:0:0:
400,308,19975,6,0,P|358:301|317:312,1,85,6|0,0:0|0:0,0:0:0:0:
160,140,20318,2,0,P|201:146|242:135,1,85,8|0,0:0|0:0,0:0:0:0:
152,372,20661,2,0,L|142:287,1,85,2|2,0:0|0:0,0:0:0:0:
364,120,21004,2,0,L|352:224,1,85,8|0,0:0|0:0,0:0:0:0:
120,128,21346,5,6,0:0:0:0:
272,284,21518,1,2,0:0:0:0:
32,268,21689,1,10,0:0:0:0:
185,57,21861,2,0,P|214:133|175:206,1,170,6|2,0:0|0:0,0:0:0:0:
28,76,22375,1,8,0:0:0:0:
272,12,22546,1,0,0:0:0:0:
272,12,22632,1,0,0:0:0:0:
272,12,22718,5,8,0:0:0:0:
196,256,22889,1,2,0:0:0:0:
150,44,23061,1,2,0:0:0:0:
388,112,23232,2,0,L|303:122,1,85,8|0,0:0|0:0,0:0:0:0:
100,200,23575,1,2,0:0:0:0:
300,340,23746,1,8,3:0:0:0:
301,311,23832,1,8,3:0:0:0:
302,283,23918,1,8,3:0:0:0:
0,320,24089,5,0,1:0:0:0:
46,64,24261,1,0,1:0:0:0:
271,191,24432,1,0,1:0:0:0:
158,127,24604,5,2,0:0:0:0:
158,127,24689,1,2,0:0:0:0:
158,127,24775,1,2,0:0:0:0:
189,203,24946,1,2,0:0:0:0:
135,271,25118,1,2,0:0:0:0:
51,257,25289,1,2,0:0:0:0:
240,139,25461,6,0,L|315:146,1,68,6|0,0:0|0:0,0:0:0:0:
416,259,25804,1,2,0:0:0:0:
319,240,25975,1,0,0:0:0:0:
396,103,26146,1,2,0:0:0:0:
463,173,26318,1,0,0:0:0:0:
307,145,26489,1,2,0:0:0:0:
440,280,26661,6,0,L|532:264,1,68,0|2,0:0|0:0,0:0:0:0:
385,182,27004,1,0,0:0:0:0:
341,333,27175,1,2,0:0:0:0:
220,224,27346,2,0,L|287:236,1,68,0|2,0:0|0:0,0:0:0:0:
100,284,27689,5,2,0:0:0:0:
180,100,27861,1,2,0:0:0:0:
100,284,28032,1,2,0:0:0:0:
286,235,28204,6,0,P|291:201|286:167,1,68,2|0,0:0|0:0,0:0:0:0:
101,217,28546,2,0,P|95:250|100:284,1,68,2|0,0:0|0:0,0:0:0:0:
204,356,28889,1,2,0:0:0:0:
286,234,29061,2,0,L|219:246,1,68,0|2,0:0|0:0,0:0:0:0:
448,292,29404,6,0,L|436:225,1,68,0|2,0:0|0:0,0:0:0:0:
298,167,29746,2,0,L|286:233,1,68,0|2,0:0|0:0,0:0:0:0:
250,383,30089,1,0,0:0:0:0:
193,291,30261,5,4,0:3:0:0:
342,326,30432,1,4,0:3:0:0:
250,383,30604,1,8,0:3:0:0:
285,233,30775,1,8,0:3:0:0:
442,275,30946,6,0,P|445:308|440:342,1,68,6|0,0:0|0:0,0:0:0:0:
285,233,31289,2,0,P|282:200|287:166,1,68,2|0,0:0|0:0,0:0:0:0:
160,304,31632,2,0,P|163:337|158:371,1,68,2|0,0:0|0:0,0:0:0:0:
3,254,31975,2,0,P|0:221|5:187,1,68,2|0,0:0|0:0,0:0:0:0:
160,84,32318,5,2,0:0:0:0:
92,220,32489,1,2,0:0:0:0:
200,326,32661,1,2,0:0:0:0:
328,188,32832,2,0,L|334:256,1,68,2|0,0:0|0:0,0:0:0:0:
208,164,33175,1,2,0:0:0:0:
320,48,33346,1,2,0:0:0:0:
436,160,33518,1,2,0:0:0:0:
200,184,33689,6,0,L|132:176,1,68,2|0,0:0|0:0,0:0:0:0:
352,280,34032,2,0,L|419:272,1,68,2|0,0:0|0:0,0:0:0:0:
212,336,34375,1,2,0:0:0:0:
308,204,34546,1,0,0:0:0:0:
280,380,34718,1,2,0:0:0:0:
148,284,34889,1,0,0:0:0:0:
408,236,35061,5,6,0:0:0:0:
408,236,35918,1,2,0:0:0:0:
148,284,36089,1,8,0:0:0:0:
408,235,36432,6,0,P|328:268|243:235,1,170,6|8,0:0|0:0,0:0:0:0:
392,100,36946,1,0,0:0:0:0:
392,100,37032,1,0,0:0:0:0:
392,100,37118,1,2,0:0:0:0:
512,184,37289,2,0,L|504:268,1,85,0|8,0:0|0:0,0:0:0:0:
295,367,37632,6,0,L|287:283,1,85,0|2,0:0|0:0,0:0:0:0:
392,100,37975,2,0,L|400:184,1,85,0|8,0:0|0:0,0:0:0:0:
248,104,38318,1,0,0:0:0:0:
376,268,38489,1,2,0:0:0:0:
392,100,38661,1,2,0:0:0:0:
236,244,38832,1,8,0:0:0:0:
176,40,39004,1,0,0:0:0:0:
176,40,39089,1,0,0:0:0:0:
176,39,39175,6,0,P|259:7|332:54,1,170,2|8,0:0|0:0,0:0:0:0:
171,179,39689,2,0,L|86:169,1,85,0|2,0:0|0:0,0:0:0:0:
194,319,40032,1,2,0:0:0:0:
248,104,40204,1,8,0:0:0:0:
320,184,40375,6,0,P|237:216|164:169,1,170,2|2,0:0|0:0,0:0:0:0:
320,48,40889,1,8,0:0:0:0:
452,156,41061,2,0,P|451:240|440:332,1,170,2|2,0:0|0:0,0:0:0:0:
224,368,41575,2,0,P|216:326|214:283,1,85,8|0,0:0|0:0,0:0:0:0:
248,104,41918,5,6,0:0:0:0:
248,103,42261,2,0,P|170:122|96:75,1,170,8|2,0:0|0:0,0:0:0:0:
183,20,42775,1,2,0:0:0:0:
264,196,42946,1,8,0:0:0:0:
8,108,43118,6,0,B|20:279,1,170,6|2,0:0|0:0,0:0:0:0:
216,316,43632,1,8,0:0:0:0:
144,140,43804,2,0,L|150:224,1,85,0|2,0:0|0:0,0:0:0:0:
348,316,44146,2,0,L|354:231,1,85,2|8,0:0|0:0,0:0:0:0:
244,72,44489,6,0,P|180:108|84:72,1,170,6|0,0:0|0:0,0:0:0:0:
20,224,45004,1,8,0:0:0:0:
232,200,45175,1,0,0:0:0:0:
164,12,45346,1,2,0:0:0:0:
128,224,45518,1,2,0:0:0:0:
276,76,45689,1,8,0:0:0:0:
20,60,45861,1,2,0:0:0:0:
20,60,46204,5,10,0:0:0:0:
120,141,46375,1,10,0:0:0:0:
0,188,46546,1,10,0:0:0:0:
100,269,46718,1,10,0:0:0:0:
100,269,47061,6,0,P|90:320|64:281,1,127.5,2|0,0:0|0:0,0:0:0:0:
188,224,47404,6,0,L|195:359,1,136,6|8,0:0|0:1,0:0:0:0:
92,320,47918,1,2,0:0:0:0:
130,146,48089,2,0,P|193:127|254:155,1,136,2|8,0:0|0:1,0:0:0:0:
421,243,48604,6,0,P|360:270|296:251,1,136,2|0,0:0|0:0,0:0:0:0:
359,167,49118,1,8,0:1:0:0:
512,240,49289,2,0,L|506:319,1,68,2|2,0:0|0:0,0:0:0:0:
200,289,49632,5,8,0:1:0:0:
421,243,49804,1,8,0:1:0:0:
284,185,49975,1,0,0:0:0:0:
150,360,50146,6,0,P|214:375|270:340,1,136,2|8,0:0|0:1,0:0:0:0:
308,253,50661,1,2,0:0:0:0:
192,153,50832,2,0,L|200:289,1,136,2|8,0:0|0:1,0:0:0:0:
408,168,51346,6,0,L|400:32,1,136,2|0,0:0|0:0,0:0:0:0:
512,132,51861,1,8,0:1:0:0:
296,140,52032,1,0,3:0:0:0:
296,140,52118,1,0,3:0:0:0:
296,140,52204,1,0,3:0:0:0:
400,32,52375,1,8,0:1:0:0:
412,248,52546,1,8,0:1:0:0:
196,48,52718,6,0,P|209:130|166:200,1,170,6|0,0:0|0:0,0:0:0:0:
164,200,53146,1,0,0:0:0:0:
164,200,53232,1,8,0:0:0:0:
380,104,53404,1,0,0:0:0:0:
86,105,53575,1,8,0:0:0:0:
340,224,53746,1,0,0:0:0:0:
56,284,53918,1,8,0:0:0:0:
240,56,54089,6,0,P|212:112|240:216,1,170,6|0,0:0|0:0,0:0:0:0:
236,212,54518,1,0,0:0:0:0:
236,212,54604,1,8,0:0:0:0:
40,60,54775,1,0,0:0:0:0:
332,136,54946,1,8,0:3:0:0:
36,240,55118,1,0,0:0:0:0:
200,12,55289,1,8,0:0:0:0:
428,192,55461,6,0,P|361:243|275:229,1,170,6|0,0:0|0:0,0:0:0:0:
84,76,55975,1,8,0:0:0:0:
332,136,56146,1,0,0:0:0:0:
92,272,56318,5,8,0:0:0:0:
428,192,56489,1,0,0:0:0:0:
144,16,56661,1,8,0:0:0:0:
168,356,56832,6,0,B|196:332|200:296|200:296|192:264|166:243,1,127.5,0|0,1:0|0:0,0:0:0:0:
108,192,57175,1,0,1:0:0:0:
436,116,57346,1,0,1:0:0:0:
444,124,57861,5,2,0:0:0:0:
444,124,57946,1,2,0:0:0:0:
444,124,58032,2,0,P|432:192|500:132,1,191.250007295609,8|0,0:0|0:0,0:0:0:0:
496,40,58375,6,0,L|344:48,1,140.25000428009,6|0,0:0|0:0,0:0:0:0:
232,35,58718,2,0,P|259:72|262:118,1,93.5000028533936,8|0,0:0|0:0,0:0:0:0:
262,118,58975,1,8,0:0:0:0:
261,118,59061,1,2,0:0:0:0:
76,272,59232,1,2,0:0:0:0:
154,110,59404,1,8,0:0:0:0:
328,204,59575,6,0,B|280:240|280:240|136:204,1,187.000005706787,6|0,0:0|0:0,0:0:0:0:
292,100,60089,1,8,0:0:0:0:
420,272,60261,2,0,L|412:384,1,93.5000028533936,6|2,0:0|0:0,0:0:0:0:
272,204,60604,1,2,0:0:0:0:
480,56,60775,1,8,0:0:0:0:
512,252,60946,1,0,0:0:0:0:
380,4,61118,6,0,P|368:72|401:136,1,140.25000428009,6|0,0:0|0:0,0:0:0:0:
480,232,61461,2,0,P|433:235|392:256,1,93.5000028533936,8|0,0:0|0:0,0:0:0:0:
392,255,61718,1,8,0:0:0:0:
392,255,61804,1,2,0:0:0:0:
248,380,61975,1,2,0:0:0:0:
456,328,62146,1,8,0:0:0:0:
318,141,62318,6,0,B|287:198|287:198|318:317,1,187.000005706787,6|0,0:0|0:0,0:0:0:0:
432,176,62832,1,8,0:0:0:0:
220,88,63004,2,0,P|156:104|48:12,1,187.000005706787,6|0,0:0|0:0,0:0:0:0:
81,263,63518,1,8,3:0:0:0:
82,251,63604,1,8,3:0:0:0:
83,239,63689,1,8,3:0:0:0:
323,147,63861,6,0,L|424:136,1,93.5000028533936,6|0,0:0|0:0,0:0:0:0:
173,273,64204,2,0,L|81:263,1,93.5000028533936,8|0,0:0|0:0,0:0:0:0:
356,356,64546,2,0,P|364:310|362:263,1,93.5000028533936,2|0,0:0|0:0,0:0:0:0:
164,64,64889,2,0,P|162:110|169:156,1,93.5000028533936,8|0,0:0|0:0,0:0:0:0:
436,204,65232,5,6,0:0:0:0:
152,276,65404,1,2,0:0:0:0:
301,24,65575,1,8,0:0:0:0:
464,280,65746,2,0,P|378:259|362:172,1,187.000005706787,6|0,0:0|0:0,0:0:0:0:
184,292,66261,1,8,0:0:0:0:
76,24,66432,6,0,L|88:140,1,93.5000028533936,6|0,0:0|0:0,0:0:0:0:
244,192,66775,1,0,3:0:0:0:
247,160,66861,1,0,3:0:0:0:
250,129,66946,1,0,3:0:0:0:
104,276,67118,1,0,3:0:0:0:
100,244,67204,1,0,3:0:0:0:
97,213,67289,1,0,3:0:0:0:
244,360,67461,1,0,3:0:0:0:
248,328,67546,1,0,3:0:0:0:
251,297,67632,1,0,3:0:0:0:
179,81,67804,6,0,P|254:131|341:108,1,187.000005706787,6|0,0:0|0:0,0:0:0:0:
98,198,68318,1,8,0:3:0:0:
272,18,68489,1,8,0:3:0:0:
348,296,68661,1,8,0:0:0:0:
144,108,68832,5,2,0:0:0:0:
144,108,68918,1,2,0:0:0:0:
144,108,69004,2,0,P|132:40|200:100,1,191.250007295609,8|0,0:0|0:0,0:0:0:0:
196,192,69346,6,0,L|44:184,1,140.25000428009,6|0,0:0|0:0,0:0:0:0:
116,296,69689,2,0,P|157:317|203:324,1,93.5000028533936,8|0,0:0|0:0,0:0:0:0:
203,324,69946,1,8,0:0:0:0:
203,324,70032,1,2,0:0:0:0:
412,204,70204,1,2,0:0:0:0:
404,380,70375,1,8,0:0:0:0:
224,172,70546,6,0,P|280:204|409:150,1,187.000005706787,6|0,0:0|0:0,0:0:0:0:
307,79,71061,1,8,0:0:0:0:
103,120,71232,2,0,P|92:164|97:211,1,93.5000028533936,6|0,0:0|0:0,0:0:0:0:
288,360,71575,1,2,0:0:0:0:
224,172,71746,1,8,0:0:0:0:
108,304,71918,1,0,0:0:0:0:
323,267,72089,6,0,P|257:252|197:285,1,140.25000428009,6|0,0:0|0:0,0:0:0:0:
87,219,72432,2,0,P|79:173|89:127,1,93.5000028533936,8|0,0:0|0:0,0:0:0:0:
89,127,72689,1,8,0:0:0:0:
89,127,72775,1,2,0:0:0:0:
332,32,72946,1,2,0:0:0:0:
132,16,73118,1,8,0:0:0:0:
375,147,73289,6,0,P|287:123|199:171,1,187.000005706787,6|0,0:0|0:0,0:0:0:0:
300,264,73804,1,8,0:0:0:0:
500,208,73975,2,0,L|480:18,1,187.000005706787,6|0,0:0|0:0,0:0:0:0:
256,16,74489,1,8,0:0:0:0:
404,136,74661,1,0,0:0:0:0:
136,188,74832,6,0,P|225:171|299:224,1,187.000005706787,6|8,0:0|0:0,0:0:0:0:
104,68,75346,1,0,0:0:0:0:
104,68,75432,1,8,0:0:0:0:
104,68,75518,1,2,0:0:0:0:
200,280,75689,1,2,0:0:0:0:
308,96,75861,1,8,0:0:0:0:
64,204,76032,6,0,B|116:228|156:204|156:204|196:180|251:204,1,187.000005706787,6|0,0:0|0:0,0:0:0:0:
432,132,76546,1,8,0:0:0:0:
340,368,76718,2,0,B|337:324|337:324|355:291|355:291|350:185,1,187.000005706787,6|0,0:0|0:0,0:0:0:0:
140,112,77232,1,8,0:0:0:0:
260,268,77404,1,0,0:0:0:0:
296,36,77575,5,6,0:0:0:0:
120,252,77746,1,2,0:0:0:0:
436,208,77918,1,2,0:0:0:0:
104,156,78089,2,0,P|186:180|214:276,1,187.000005706787,6|0,0:0|0:0,0:0:0:0:
404,92,78604,1,8,0:0:0:0:
512,340,78775,6,0,L|308:352,1,187.000005706787,6|4,0:0|0:3,0:0:0:0:
348,176,79289,2,0,L|451:170,1,93.5000028533936,4|0,0:3|0:0,0:0:0:0:
172,56,79632,1,8,0:3:0:0:
172,56,79718,1,8,0:3:0:0:
172,56,79804,1,8,0:3:0:0:
172,56,79889,1,8,0:3:0:0:
172,56,79975,6,0,P|160:104|200:60,1,140.25000428009,4|0,0:0|0:0,0:0:0:0:
98,19,80318,6,0,P|78:66|126:175,1,152.999995330811,6|2,0:0|0:0,0:0:0:0:
248,168,81004,1,2,0:0:0:0:
248,168,81346,2,0,L|298:163,1,50.9999984436036,8|0,0:0|0:0,0:0:0:0:
412,123,81689,6,0,P|398:199|403:275,1,152.999995330811,2|2,0:0|0:0,0:0:0:0:
276,336,82375,2,0,P|240:324|168:316,1,101.999996887207,2|8,0:0|0:0,0:0:0:0:
44,124,82889,6,0,P|111:171|191:151,1,170,6|4,0:0|0:3,0:0:0:0:
400,180,83404,1,4,0:3:0:0:
128,76,83575,1,4,0:3:0:0:
412,40,83746,5,4,0:3:0:0:
112,200,83918,1,4,0:3:0:0:
468,232,84089,1,4,0:3:0:0:
128,76,84261,1,4,0:0:0:0:
128,76,84604,5,8,0:3:0:0:
180,160,84775,1,8,0:3:0:0:
116,235,84946,1,8,0:3:0:0:
167,318,85118,2,0,P|240:348|204:277,1,203.999993774414,8|4,0:3|0:0,0:0:0:0:
256,192,85889,12,0,88546,0:0:0:0:
