osu file format v14

[General]
AudioFilename: step.mp3
AudioLeadIn: 0
PreviewTime: 57604
Countdown: 0
SampleSet: Soft
StackLeniency: 0.7
Mode: 0
LetterboxInBreaks: 0
WidescreenStoryboard: 1

[Editor]
DistanceSpacing: 0.9
BeatDivisor: 4
GridSize: 4
TimelineZoom: 1.5

[Metadata]
Title:STEP by STEP UP
TitleUnicode:STEP by STEP UP↑↑↑↑
Artist:fourfolium
ArtistUnicode:fourfolium
Creator:Doormat
Version:Easy
Source:NEW GAME!!
Tags:Gaia Kalibe Moecho Moeri xxdeathx フォーフォリウム ニューゲーム season 2 two opening tv size takada yuuki 高田憂希 suzukaze aoba 涼風青葉 yamaguchi megumi 山口愛 takimoto hifumi 滝本ひふみ toda megumi 戸田めぐみ shinoda hazime 篠田はじめ ayumi takeo 竹尾歩美 iizima yun 飯島ゆん
BeatmapID:1331339
BeatmapSetID:630663

[Difficulty]
HPDrainRate:2
CircleSize:3
OverallDifficulty:2
ApproachRate:3.5
SliderMultiplier:1
SliderTickRate:1

[Events]
//Background and Video events
0,0,"newgame_background.jpg",0,0
Video,0,"newgame_op.avi"
//Break Periods
//Storyboard Layer 0 (Background)
//Storyboard Layer 1 (Fail)
//Storyboard Layer 2 (Pass)
//Storyboard Layer 3 (Foreground)
//Storyboard Sound Samples

[TimingPoints]
-596,342.857142857143,4,2,2,40,1,0
13804,-100,4,2,2,5,0,0
14146,-100,4,2,2,80,0,0
14404,-100,4,2,2,5,0,0
14489,-100,4,2,1,70,0,0
24604,-100,4,2,2,50,0,0
25461,-100,4,2,1,50,0,0
27689,-100,4,2,2,50,0,0
28204,-100,4,2,1,50,0,0
32318,-100,4,2,2,50,0,0
33775,-100,4,2,1,50,0,0
36432,-100,4,2,1,60,0,0
47318,-100,4,2,1,5,0,0
47404,-100,4,2,1,50,0,0
52718,-100,4,2,1,60,0,0
54089,-100,4,2,1,70,0,0
55461,-100,4,2,1,80,0,0
58289,-100,4,2,1,5,0,0
58375,-100,4,2,1,80,0,1
69261,-100,4,2,1,5,0,0
69346,-100,4,2,1,80,0,1
80232,-100,4,2,1,5,0,1
80318,-100,4,2,1,60,0,0
82889,-100,4,2,1,80,0,0
84604,-100,4,2,1,60,0,0
85804,-100,4,2,1,30,0,0
88546,-100,4,2,1,10,0,0

[Colours]
Combo1 : 241,142,86
Combo2 : 250,191,27
Combo3 : 149,216,62
Combo4 : 181,178,148
Combo5 : 195,123,177
Combo6 : 149,208,183
Combo7 : 237,121,128
Combo8 : 129,205,219

[HitObjects]
196,332,775,6,0,L|295:337,1,99.9999999999999,6|0,0:0|0:0,0:0:0:0:
384,356,1461,2,0,L|392:184,1,150,2|2,0:0|0:0,0:0:0:0:
464,144,2318,1,0,0:0:0:0:
401,69,2661,2,0,P|337:104|266:85,1,150,2|0,0:0|0:0,0:0:0:0:
180,68,3518,6,0,L|176:180,1,99.9999999999999,2|0,0:0|0:0,0:0:0:0:
144,252,4204,2,0,L|293:257,1,150,2|2,0:0|0:0,0:0:0:0:
372,308,5061,1,0,0:0:0:0:
422,229,5404,2,0,P|404:156|426:86,1,150,2|2,0:0|0:0,0:0:0:0:
348,40,6261,6,0,B|296:64|252:38|252:38|204:17|155:40,1,200,2|2,0:0|0:0,0:0:0:0:
36,116,7461,2,0,L|48:220,1,99.9999999999999,2|0,0:0|0:0,0:0:0:0:
118,276,8146,2,0,P|150:208|205:159,1,150,2|2,0:0|0:0,0:0:0:0:
248,238,9004,6,0,P|238:360|343:298,1,300,2|2,0:0|0:0,0:0:0:0:
336,208,10375,2,0,B|397:210|423:261|423:261|467:225|474:185,1,200,2|2,0:0|0:0,0:0:0:0:
392,80,11575,5,2,0:0:0:0:
392,80,12261,2,0,B|336:120|248:80|248:80|260:192|180:252|180:252|100:220|76:144|76:144|100:100,1,549.999999999999,2|8,0:0|0:1,0:0:0:0:
164,36,14489,5,6,0:0:0:0:
75,12,14832,1,8,0:0:0:0:
10,76,15175,2,0,P|-12:136|20:228,1,150,2|4,0:0|0:0,0:0:0:0:
64,288,16032,1,2,0:0:0:0:
148,256,16375,2,0,P|221:246|292:270,1,150,6|8,0:0|0:0,0:0:0:0:
380,276,17232,6,0,P|370:202|394:131,1,150,6|0,0:0|0:0,0:0:0:0:
444,60,18089,1,2,0:0:0:0:
372,9,18432,2,0,L|256:35,1,99.9999999999999,6|2,0:0|0:0,0:0:0:0:
196,80,19118,2,0,L|49:46,1,150,4|8,0:0|0:0,0:0:0:0:
48,136,19975,5,6,0:0:0:0:
46,225,20318,1,8,0:0:0:0:
124,181,20661,2,0,P|174:176|224:181,1,99.9999999999999,2|8,0:0|0:0,0:0:0:0:
284,248,21346,2,0,P|312:188|280:108,2,150,6|6|8,0:0|0:0|0:0,0:0:0:0:
212,300,22718,6,0,P|152:272|72:304,2,150,8|8|8,0:0|0:0|3:0,0:0:0:0:
276,364,24089,1,0,1:0:0:0:
368,356,24432,1,0,1:0:0:0:
368,356,25461,6,0,P|356:305|371:256,1,100,6|2,0:0|0:0,0:0:0:0:
437,201,26146,2,0,P|452:152|424:60,1,150,2|0,0:0|0:0,0:0:0:0:
344,16,27004,1,0,0:0:0:0:
276,76,27346,2,0,P|203:91|135:63,1,150,0|2,0:0|0:0,0:0:0:0:
56,20,28204,5,2,0:0:0:0:
12,99,28546,1,2,0:0:0:0:
73,164,28889,2,0,L|69:316,1,150,2|0,0:0|0:0,0:0:0:0:
148,360,29746,1,0,0:0:0:0:
204,288,30089,2,0,P|212:248|196:184,2,99.9999999999999,0|4|8,0:0|0:3|0:3,0:0:0:0:
320,356,31289,5,2,0:0:0:0:
380,288,31632,1,2,0:0:0:0:
333,209,31975,1,2,0:0:0:0:
393,141,32318,2,0,P|408:92|376:-4,2,150,2|2|2,0:0|0:0|0:0,0:0:0:0:
333,209,33689,6,0,L|233:196,1,99.9999999999999,2|2,0:0|0:0,0:0:0:0:
144,192,34375,2,0,L|157:291,1,99.9999999999999,2|2,0:0|0:0,0:0:0:0:
176,378,35061,1,6,0:0:0:0:
444,356,36089,1,8,0:0:0:0:
484,276,36432,6,0,P|466:229|476:168,1,99.9999999999999,6|8,0:0|0:0,0:0:0:0:
480,92,37118,2,0,P|406:100|345:56,1,150,2|0,0:0|0:0,0:0:0:0:
276,4,37975,1,0,0:0:0:0:
208,60,38318,2,0,L|220:172,1,99.9999999999999,0|2,0:0|0:0,0:0:0:0:
236,248,39004,6,0,L|68:221,1,150,0|8,0:0|0:0,0:0:0:0:
72,312,39861,2,0,L|239:338,1,150,2|2,0:0|0:0,0:0:0:0:
308,348,40718,1,2,0:0:0:0:
384,299,41061,2,0,P|356:224|387:156,1,150,2|8,0:0|0:0,0:0:0:0:
452,108,41918,5,6,0:0:0:0:
384,48,42261,2,0,L|234:62,1,150,8|2,0:0|0:0,0:0:0:0:
152,26,43118,2,0,P|142:74|163:119,1,99.9999999999999,6|2,0:0|0:0,0:0:0:0:
236,176,43804,2,0,P|245:224|224:269,1,99.9999999999999,0|2,0:0|0:0,0:0:0:0:
152,324,44489,6,0,P|221:301|289:330,1,150,6|8,0:0|0:0,0:0:0:0:
376,348,45346,2,0,P|449:352|506:306,1,150,2|2,0:0|0:0,0:0:0:0:
480,220,46204,2,0,B|443:243|443:243|386:237|386:237|345:264,1,150,10|10,0:0|0:0,0:0:0:0:
288,336,47061,1,2,0:0:0:0:
216,280,47404,6,0,L|220:176,1,99.9999999999999,6|8,0:0|0:1,0:0:0:0:
132,156,48089,2,0,L|127:318,2,150,2|2|8,0:0|0:0|0:1,0:0:0:0:
195,91,49461,2,0,P|245:100|294:93,1,99.9999999999999,2|8,0:0|0:1,0:0:0:0:
384,76,50146,6,0,P|375:125|382:174,1,99.9999999999999,2|8,0:0|0:1,0:0:0:0:
464,207,50832,2,0,P|408:260|331:246,1,150,2|2,0:0|0:0,0:0:0:0:
252,228,51689,2,0,L|245:327,1,99.9999999999999,0|0,0:0|3:0,0:0:0:0:
172,384,52374,1,8,0:1:0:0:
100,328,52718,6,0,L|89:164,1,150,6|8,0:0|0:0,0:0:0:0:
84,88,53575,1,8,0:0:0:0:
212,128,54089,2,0,P|280:144|360:108,1,150,6|8,0:0|0:0,0:0:0:0:
408,44,54946,1,8,0:3:0:0:
484,156,55461,6,0,P|479:230|479:305,1,150,6|8,0:0|0:0,0:0:0:0:
392,288,56318,2,0,P|380:213|363:140,2,150,8|0|0,0:0|1:0|1:0,0:0:0:0:
332,356,57689,1,0,0:0:0:0:
264,300,58032,1,8,0:0:0:0:
196,244,58375,5,6,0:0:0:0:
140,312,58718,1,8,0:0:0:0:
72,256,59061,2,0,P|60:192|72:96,1,150,2|6,0:0|0:0,0:0:0:0:
96,24,59918,1,0,0:0:0:0:
172,72,60261,2,0,P|232:92|312:56,1,150,6|8,0:0|0:0,0:0:0:0:
392,24,61118,5,6,0:0:0:0:
476,56,61461,1,8,0:0:0:0:
444,140,61804,2,0,P|432:192|436:292,1,150,2|6,0:0|0:0,0:0:0:0:
460,376,62661,1,0,0:0:0:0:
371,355,63004,2,0,P|301:331|224:360,1,150,6|8,0:0|3:0,0:0:0:0:
144,344,63861,5,6,0:0:0:0:
196,272,64204,1,8,0:0:0:0:
143,200,64546,1,2,0:0:0:0:
58,227,64889,1,8,0:0:0:0:
5,155,65232,2,0,P|-5:81|25:14,1,150,6|6,0:0|0:0,0:0:0:0:
180,108,66432,6,0,L|168:257,1,150,6|0,0:0|3:0,0:0:0:0:
228,324,67289,2,0,P|161:351|98:315,2,150,0|6|8,3:0|0:0|0:3,0:0:0:0:
288,260,68661,1,8,0:0:0:0:
360,312,69004,1,8,0:0:0:0:
412,240,69346,5,6,0:0:0:0:
464,168,69689,1,8,0:0:0:0:
392,116,70032,2,0,L|236:128,1,150,2|6,0:0|0:0,0:0:0:0:
152,136,70889,1,0,0:0:0:0:
192,216,71232,2,0,P|216:272|184:360,1,150,6|8,0:0|0:0,0:0:0:0:
104,372,72089,5,6,0:0:0:0:
28,324,72432,1,8,0:0:0:0:
76,248,72775,2,0,L|60:84,1,150,2|6,0:0|0:0,0:0:0:0:
52,8,73632,1,0,0:0:0:0:
140,36,73975,2,0,P|211:51|276:16,1,150,6|8,0:0|0:0,0:0:0:0:
360,48,74832,6,0,L|380:145,1,100,6|8,0:0|0:0,0:0:0:0:
460,188,75518,2,0,P|395:233|328:217,1,150,2|6,0:0|0:0,0:0:0:0:
241,191,76375,1,0,0:0:0:0:
156,228,76718,2,0,L|139:377,1,150,6|8,0:0|0:0,0:0:0:0:
56,340,77575,6,0,P|42:266|53:192,1,150,6|6,0:0|0:0,0:0:0:0:
96,112,78432,1,0,0:0:0:0:
164,172,78775,2,0,P|232:200|312:164,1,150,6|4,0:0|0:3,0:0:0:0:
364,112,79632,1,8,0:3:0:0:
323,32,79975,1,4,0:0:0:0:
234,46,80318,6,0,B|182:70|138:44|138:44|90:23|41:46,1,200,6|2,0:0|0:0,0:0:0:0:
6,130,81346,1,8,0:0:0:0:
90,164,81689,2,0,P|142:188|138:316,1,200,2|2,0:0|0:0,0:0:0:0:
268,356,82889,6,0,L|420:332,1,150,6|4,0:0|0:3,0:0:0:0:
376,252,83746,2,0,L|225:243,1,150,4|4,0:3|0:0,0:0:0:0:
166,176,84604,2,0,P|133:244|164:309,1,150,8|8,0:3|0:3,0:0:0:0:
256,192,85804,12,0,88546,0:0:0:0:
