osu file format v14

[General]
AudioFilename: SAKURA skip.mp3
AudioLeadIn: 0
PreviewTime: 62691
Countdown: 0
SampleSet: Normal
StackLeniency: 0.7
Mode: 1
LetterboxInBreaks: 0
WidescreenStoryboard: 0

[Editor]
DistanceSpacing: 1
BeatDivisor: 4
GridSize: 32
TimelineZoom: 1.9

[Metadata]
Title:SAKURA Skip
TitleUnicode:SAKURAスキップ
Artist:fourfolium
ArtistUnicode:fourfolium
Creator:komasy
Version:Muzukashii
Source:NEW GAME!
Tags:Anime Yuuki Takada 高田憂希 Megumi Yamaguchi Megumi 山口愛 Toda 戸田めぐみ Ayumi Takeo 竹尾歩美 Aoba Suzukaze 涼風青葉 Hifumi Takimoto 滝本ひふみ Hajime Shinoda 篠田はじめ Yun Iijima 飯島ゆん
BeatmapID:1478692
BeatmapSetID:698170

[Difficulty]
HPDrainRate:6
CircleSize:7
OverallDifficulty:5
ApproachRate:4
SliderMultiplier:1.4
SliderTickRate:1

[Events]
//Background and Video events
0,0,"33790-NEW_GAME-PC.jpg",0,72
//Break Periods
//Storyboard Layer 0 (Background)
//Storyboard Layer 1 (Fail)
//Storyboard Layer 2 (Pass)
//Storyboard Layer 3 (Foreground)
//Storyboard Sound Samples

[TimingPoints]
419,363.636363636364,4,1,0,80,1,0
13509,-100,4,1,0,90,0,1
25146,-100,4,1,0,80,0,0
62964,-100,4,1,0,90,0,1
71691,-100,4,1,0,90,0,0
74600,-100,4,1,0,90,0,1
86237,-100,4,1,0,80,0,0

[HitObjects]
352,224,1146,5,0,0:0:0:0:
352,224,1237,1,0,0:0:0:0:
352,224,1328,1,0,0:0:0:0:
352,224,1509,1,8,0:0:0:0:
352,224,1691,1,8,0:0:0:0:
128,128,1874,5,4,0:0:0:0:
128,128,2237,5,2,0:0:0:0:
128,128,2601,5,0,0:0:0:0:
128,128,2783,1,0,0:0:0:0:
128,128,2964,5,2,0:0:0:0:
128,128,3146,5,0,0:0:0:0:
128,128,3510,1,0,0:0:0:0:
128,128,3692,5,2,0:0:0:0:
128,128,3874,1,0,0:0:0:0:
128,128,4237,1,0,0:0:0:0:
128,128,4419,5,2,0:0:0:0:
128,128,4783,5,0,0:0:0:0:
128,128,5146,5,2,0:0:0:0:
128,128,5510,5,0,0:0:0:0:
128,128,5692,1,0,0:0:0:0:
128,128,5874,5,2,0:0:0:0:
128,128,6055,5,4,0:0:0:0:
128,128,6419,1,6,0:0:0:0:
128,128,6783,5,6,0:0:0:0:
128,128,7146,5,4,0:0:0:0:
224,160,7328,1,2,0:0:0:0:
288,160,7419,1,2,0:0:0:0:
288,192,7510,1,2,0:0:0:0:
320,224,7692,1,0,0:0:0:0:
128,128,8055,5,2,0:0:0:0:
128,128,8419,5,0,0:0:0:0:
128,128,8601,1,2,0:0:0:0:
128,128,8783,5,2,0:0:0:0:
128,128,8964,5,4,0:0:0:0:
128,128,9328,1,0,0:0:0:0:
128,128,9510,5,0,0:0:0:0:
128,128,9692,1,6,0:0:0:0:
128,128,10055,1,0,0:0:0:0:
128,128,10237,5,2,0:0:0:0:
128,128,10601,5,6,0:0:0:0:
128,128,10964,5,0,0:0:0:0:
256,128,11328,1,2,0:0:0:0:
128,128,11510,1,0,0:0:0:0:
128,128,11692,5,0,0:0:0:0:
128,128,11874,1,6,0:0:0:0:
128,128,12237,1,0,0:0:0:0:
128,128,12419,5,2,0:0:0:0:
128,128,12601,5,0,0:0:0:0:
128,128,12783,5,0,0:0:0:0:
160,128,12874,1,0,0:0:0:0:
128,128,12964,1,0,0:0:0:0:
128,128,13146,1,2,0:0:0:0:
128,128,13237,1,2,0:0:0:0:
128,128,13328,1,2,0:0:0:0:
128,128,13510,5,0,0:0:0:0:
128,128,13874,1,2,0:0:0:0:
128,128,14055,5,2,0:0:0:0:
128,128,14237,5,0,0:0:0:0:
128,128,14601,5,2,0:0:0:0:
128,128,14783,1,0,0:0:0:0:
128,128,15146,5,0,0:0:0:0:
160,128,15237,1,0,0:0:0:0:
128,128,15328,5,0,0:0:0:0:
128,128,15510,5,0,0:0:0:0:
128,128,15692,5,2,0:0:0:0:
224,192,16055,1,0,0:0:0:0:
256,128,16237,1,2,0:0:0:0:
256,64,16419,1,0,0:0:0:0:
256,256,16783,1,2,0:0:0:0:
256,256,16964,1,2,0:0:0:0:
320,288,17146,1,0,0:0:0:0:
128,128,17510,5,2,0:0:0:0:
128,128,17692,1,0,0:0:0:0:
128,128,18055,5,0,0:0:0:0:
160,128,18146,1,0,0:0:0:0:
192,128,18237,1,0,0:0:0:0:
352,64,18419,1,2,0:0:0:0:
256,96,18601,1,0,0:0:0:0:
128,128,18964,5,6,0:0:0:0:
288,160,19328,1,0,0:0:0:0:
288,160,19692,1,2,0:0:0:0:
128,128,19874,5,2,0:0:0:0:
128,128,20055,5,0,0:0:0:0:
128,128,20419,5,0,0:0:0:0:
128,128,20601,5,2,0:0:0:0:
128,128,20964,5,0,0:0:0:0:
160,128,21055,1,0,0:0:0:0:
128,128,21146,5,0,0:0:0:0:
192,160,21328,1,0,0:0:0:0:
256,160,21510,1,2,0:0:0:0:
320,32,21874,1,2,0:0:0:0:
128,128,22055,5,2,0:0:0:0:
192,96,22237,1,0,0:0:0:0:
128,128,22601,5,2,0:0:0:0:
192,128,22964,1,0,0:0:0:0:
128,128,23328,5,2,0:0:0:0:
128,128,23510,1,4,0:0:0:0:
128,128,23874,5,6,0:0:0:0:
128,128,24237,5,4,0:0:0:0:
128,128,24419,5,6,0:0:0:0:
128,128,24783,1,2,0:0:0:0:
128,128,25146,5,2,0:0:0:0:
128,128,25328,1,0,0:0:0:0:
128,128,25510,5,2,0:0:0:0:
128,128,25692,5,0,0:0:0:0:
128,128,25874,5,2,0:0:0:0:
128,128,26055,1,2,0:0:0:0:
128,128,26237,5,0,0:0:0:0:
128,128,26419,5,2,0:0:0:0:
128,128,26783,1,2,0:0:0:0:
128,128,26964,5,0,0:0:0:0:
128,128,27146,1,0,0:0:0:0:
128,128,27328,5,2,0:0:0:0:
128,128,27510,1,2,0:0:0:0:
128,128,27692,5,0,0:0:0:0:
128,128,27874,5,2,0:0:0:0:
128,128,28237,1,0,0:0:0:0:
128,128,28419,5,2,0:0:0:0:
128,128,28601,5,0,0:0:0:0:
128,128,28783,1,0,0:0:0:0:
128,128,28964,5,2,0:0:0:0:
128,128,29146,5,0,0:0:0:0:
128,128,29328,5,2,0:0:0:0:
128,128,29692,1,2,0:0:0:0:
128,128,29874,5,0,0:0:0:0:
128,128,30055,1,0,0:0:0:0:
128,128,30237,5,2,0:0:0:0:
320,192,30601,1,2,0:0:0:0:
320,160,30783,1,0,0:0:0:0:
352,192,30874,1,0,0:0:0:0:
352,192,30964,1,0,0:0:0:0:
128,128,31328,5,2,0:0:0:0:
128,128,31510,5,0,0:0:0:0:
128,128,31692,5,2,0:0:0:0:
128,128,31874,5,2,0:0:0:0:
128,128,32055,5,0,0:0:0:0:
128,128,32237,5,2,0:0:0:0:
256,128,32601,1,2,0:0:0:0:
128,128,32783,5,0,0:0:0:0:
128,128,32964,1,0,0:0:0:0:
128,128,33146,5,2,0:0:0:0:
192,128,33328,1,0,0:0:0:0:
224,128,33419,1,0,0:0:0:0:
128,128,33510,5,0,0:0:0:0:
128,128,33692,5,6,0:0:0:0:
128,128,34055,5,4,0:0:0:0:
128,128,34237,5,6,0:0:0:0:
128,128,34419,5,4,0:0:0:0:
128,128,34601,5,6,0:0:0:0:
128,128,34783,5,4,0:0:0:0:
128,128,34964,5,6,0:0:0:0:
128,128,35146,1,6,0:0:0:0:
128,128,35510,5,4,0:0:0:0:
128,128,35874,5,6,0:0:0:0:
128,128,36055,1,6,0:0:0:0:
128,128,36783,5,0,0:0:0:0:
128,128,37146,5,2,0:0:0:0:
128,128,37328,5,0,0:0:0:0:
128,128,37510,1,0,0:0:0:0:
128,128,37874,5,2,0:0:0:0:
128,128,38055,5,0,0:0:0:0:
128,128,38419,1,0,0:0:0:0:
192,128,38601,1,2,0:0:0:0:
128,128,38783,5,0,0:0:0:0:
160,128,38874,1,0,0:0:0:0:
128,128,38964,1,0,0:0:0:0:
128,128,39328,5,2,0:0:0:0:
128,128,39692,5,0,0:0:0:0:
128,128,39874,1,0,0:0:0:0:
128,128,40055,5,2,0:0:0:0:
128,128,40237,5,0,0:0:0:0:
128,128,40601,1,0,0:0:0:0:
128,128,40783,5,2,0:0:0:0:
128,128,40964,5,0,0:0:0:0:
128,128,41328,1,0,0:0:0:0:
128,128,41510,5,2,0:0:0:0:
256,160,41874,1,0,0:0:0:0:
128,128,42055,5,0,0:0:0:0:
128,128,42237,5,2,0:0:0:0:
128,128,42601,5,0,0:0:0:0:
128,128,42964,5,2,0:0:0:0:
128,128,43146,5,0,0:0:0:0:
128,128,43328,5,0,0:0:0:0:
128,128,43692,5,2,0:0:0:0:
128,128,43874,5,0,0:0:0:0:
128,128,44237,1,0,0:0:0:0:
128,128,44419,5,2,0:0:0:0:
128,128,44601,5,0,0:0:0:0:
160,160,44692,1,0,0:0:0:0:
160,96,44783,1,0,0:0:0:0:
128,128,45146,1,2,0:0:0:0:
128,128,45510,1,0,0:0:0:0:
128,128,45692,5,2,0:0:0:0:
128,128,45874,1,2,0:0:0:0:
128,128,46055,5,0,0:0:0:0:
128,128,46419,1,0,0:0:0:0:
128,128,46601,5,2,0:0:0:0:
128,128,46783,5,0,0:0:0:0:
128,128,47146,5,0,0:0:0:0:
128,128,47328,5,2,0:0:0:0:
128,128,47510,5,0,0:0:0:0:
128,128,47692,5,0,0:0:0:0:
192,128,47783,1,0,0:0:0:0:
256,128,47874,1,0,0:0:0:0:
128,128,48055,5,6,0:0:0:0:
128,128,48419,5,0,0:0:0:0:
128,128,48783,5,2,0:0:0:0:
128,128,49146,5,0,0:0:0:0:
128,128,49328,1,0,0:0:0:0:
128,128,49510,5,2,0:0:0:0:
128,128,49692,5,0,0:0:0:0:
128,128,50055,1,0,0:0:0:0:
128,128,50237,5,2,0:0:0:0:
128,128,50601,5,0,0:0:0:0:
128,128,50783,1,0,0:0:0:0:
128,128,50964,5,2,0:0:0:0:
128,128,51328,5,0,0:0:0:0:
128,128,51692,5,2,0:0:0:0:
128,128,52055,5,0,0:0:0:0:
128,128,52237,1,0,0:0:0:0:
128,128,52419,5,2,0:0:0:0:
128,128,52601,5,0,0:0:0:0:
128,128,52964,1,0,0:0:0:0:
128,128,53146,5,2,0:0:0:0:
128,128,53328,5,0,0:0:0:0:
128,128,53510,5,2,0:0:0:0:
128,128,53874,5,0,0:0:0:0:
192,128,54055,1,0,0:0:0:0:
128,128,54237,1,0,0:0:0:0:
128,128,54783,1,0,0:0:0:0:
128,128,54964,5,2,0:0:0:0:
128,128,55328,5,0,0:0:0:0:
128,128,55510,5,2,0:0:0:0:
128,128,55692,5,0,0:0:0:0:
128,128,56055,5,0,0:0:0:0:
128,128,56419,5,2,0:0:0:0:
128,128,56783,1,2,0:0:0:0:
128,128,57146,5,0,0:0:0:0:
128,128,57510,5,2,0:0:0:0:
256,128,57874,1,0,0:0:0:0:
320,128,58055,1,0,0:0:0:0:
128,128,58237,5,2,0:0:0:0:
256,128,58419,1,2,0:0:0:0:
256,160,58601,1,0,0:0:0:0:
256,128,58964,1,2,0:0:0:0:
256,160,59146,1,2,0:0:0:0:
256,160,59328,1,0,0:0:0:0:
256,160,59419,1,0,0:0:0:0:
256,160,59510,1,0,0:0:0:0:
256,160,59692,1,2,0:0:0:0:
256,160,59874,1,0,0:0:0:0:
128,128,60055,5,2,0:0:0:0:
288,192,61328,1,4,0:0:0:0:
128,128,61692,5,6,0:0:0:0:
128,128,62055,5,4,0:0:0:0:
128,128,62237,5,6,0:0:0:0:
256,160,62510,1,2,0:0:0:0:
256,160,62601,1,2,0:0:0:0:
320,128,62783,1,2,0:0:0:0:
128,128,62964,5,0,0:0:0:0:
256,160,63328,1,2,0:0:0:0:
128,128,63510,5,0,0:0:0:0:
160,128,63601,1,0,0:0:0:0:
128,128,63692,1,0,0:0:0:0:
192,128,63874,1,0,0:0:0:0:
128,128,64055,5,2,0:0:0:0:
128,128,64237,5,0,0:0:0:0:
128,128,64601,5,0,0:0:0:0:
128,128,64783,5,2,0:0:0:0:
192,192,64964,1,2,0:0:0:0:
256,224,65055,1,2,0:0:0:0:
128,128,65146,5,2,0:0:0:0:
192,192,65328,1,0,0:0:0:0:
256,128,65510,1,2,0:0:0:0:
192,128,65692,1,2,0:0:0:0:
128,128,65874,1,0,0:0:0:0:
128,128,66237,1,2,0:0:0:0:
128,128,66419,5,0,0:0:0:0:
160,128,66510,1,0,0:0:0:0:
128,128,66601,1,0,0:0:0:0:
192,96,66783,1,0,0:0:0:0:
128,128,66964,1,2,0:0:0:0:
128,128,67146,1,0,0:0:0:0:
320,192,67510,1,2,0:0:0:0:
128,128,67692,5,0,0:0:0:0:
128,128,67874,1,2,0:0:0:0:
192,160,67964,1,2,0:0:0:0:
128,128,68055,1,2,0:0:0:0:
224,160,68237,1,0,0:0:0:0:
128,128,68419,5,6,0:0:0:0:
192,128,68783,1,0,0:0:0:0:
128,128,69146,5,2,0:0:0:0:
128,128,69328,5,0,0:0:0:0:
160,160,69419,1,0,0:0:0:0:
128,128,69510,5,0,0:0:0:0:
192,160,69692,1,0,0:0:0:0:
128,128,69874,5,2,0:0:0:0:
128,128,70055,5,0,0:0:0:0:
128,128,70419,5,0,0:0:0:0:
128,128,70601,5,2,0:0:0:0:
192,128,70783,1,2,0:0:0:0:
224,128,70874,1,2,0:0:0:0:
128,128,70964,5,2,0:0:0:0:
128,128,71328,5,2,0:0:0:0:
128,128,71510,1,2,0:0:0:0:
128,128,71692,1,0,0:0:0:0:
128,128,72055,5,2,0:0:0:0:
128,128,72419,1,0,0:0:0:0:
320,128,72783,1,2,0:0:0:0:
128,128,72964,5,4,0:0:0:0:
128,128,73328,5,6,0:0:0:0:
128,128,73692,5,4,0:0:0:0:
128,128,73874,5,6,0:0:0:0:
224,160,74146,1,2,0:0:0:0:
256,160,74237,1,2,0:0:0:0:
320,160,74419,1,2,0:0:0:0:
384,160,74601,1,0,0:0:0:0:
128,128,74783,1,0,0:0:0:0:
256,96,74964,1,2,0:0:0:0:
128,128,75146,5,0,0:0:0:0:
160,160,75237,1,0,0:0:0:0:
128,128,75328,5,0,0:0:0:0:
192,128,75510,1,0,0:0:0:0:
128,128,75692,5,2,0:0:0:0:
128,128,75874,5,0,0:0:0:0:
128,128,76237,5,0,0:0:0:0:
128,128,76419,5,2,0:0:0:0:
128,128,76510,1,2,0:0:0:0:
128,128,76601,5,2,0:0:0:0:
128,128,76783,5,0,0:0:0:0:
224,32,77146,1,2,0:0:0:0:
128,128,77328,1,2,0:0:0:0:
192,96,77510,1,0,0:0:0:0:
128,128,77692,1,0,0:0:0:0:
128,128,77874,5,2,0:0:0:0:
128,128,78055,1,0,0:0:0:0:
128,128,78146,1,0,0:0:0:0:
160,128,78237,1,0,0:0:0:0:
128,128,78419,5,0,0:0:0:0:
128,128,78601,5,2,0:0:0:0:
192,160,78783,1,0,0:0:0:0:
320,192,79146,1,2,0:0:0:0:
384,160,79328,1,0,0:0:0:0:
192,160,79510,1,2,0:0:0:0:
224,160,79601,1,2,0:0:0:0:
256,160,79692,1,2,0:0:0:0:
352,192,79874,1,0,0:0:0:0:
128,128,80055,5,6,0:0:0:0:
256,64,80419,1,0,0:0:0:0:
256,96,80601,1,0,0:0:0:0:
128,128,80783,5,2,0:0:0:0:
128,128,80964,5,0,0:0:0:0:
160,128,81055,1,0,0:0:0:0:
128,128,81146,5,0,0:0:0:0:
160,64,81328,1,0,0:0:0:0:
128,128,81510,5,2,0:0:0:0:
128,128,81692,5,0,0:0:0:0:
128,128,82055,5,0,0:0:0:0:
128,128,82237,5,2,0:0:0:0:
160,128,82328,1,2,0:0:0:0:
192,128,82419,1,2,0:0:0:0:
128,128,82601,1,0,0:0:0:0:
128,128,82964,5,2,0:0:0:0:
128,128,83146,5,2,0:0:0:0:
192,128,83328,1,0,0:0:0:0:
128,128,83510,1,0,0:0:0:0:
128,128,83692,5,2,0:0:0:0:
192,160,83874,1,0,0:0:0:0:
160,128,83964,1,0,0:0:0:0:
128,128,84055,5,0,0:0:0:0:
192,128,84237,1,0,0:0:0:0:
256,160,84419,1,2,0:0:0:0:
128,128,84601,1,4,0:0:0:0:
128,128,84964,5,6,0:0:0:0:
128,128,85328,5,4,0:0:0:0:
128,128,85510,1,6,0:0:0:0:
256,192,85783,1,2,0:0:0:0:
288,224,85874,1,2,0:0:0:0:
384,256,86055,1,0,0:0:0:0:
128,128,86237,1,0,0:0:0:0:
128,128,86601,5,0,0:0:0:0:
128,128,86783,1,0,0:0:0:0:
128,128,86964,5,2,0:0:0:0:
128,128,87146,5,0,0:0:0:0:
128,128,87328,5,2,0:0:0:0:
128,128,87510,1,4,0:0:0:0:
128,128,87874,5,6,0:0:0:0:
128,128,88055,5,4,0:0:0:0:
128,128,88237,5,6,0:0:0:0:
128,128,88419,1,6,0:0:0:0:
