osu file format v14

[General]
AudioFilename: audio.mp3
AudioLeadIn: 0
PreviewTime: 12596
Countdown: 0
SampleSet: None
StackLeniency: 0.7
Mode: 3
LetterboxInBreaks: 0
SpecialStyle: 0
WidescreenStoryboard: 0

[Editor]
DistanceSpacing: 0.8
BeatDivisor: 2
GridSize: 4
TimelineZoom: 1.7

[Metadata]
Title:SAKURA Skip
TitleUnicode:SAKURAスキップ
Artist:fourfolium
ArtistUnicode:fourfolium
Creator:Niks
Version:Normal
Source:NEW GAME!
Tags:フォーフォリウム ニューゲーム opening tv size takada yuuki 高田憂希 suzukaze aoba 涼風青葉 yamaguchi megumi
BeatmapID:1063349
BeatmapSetID:499643

[Difficulty]
HPDrainRate:7.5
CircleSize:4
OverallDifficulty:7.5
ApproachRate:5
SliderMultiplier:1.4
SliderTickRate:1

[Events]
//Background and Video events
0,0,"Dragon Spear BG Edit ver.jpg",0,0
//Break Periods
//Storyboard Layer 0 (Background)
//Storyboard Layer 1 (Fail)
//Storyboard Layer 2 (Pass)
//Storyboard Layer 3 (Foreground)
//Storyboard Sound Samples
Sample,12591,0,"A6S.wav",100
Sample,12955,0,"G6S.wav",100
Sample,13137,0,"F6S.wav",100
Sample,13318,0,"D6S.wav",100
Sample,13500,0,"F6S.wav",100
Sample,13864,0,"D6S.wav",100
Sample,14046,0,"A6S.wav",100
Sample,14409,0,"G6S.wav",100
Sample,14591,0,"F6S.wav",100
Sample,14773,0,"D6S.wav",100
Sample,14955,0,"F6S.wav",100
Sample,15500,0,"A#6.wav",100
Sample,15864,0,"A6S.wav",100
Sample,16046,0,"G6S.wav",100
Sample,16228,0,"F6S.wav",100
Sample,16409,0,"G6S.wav",100
Sample,16591,0,"F6S.wav",100
Sample,16773,0,"D6S.wav",100
Sample,16955,0,"C6S.wav",100
Sample,17318,0,"D6S.wav",100
Sample,17500,0,"C6S.wav",100
Sample,17682,0,"D6S.wav",100
Sample,17864,0,"C6S.wav",100
Sample,18409,0,"A6S.wav",100
Sample,18773,0,"G6S.wav",100
Sample,18955,0,"F6S.wav",100
Sample,19137,0,"D6S.wav",100
Sample,19318,0,"F6S.wav",100
Sample,19682,0,"D6S.wav",100
Sample,19864,0,"C7S.wav",100
Sample,20228,0,"F6S.wav",100
Sample,20409,0,"E6S.wav",100
Sample,20591,0,"F6S.wav",100
Sample,20773,0,"F6S.wav",100
Sample,21318,0,"A#6.wav",100
Sample,21682,0,"A#6.wav",100
Sample,21864,0,"A#6.wav",100
Sample,22046,0,"C7S.wav",100
Sample,22228,0,"A6S.wav",100
Sample,22409,0,"G6S.wav",100
Sample,22591,0,"F6S.wav",100
Sample,22773,0,"F6S.wav",100
Sample,23137,0,"F6S.wav",100
Sample,23500,0,"F6S.wav",100
Sample,23682,0,"F6S.wav",100
Sample,36046,0,"F6S.wav",100
Sample,36228,0,"C6S.wav",100
Sample,36409,0,"D6S.wav",100
Sample,36591,0,"F6S.wav",100
Sample,36773,0,"C6S.wav",100
Sample,36955,0,"D6S.wav",100
Sample,37137,0,"F6S.wav",100
Sample,37318,0,"A6S.wav",100
Sample,37682,0,"G6S.wav",100
Sample,37864,0,"F6S.wav",100
Sample,38046,0,"D6S.wav",100
Sample,38228,0,"F6S.wav",100
Sample,38955,0,"A#6.wav",100
Sample,39137,0,"A6S.wav",100
Sample,39318,0,"G6S.wav",100
Sample,39500,0,"F6S.wav",100
Sample,39864,0,"C6S.wav",100
Sample,40228,0,"D6S.wav",100
Sample,40773,0,"G6S.wav",100
Sample,41137,0,"F6S.wav",100
Sample,41500,0,"E6S.wav",100
Sample,41864,0,"F6S.wav",100
Sample,42046,0,"C6S.wav",100
Sample,42228,0,"D6S.wav",100
Sample,42409,0,"F6S.wav",100
Sample,42591,0,"C6S.wav",100
Sample,42773,0,"D6S.wav",100
Sample,42955,0,"F6S.wav",100
Sample,43137,0,"C7S.wav",100
Sample,43500,0,"F6S.wav",100
Sample,43682,0,"E6S.wav",100
Sample,43864,0,"F6S.wav",100
Sample,44046,0,"F6S.wav",100
Sample,44773,0,"A#6.wav",100
Sample,44955,0,"A#6.wav",100
Sample,45137,0,"A#6.wav",100
Sample,45318,0,"C7S.wav",100
Sample,45682,0,"A#6.wav",100
Sample,45864,0,"A6S.wav",100
Sample,46046,0,"F6S.wav",100
Sample,47682,0,"A6S.wav",100
Sample,48046,0,"G6S.wav",100
Sample,48228,0,"D6S.wav",100
Sample,48591,0,"A6S.wav",100
Sample,48955,0,"G6S.wav",100
Sample,50046,0,"E6S.wav",100
Sample,50228,0,"E6S.wav",100
Sample,50409,0,"F6S.wav",100
Sample,50591,0,"G6S.wav",100
Sample,50955,0,"E6S.wav",100
Sample,51137,0,"C6S.wav",100
Sample,51500,0,"G6S.wav",100
Sample,51864,0,"F6S.wav",100
Sample,52409,0,"G6S.wav",100
Sample,52773,0,"A6S.wav",100
Sample,53500,0,"A#6.wav",100
Sample,54409,0,"A6S.wav",100
Sample,54591,0,"G6S.wav",100
Sample,54773,0,"F6S.wav",100
Sample,54955,0,"A#6.wav",100
Sample,55318,0,"A6S.wav",100
Sample,55682,0,"G6S.wav",100
Sample,56046,0,"F6S.wav",100
Sample,56409,0,"G6S.wav",100
Sample,57318,0,"G6S.wav",100
Sample,57500,0,"A6S.wav",100
Sample,57682,0,"G6S.wav",100
Sample,57864,0,"G6S.wav",100
Sample,62046,0,"A6S.wav",100
Sample,62409,0,"G6S.wav",100
Sample,62591,0,"F6S.wav",100
Sample,62773,0,"D6S.wav",100
Sample,62955,0,"F6S.wav",100
Sample,63318,0,"D6S.wav",100
Sample,63500,0,"A6S.wav",100
Sample,63864,0,"G6S.wav",100
Sample,64046,0,"F6S.wav",100
Sample,64228,0,"D6S.wav",100
Sample,64409,0,"F6S.wav",100
Sample,64955,0,"A#6.wav",100
Sample,65318,0,"A6S.wav",100
Sample,65500,0,"G6S.wav",100
Sample,65682,0,"F6S.wav",100
Sample,65864,0,"G6S.wav",100
Sample,66046,0,"F6S.wav",100
Sample,66228,0,"D6S.wav",100
Sample,66409,0,"C6S.wav",100
Sample,66773,0,"D6S.wav",100
Sample,66955,0,"C6S.wav",100
Sample,67137,0,"D6S.wav",100
Sample,67318,0,"C6S.wav",100
Sample,67864,0,"A6S.wav",100
Sample,68228,0,"G6S.wav",100
Sample,68409,0,"F6S.wav",100
Sample,68591,0,"D6S.wav",100
Sample,68773,0,"F6S.wav",100
Sample,68955,0,"D6S.wav",100
Sample,69137,0,"D6S.wav",100
Sample,69318,0,"A6S.wav",100
Sample,69682,0,"G6S.wav",70
Sample,69864,0,"F6S.wav",100
Sample,70046,0,"D6S.wav",100
Sample,70228,0,"F6S.wav",100
Sample,70773,0,"A#6.wav",100
Sample,71137,0,"A6S.wav",100
Sample,71318,0,"G6S.wav",100
Sample,71500,0,"F6S.wav",100
Sample,71682,0,"G6S.wav",100
Sample,71864,0,"F6S.wav",100
Sample,72046,0,"D6S.wav",100
Sample,72228,0,"F6S.wav",100
Sample,72591,0,"F6S.wav",100
Sample,72955,0,"F6S.wav",100
Sample,73137,0,"F6S.wav",100
Sample,73682,0,"A6S.wav",100
Sample,74046,0,"G6S.wav",100
Sample,74228,0,"F6S.wav",100
Sample,74409,0,"D6S.wav",100
Sample,74591,0,"F6S.wav",100
Sample,74773,0,"F6S.wav",100
Sample,74955,0,"D6S.wav",100
Sample,75137,0,"A6S.wav",100
Sample,75500,0,"G6S.wav",100
Sample,75682,0,"F6S.wav",100
Sample,75864,0,"D6S.wav",100
Sample,76046,0,"F6S.wav",100
Sample,76591,0,"A#6.wav",100
Sample,76955,0,"A6S.wav",100
Sample,77137,0,"G6S.wav",100
Sample,77318,0,"F6S.wav",100
Sample,77500,0,"G6S.wav",100
Sample,77682,0,"F6S.wav",100
Sample,77864,0,"D6S.wav",100
Sample,78046,0,"C6S.wav",100
Sample,78409,0,"D6S.wav",100
Sample,78591,0,"C6S.wav",100
Sample,78773,0,"D6S.wav",100
Sample,78955,0,"C6S.wav",100
Sample,79500,0,"A6S.wav",100
Sample,79864,0,"G6S.wav",100
Sample,80046,0,"F6S.wav",100
Sample,80228,0,"D6S.wav",100
Sample,80409,0,"F6S.wav",100
Sample,80773,0,"D6S.wav",100
Sample,80955,0,"C7S.wav",100
Sample,81318,0,"F6S.wav",100
Sample,81500,0,"E6S.wav",100
Sample,81682,0,"F6S.wav",100
Sample,81864,0,"F6S.wav",100
Sample,82409,0,"A#6.wav",100
Sample,82773,0,"A#6.wav",100
Sample,82955,0,"A#6.wav",100
Sample,83137,0,"C7S.wav",100
Sample,83318,0,"A6S.wav",100
Sample,83500,0,"G6S.wav",100
Sample,83682,0,"F6S.wav",100
Sample,83864,0,"F6S.wav",100
Sample,84228,0,"F6S.wav",100
Sample,84591,0,"F6S.wav",100
Sample,84773,0,"F6S.wav",100

[TimingPoints]
410.848829274397,363.636363636364,4,3,0,80,1,0
12592,-100,4,3,0,80,0,1
24047,-100,4,3,0,80,0,0
62047,-100,4,3,0,80,0,1
73683,-100,4,3,0,80,0,1
85138,-100,4,3,0,80,0,0

[HitObjects]
320,192,410,5,0,0:0:0:0:
192,192,592,1,0,0:0:0:0:
448,192,774,1,0,0:0:0:0:
320,192,774,1,2,0:0:0:0:
192,192,956,1,0,0:0:0:0:
448,192,1138,1,0,0:0:0:0:
64,192,1138,1,0,0:0:0:0:
448,192,1501,1,2,0:0:0:0:
320,192,1865,1,0,0:0:0:0:
192,192,2047,1,0,0:0:0:0:
64,192,2229,1,2,0:0:0:0:
448,192,2410,1,0,0:0:0:0:
320,192,2410,1,0,0:0:0:0:
64,192,2774,1,0,0:0:0:0:
320,192,2956,1,2,0:0:0:0:
192,192,3138,128,0,3501:0:0:0:0:
320,192,3501,1,0,0:0:0:0:
192,192,3683,128,2,4047:0:0:0:0:
64,192,4047,1,0,0:0:0:0:
448,192,4047,1,0,0:0:0:0:
64,192,4410,1,2,0:0:0:0:
192,192,4774,1,0,0:0:0:0:
448,192,4956,1,0,0:0:0:0:
320,192,5138,1,2,0:0:0:0:
64,192,5319,1,0,0:0:0:0:
192,192,5319,1,0,0:0:0:0:
192,192,5683,1,0,0:0:0:0:
320,192,5683,1,0,0:0:0:0:
448,192,6047,1,0,0:0:0:0:
320,192,6047,1,0,0:0:0:0:
64,192,6410,1,0,0:0:0:0:
448,192,6410,128,0,6956:0:0:0:0:
64,192,6956,128,0,7683:0:0:0:0:
192,192,6956,1,0,0:0:0:0:
320,192,7319,1,2,0:0:0:0:
448,192,7683,1,0,0:0:0:0:
320,192,7865,1,0,0:0:0:0:
192,192,8047,1,2,0:0:0:0:
448,192,8229,128,0,8592:0:0:0:0:
64,192,8229,1,0,0:0:0:0:
192,192,8592,1,0,0:0:0:0:
320,192,8774,1,2,0:0:0:0:
64,192,8956,128,0,9501:0:0:0:0:
448,192,8956,1,0,0:0:0:0:
320,192,9501,1,2,0:0:0:0:
448,192,9865,128,0,10047:0:0:0:0:
192,192,9865,1,0,0:0:0:0:
320,192,10229,128,0,10410:0:0:0:0:
192,192,10592,1,0,0:0:0:0:
64,192,10774,1,0,0:0:0:0:
320,192,10956,1,0,0:0:0:0:
448,192,11138,128,0,12592:0:0:0:0:
192,192,11138,1,0,0:0:0:0:
64,192,11683,1,0,0:0:0:0:
320,192,11683,1,0,0:0:0:0:
192,192,12047,1,0,0:0:0:0:
320,192,12229,1,0,0:0:0:0:
64,192,12410,1,0,0:0:0:0:
192,192,12592,1,0,0:0:0:0:
320,192,12774,1,0,0:0:0:0:
448,192,12774,1,0,0:0:0:0:
192,192,12956,1,0,0:0:0:0:
320,192,13138,1,0,0:0:0:0:
64,192,13138,1,2,0:0:0:0:
448,192,13319,1,0,0:0:0:0:
320,192,13410,1,0,0:0:0:0:
192,192,13501,1,0,0:0:0:0:
320,192,13683,1,0,0:0:0:0:
64,192,13865,1,2,0:0:0:0:
448,192,14047,128,0,14410:0:0:0:0:
192,192,14047,1,0,0:0:0:0:
320,192,14410,1,0,0:0:0:0:
192,192,14592,1,2,0:0:0:0:
64,192,14592,1,0,0:0:0:0:
448,192,14774,1,0,0:0:0:0:
320,192,14865,1,0,0:0:0:0:
192,192,14956,1,0,0:0:0:0:
320,192,15138,1,0,0:0:0:0:
448,192,15319,1,2,0:0:0:0:
192,192,15501,1,0,0:0:0:0:
448,192,15683,1,0,0:0:0:0:
64,192,15683,1,0,0:0:0:0:
320,192,15865,1,0,0:0:0:0:
192,192,16047,1,2,0:0:0:0:
64,192,16229,1,0,0:0:0:0:
192,192,16319,1,0,0:0:0:0:
320,192,16410,1,0,0:0:0:0:
448,192,16592,1,0,0:0:0:0:
64,192,16774,1,2,0:0:0:0:
192,192,16956,128,0,17319:0:0:0:0:
320,192,16956,1,0,0:0:0:0:
448,192,17319,128,0,17501:0:0:0:0:
64,192,17501,128,2,17683:0:0:0:0:
320,192,17683,128,0,17865:0:0:0:0:
192,192,17865,128,2,18047:0:0:0:0:
64,192,18229,1,2,0:0:0:0:
448,192,18229,1,0,0:0:0:0:
320,192,18410,1,0,0:0:0:0:
192,192,18592,1,0,0:0:0:0:
64,192,18774,1,0,0:0:0:0:
448,192,18956,1,0,0:0:0:0:
320,192,18956,1,2,0:0:0:0:
192,192,19138,1,0,0:0:0:0:
320,192,19229,1,0,0:0:0:0:
64,192,19319,128,0,19683:0:0:0:0:
448,192,19501,1,0,0:0:0:0:
320,192,19683,1,2,0:0:0:0:
448,192,19865,128,0,20229:0:0:0:0:
192,192,19865,1,0,0:0:0:0:
64,192,20229,1,0,0:0:0:0:
192,192,20410,1,2,0:0:0:0:
320,192,20592,1,0,0:0:0:0:
64,192,20683,1,0,0:0:0:0:
448,192,20774,1,0,0:0:0:0:
192,192,20956,1,0,0:0:0:0:
320,192,21138,1,2,0:0:0:0:
448,192,21319,1,0,0:0:0:0:
192,192,21501,1,0,0:0:0:0:
64,192,21501,1,0,0:0:0:0:
320,192,21683,1,0,0:0:0:0:
448,192,21865,1,2,0:0:0:0:
192,192,22047,1,0,0:0:0:0:
448,192,22229,1,0,0:0:0:0:
64,192,22229,1,0,0:0:0:0:
320,192,22410,1,0,0:0:0:0:
192,192,22592,1,2,0:0:0:0:
448,192,22774,128,0,22956:0:0:0:0:
320,192,22774,128,0,22956:0:0:0:0:
448,192,23138,128,0,23319:0:0:0:0:
320,192,23138,128,0,23319:0:0:0:0:
64,192,23501,128,0,23683:0:0:0:0:
192,192,23683,128,0,24047:0:0:0:0:
448,192,24047,1,0,0:0:0:0:
320,192,24047,1,2,0:0:0:0:
192,192,24410,1,0,0:0:0:0:
64,192,24592,1,0,0:0:0:0:
320,192,24774,1,2,0:0:0:0:
192,192,24956,1,0,0:0:0:0:
448,192,25138,1,0,0:0:0:0:
320,192,25319,1,0,0:0:0:0:
192,192,25501,1,2,0:0:0:0:
64,192,25683,128,0,26047:0:0:0:0:
448,192,25683,1,0,0:0:0:0:
320,192,26047,1,0,0:0:0:0:
448,192,26229,1,2,0:0:0:0:
192,192,26410,1,0,0:0:0:0:
320,192,26592,1,0,0:0:0:0:
64,192,26774,1,0,0:0:0:0:
192,192,26956,1,2,0:0:0:0:
448,192,27138,1,0,0:0:0:0:
192,192,27319,1,0,0:0:0:0:
320,192,27501,1,0,0:0:0:0:
448,192,27683,1,2,0:0:0:0:
64,192,27865,1,0,0:0:0:0:
320,192,27956,1,0,0:0:0:0:
192,192,28047,1,0,0:0:0:0:
448,192,28229,1,0,0:0:0:0:
192,192,28410,1,2,0:0:0:0:
64,192,28592,128,0,28956:0:0:0:0:
320,192,28592,1,0,0:0:0:0:
448,192,28956,1,0,0:0:0:0:
192,192,29138,1,2,0:0:0:0:
320,192,29319,1,0,0:0:0:0:
448,192,29501,128,2,29865:0:0:0:0:
64,192,29501,1,0,0:0:0:0:
192,192,29865,1,2,0:0:0:0:
448,192,30229,1,0,0:0:0:0:
64,192,30229,1,0,0:0:0:0:
320,192,30410,1,0,0:0:0:0:
64,192,30592,1,2,0:0:0:0:
192,192,30774,1,0,0:0:0:0:
320,192,30865,1,0,0:0:0:0:
448,192,30956,1,0,0:0:0:0:
192,192,31138,1,0,0:0:0:0:
320,192,31319,1,2,0:0:0:0:
64,192,31501,1,0,0:0:0:0:
192,192,31501,128,0,31865:0:0:0:0:
448,192,31865,1,0,0:0:0:0:
64,192,32047,1,2,0:0:0:0:
192,192,32229,1,0,0:0:0:0:
320,192,32319,1,0,0:0:0:0:
448,192,32410,1,0,0:0:0:0:
320,192,32592,1,0,0:0:0:0:
192,192,32774,1,2,0:0:0:0:
448,192,32956,128,0,33319:0:0:0:0:
64,192,32956,1,0,0:0:0:0:
64,192,33319,128,0,33501:0:0:0:0:
320,192,33501,128,2,33683:0:0:0:0:
192,192,33683,128,0,33865:0:0:0:0:
448,192,33865,128,2,34047:0:0:0:0:
64,192,34047,128,0,34229:0:0:0:0:
192,192,34229,128,2,34410:0:0:0:0:
448,192,34410,128,0,34592:0:0:0:0:
320,192,34410,128,0,34592:0:0:0:0:
64,192,34774,128,0,34956:0:0:0:0:
192,192,34774,128,0,34956:0:0:0:0:
320,192,35138,1,0,0:0:0:0:
448,192,35138,1,0,0:0:0:0:
320,192,35319,128,0,35683:0:0:0:0:
448,192,35319,128,0,35683:0:0:0:0:
64,192,35683,1,2,0:0:0:0:
192,192,35683,1,0,0:0:0:0:
320,192,36047,1,0,0:0:0:0:
192,192,36229,1,0,0:0:0:0:
448,192,36410,1,2,0:0:0:0:
64,192,36592,1,0,0:0:0:0:
320,192,36774,1,0,0:0:0:0:
192,192,36956,1,0,0:0:0:0:
64,192,37138,1,2,0:0:0:0:
448,192,37319,128,0,37501:0:0:0:0:
64,192,37683,1,0,0:0:0:0:
320,192,37865,1,2,0:0:0:0:
192,192,38047,1,0,0:0:0:0:
320,192,38138,1,0,0:0:0:0:
448,192,38229,128,0,38592:0:0:0:0:
64,192,38592,1,2,0:0:0:0:
192,192,38956,1,0,0:0:0:0:
320,192,39138,1,0,0:0:0:0:
64,192,39319,1,2,0:0:0:0:
448,192,39501,128,0,39865:0:0:0:0:
192,192,39865,128,0,40229:0:0:0:0:
320,192,40229,128,0,40592:0:0:0:0:
64,192,40592,1,0,0:0:0:0:
448,192,40774,128,2,41138:0:0:0:0:
320,192,41138,128,0,41501:0:0:0:0:
192,192,41501,128,2,41865:0:0:0:0:
320,192,41865,1,0,0:0:0:0:
448,192,41865,1,0,0:0:0:0:
64,192,42047,1,0,0:0:0:0:
192,192,42229,1,2,0:0:0:0:
448,192,42410,1,0,0:0:0:0:
320,192,42501,1,0,0:0:0:0:
64,192,42592,1,0,0:0:0:0:
192,192,42774,1,0,0:0:0:0:
320,192,42956,1,2,0:0:0:0:
448,192,43138,128,0,43319:0:0:0:0:
320,192,43501,1,0,0:0:0:0:
64,192,43683,1,2,0:0:0:0:
192,192,43865,1,0,0:0:0:0:
320,192,43956,1,0,0:0:0:0:
448,192,44047,128,0,44410:0:0:0:0:
64,192,44410,1,2,0:0:0:0:
320,192,44774,1,0,0:0:0:0:
192,192,44956,1,0,0:0:0:0:
448,192,45138,1,2,0:0:0:0:
64,192,45319,1,0,0:0:0:0:
192,192,45410,1,0,0:0:0:0:
320,192,45501,1,0,0:0:0:0:
448,192,45683,1,0,0:0:0:0:
192,192,45865,1,2,0:0:0:0:
64,192,46047,128,0,46956:0:0:0:0:
320,192,46047,1,0,0:0:0:0:
192,192,46410,1,0,0:0:0:0:
320,192,46774,1,0,0:0:0:0:
448,192,46956,128,0,47319:0:0:0:0:
192,192,47319,1,2,0:0:0:0:
320,192,47683,128,0,48047:0:0:0:0:
64,192,47683,1,0,0:0:0:0:
192,192,48047,1,2,0:0:0:0:
64,192,48229,1,0,0:0:0:0:
448,192,48319,1,0,0:0:0:0:
192,192,48410,1,0,0:0:0:0:
320,192,48592,1,0,0:0:0:0:
448,192,48774,1,2,0:0:0:0:
64,192,48956,1,0,0:0:0:0:
192,192,48956,128,0,49683:0:0:0:0:
320,192,49319,1,0,0:0:0:0:
448,192,49501,1,2,0:0:0:0:
448,192,49774,1,0,0:0:0:0:
64,192,49865,1,0,0:0:0:0:
320,192,50047,1,0,0:0:0:0:
192,192,50229,1,2,0:0:0:0:
320,192,50410,1,0,0:0:0:0:
448,192,50592,128,0,50956:0:0:0:0:
64,192,50956,1,2,0:0:0:0:
320,192,51138,1,0,0:0:0:0:
192,192,51229,1,0,0:0:0:0:
64,192,51319,1,0,0:0:0:0:
448,192,51501,1,0,0:0:0:0:
192,192,51683,1,2,0:0:0:0:
64,192,51865,128,0,52229:0:0:0:0:
320,192,51865,1,0,0:0:0:0:
192,192,52410,128,0,52774:0:0:0:0:
448,192,52410,1,2,0:0:0:0:
320,192,52774,128,0,53138:0:0:0:0:
64,192,52956,1,0,0:0:0:0:
448,192,53138,1,2,0:0:0:0:
320,192,53319,1,0,0:0:0:0:
192,192,53501,1,0,0:0:0:0:
64,192,53501,128,0,54229:0:0:0:0:
320,192,53865,1,2,0:0:0:0:
448,192,54229,1,0,0:0:0:0:
192,192,54229,1,0,0:0:0:0:
320,192,54410,1,0,0:0:0:0:
192,192,54592,1,2,0:0:0:0:
64,192,54774,1,0,0:0:0:0:
448,192,54956,128,0,55138:0:0:0:0:
320,192,55138,1,0,0:0:0:0:
64,192,55319,128,2,55501:0:0:0:0:
192,192,55501,1,0,0:0:0:0:
320,192,55683,128,2,55865:0:0:0:0:
448,192,55683,1,0,0:0:0:0:
192,192,56047,128,0,56229:0:0:0:0:
64,192,56047,1,2,0:0:0:0:
448,192,56410,128,0,57138:0:0:0:0:
320,192,56410,1,0,0:0:0:0:
64,192,56774,1,2,0:0:0:0:
192,192,57047,1,0,0:0:0:0:
320,192,57138,1,0,0:0:0:0:
64,192,57319,1,0,0:0:0:0:
448,192,57501,1,2,0:0:0:0:
192,192,57683,1,0,0:0:0:0:
320,192,57683,1,0,0:0:0:0:
64,192,57865,128,0,59138:0:0:0:0:
320,192,58047,1,0,0:0:0:0:
448,192,58229,1,0,0:0:0:0:
192,192,58410,1,0,0:0:0:0:
320,192,58592,1,0,0:0:0:0:
448,192,58774,1,0,0:0:0:0:
192,192,58956,1,0,0:0:0:0:
320,192,59138,1,0,0:0:0:0:
64,192,59319,1,0,0:0:0:0:
448,192,59319,1,0,0:0:0:0:
192,192,59683,1,0,0:0:0:0:
320,192,60047,1,0,0:0:0:0:
448,192,60410,1,0,0:0:0:0:
64,192,60592,1,0,0:0:0:0:
192,192,60592,1,0,0:0:0:0:
448,192,60956,1,0,0:0:0:0:
320,192,60956,1,0,0:0:0:0:
64,192,61319,1,0,0:0:0:0:
448,192,61319,1,0,0:0:0:0:
64,192,61501,128,0,61683:0:0:0:0:
448,192,61501,128,0,61683:0:0:0:0:
320,192,61865,1,0,0:0:0:0:
192,192,62047,1,0,0:0:0:0:
448,192,62229,1,0,0:0:0:0:
64,192,62229,1,0,0:0:0:0:
192,192,62410,1,0,0:0:0:0:
320,192,62592,1,2,0:0:0:0:
448,192,62592,1,0,0:0:0:0:
64,192,62774,1,0,0:0:0:0:
192,192,62865,1,0,0:0:0:0:
320,192,62956,1,0,0:0:0:0:
448,192,63138,1,0,0:0:0:0:
320,192,63319,1,0,0:0:0:0:
192,192,63319,1,2,0:0:0:0:
448,192,63501,128,0,63865:0:0:0:0:
64,192,63501,1,0,0:0:0:0:
192,192,63865,1,0,0:0:0:0:
64,192,64047,1,2,0:0:0:0:
448,192,64047,1,0,0:0:0:0:
320,192,64229,1,0,0:0:0:0:
192,192,64319,1,0,0:0:0:0:
64,192,64410,1,0,0:0:0:0:
448,192,64592,1,0,0:0:0:0:
320,192,64774,1,0,0:0:0:0:
192,192,64774,1,2,0:0:0:0:
448,192,64956,128,0,65319:0:0:0:0:
64,192,65319,1,0,0:0:0:0:
192,192,65501,1,2,0:0:0:0:
320,192,65501,1,0,0:0:0:0:
448,192,65683,1,0,0:0:0:0:
64,192,65774,1,0,0:0:0:0:
192,192,65865,1,0,0:0:0:0:
320,192,66047,1,0,0:0:0:0:
64,192,66229,1,2,0:0:0:0:
192,192,66229,1,0,0:0:0:0:
320,192,66410,128,0,66774:0:0:0:0:
448,192,66410,1,0,0:0:0:0:
64,192,66774,1,0,0:0:0:0:
448,192,66956,128,0,67138:0:0:0:0:
320,192,66956,1,2,0:0:0:0:
192,192,67138,1,0,0:0:0:0:
320,192,67319,128,0,67501:0:0:0:0:
448,192,67319,1,2,0:0:0:0:
192,192,67501,1,0,0:0:0:0:
320,192,67683,1,0,0:0:0:0:
64,192,67683,1,2,0:0:0:0:
192,192,67865,128,0,68229:0:0:0:0:
320,192,68229,1,0,0:0:0:0:
64,192,68410,1,0,0:0:0:0:
448,192,68410,1,2,0:0:0:0:
320,192,68592,1,0,0:0:0:0:
192,192,68683,1,0,0:0:0:0:
448,192,68774,1,0,0:0:0:0:
64,192,68956,1,0,0:0:0:0:
320,192,69138,1,2,0:0:0:0:
192,192,69319,128,0,69683:0:0:0:0:
448,192,69319,1,0,0:0:0:0:
64,192,69683,1,0,0:0:0:0:
320,192,69865,1,2,0:0:0:0:
448,192,70047,1,0,0:0:0:0:
320,192,70138,1,0,0:0:0:0:
192,192,70229,1,0,0:0:0:0:
448,192,70410,1,0,0:0:0:0:
64,192,70592,1,2,0:0:0:0:
320,192,70592,1,0,0:0:0:0:
192,192,70774,1,0,0:0:0:0:
448,192,70956,1,0,0:0:0:0:
320,192,70956,1,0,0:0:0:0:
64,192,71138,1,0,0:0:0:0:
192,192,71319,1,2,0:0:0:0:
320,192,71501,1,0,0:0:0:0:
64,192,71683,1,0,0:0:0:0:
448,192,71683,1,0,0:0:0:0:
320,192,71865,1,0,0:0:0:0:
192,192,72047,1,2,0:0:0:0:
320,192,72229,128,0,72410:0:0:0:0:
64,192,72229,128,0,72410:0:0:0:0:
448,192,72592,128,0,72774:0:0:0:0:
192,192,72592,128,0,72774:0:0:0:0:
320,192,72956,128,0,73138:0:0:0:0:
448,192,72956,128,0,73138:0:0:0:0:
64,192,73138,128,0,73319:0:0:0:0:
192,192,73138,1,0,0:0:0:0:
320,192,73501,1,0,0:0:0:0:
448,192,73683,1,0,0:0:0:0:
64,192,73865,1,0,0:0:0:0:
192,192,73865,1,0,0:0:0:0:
320,192,74047,1,0,0:0:0:0:
448,192,74229,1,0,0:0:0:0:
192,192,74229,1,2,0:0:0:0:
64,192,74410,1,0,0:0:0:0:
192,192,74501,1,0,0:0:0:0:
320,192,74592,1,0,0:0:0:0:
448,192,74774,1,0,0:0:0:0:
192,192,74956,1,2,0:0:0:0:
64,192,75138,128,0,75501:0:0:0:0:
448,192,75138,1,0,0:0:0:0:
320,192,75501,1,0,0:0:0:0:
64,192,75683,1,2,0:0:0:0:
448,192,75683,1,0,0:0:0:0:
320,192,75865,1,0,0:0:0:0:
192,192,75956,1,0,0:0:0:0:
64,192,76047,1,0,0:0:0:0:
448,192,76229,1,0,0:0:0:0:
192,192,76410,1,2,0:0:0:0:
320,192,76410,1,0,0:0:0:0:
64,192,76592,128,0,76956:0:0:0:0:
448,192,76956,1,0,0:0:0:0:
320,192,77138,1,0,0:0:0:0:
192,192,77138,1,2,0:0:0:0:
64,192,77319,1,0,0:0:0:0:
448,192,77501,1,0,0:0:0:0:
192,192,77683,1,0,0:0:0:0:
320,192,77865,1,2,0:0:0:0:
64,192,78047,128,0,78410:0:0:0:0:
192,192,78047,1,0,0:0:0:0:
448,192,78410,1,0,0:0:0:0:
192,192,78592,128,0,78774:0:0:0:0:
64,192,78592,1,2,0:0:0:0:
320,192,78774,1,0,0:0:0:0:
64,192,78956,128,2,79138:0:0:0:0:
192,192,78956,1,0,0:0:0:0:
320,192,79138,1,0,0:0:0:0:
192,192,79319,1,2,0:0:0:0:
448,192,79319,1,0,0:0:0:0:
320,192,79501,128,0,79865:0:0:0:0:
192,192,79865,1,0,0:0:0:0:
448,192,80047,1,0,0:0:0:0:
64,192,80047,1,2,0:0:0:0:
192,192,80229,1,0,0:0:0:0:
320,192,80319,1,0,0:0:0:0:
448,192,80410,1,0,0:0:0:0:
192,192,80592,1,0,0:0:0:0:
64,192,80774,1,2,0:0:0:0:
320,192,80956,128,0,81319:0:0:0:0:
448,192,80956,1,0,0:0:0:0:
64,192,81319,1,0,0:0:0:0:
192,192,81501,1,2,0:0:0:0:
448,192,81683,1,0,0:0:0:0:
320,192,81774,1,0,0:0:0:0:
192,192,81865,1,0,0:0:0:0:
64,192,82047,1,0,0:0:0:0:
448,192,82229,1,0,0:0:0:0:
320,192,82229,1,2,0:0:0:0:
192,192,82410,1,0,0:0:0:0:
448,192,82592,1,0,0:0:0:0:
64,192,82774,1,0,0:0:0:0:
192,192,82956,1,2,0:0:0:0:
320,192,82956,1,0,0:0:0:0:
448,192,83138,1,0,0:0:0:0:
192,192,83229,1,0,0:0:0:0:
320,192,83319,1,0,0:0:0:0:
64,192,83501,1,0,0:0:0:0:
320,192,83683,1,2,0:0:0:0:
192,192,83683,1,0,0:0:0:0:
448,192,83865,128,0,84047:0:0:0:0:
64,192,83865,128,0,84047:0:0:0:0:
448,192,84229,128,0,84410:0:0:0:0:
64,192,84229,128,0,84410:0:0:0:0:
192,192,84410,1,0,0:0:0:0:
320,192,84592,1,0,0:0:0:0:
448,192,84592,1,0,0:0:0:0:
192,192,84774,128,0,84956:0:0:0:0:
64,192,84774,128,0,84956:0:0:0:0:
320,192,85138,1,0,0:0:0:0:
192,192,85319,1,0,0:0:0:0:
64,192,85501,1,0,0:0:0:0:
448,192,85501,1,0,0:0:0:0:
192,192,85683,1,0,0:0:0:0:
320,192,85865,1,0,0:0:0:0:
448,192,86047,1,0,0:0:0:0:
64,192,86229,1,0,0:0:0:0:
192,192,86229,1,0,0:0:0:0:
320,192,86410,1,0,0:0:0:0:
64,192,86592,1,0,0:0:0:0:
448,192,86592,1,0,0:0:0:0:
320,192,86774,1,0,0:0:0:0:
192,192,86774,1,0,0:0:0:0:
320,192,87138,1,0,0:0:0:0:
192,192,87138,128,0,87319:0:0:0:0:
64,192,87319,128,0,87501:0:0:0:0:
320,192,87501,1,0,0:0:0:0:
448,192,87501,1,0,0:0:0:0:
320,192,87683,128,0,88410:0:0:0:0:
448,192,87683,128,0,88410:0:0:0:0:
