osu file format v14

[General]
AudioFilename: audio.mp3
AudioLeadIn: 0
PreviewTime: 62678
Countdown: 0
SampleSet: None
StackLeniency: 0.7
Mode: 0
LetterboxInBreaks: 0
WidescreenStoryboard: 1

[Editor]
Bookmarks: 86224,147315
DistanceSpacing: 0.7
BeatDivisor: 4
GridSize: 4
TimelineZoom: 1.7

[Metadata]
Title:SAKURA Skip
TitleUnicode:SAKURA Skip
Artist:fourfolium
ArtistUnicode:fourfolium
Creator:LeeSinOrAfk
Version:AR8.8
Source:NEW GAME!
Tags:Kyle73 meme
BeatmapID:1192898
BeatmapSetID:564217

[Difficulty]
HPDrainRate:6.1
CircleSize:3.9
OverallDifficulty:8.1
ApproachRate:8.8
SliderMultiplier:1.7
SliderTickRate:1

[Events]
//Background and Video events
0,0,"thumb-1920-718158.png",0,0
//Break Periods
//Storyboard Layer 0 (Background)
//Storyboard Layer 1 (Fail)
//Storyboard Layer 2 (Pass)
//Storyboard Layer 3 (Foreground)
//Storyboard Sound Samples

[TimingPoints]
406,363.636363636364,4,3,0,50,1,0
1860,-125,4,2,0,50,0,0
7678,-100,4,2,0,60,0,0
36769,-125,4,2,0,50,0,0
48042,-100,4,2,0,60,0,0
52587,-125,4,2,0,60,0,0
54224,-166.666666666667,4,2,0,50,0,0
57133,-100,4,2,0,60,0,0
60042,-125,4,2,0,40,0,0
61678,-100,4,2,0,60,0,0
62951,-100,4,2,0,60,0,1
86224,-100,4,2,0,60,0,0
97860,-125,4,2,0,60,0,0
109133,-100,4,2,0,60,0,0
115315,-166.666666666667,4,2,0,60,0,0
118224,-100,4,2,0,60,0,0
121133,-125,4,2,0,60,0,0
122587,-100,4,2,0,60,0,0
123860,-100,4,2,0,60,0,1
147315,-100,4,2,0,60,0,0
173496,-125,4,2,0,40,0,0
179315,-166.666666666667,4,2,0,50,0,0
182224,-100,4,2,0,60,0,0
188042,-100,4,2,0,60,0,1
206769,-83.3333333333333,4,2,0,60,0,1
207133,-100,4,2,0,60,0,1
211315,-100,4,2,0,60,0,0
224951,-125,4,2,0,60,0,0
225860,-125,4,2,0,5,0,0

[HitObjects]
152,100,1133,5,0,0:0:0:0:
152,100,1224,1,0,0:0:0:0:
152,100,1315,1,0,0:0:0:0:
152,100,1406,1,0,0:0:0:0:
152,100,1496,1,0,0:0:0:0:
280,60,1678,1,0,0:0:0:0:
280,60,1769,1,0,0:0:0:0:
280,60,1860,6,0,L|284:136,1,68
384,180,2224,2,0,L|380:104,1,68
380,80,2496,1,0,0:0:0:0:
380,80,2587,1,0,0:0:0:0:
300,208,2769,1,0,0:0:0:0:
468,116,2951,1,0,0:0:0:0:
280,60,3133,6,0,P|213:41|141:57,1,136
72,156,3678,1,0,0:0:0:0:
208,176,3860,1,0,0:0:0:0:
208,176,3951,1,0,0:0:0:0:
208,176,4042,1,0,0:0:0:0:
120,272,4224,1,0,0:0:0:0:
288,112,4406,2,0,P|307:155|303:211,1,102
404,272,4769,6,0,L|408:176,1,68
224,276,5133,2,0,L|220:372,1,68
224,376,5406,1,0,0:0:0:0:
224,376,5496,1,0,0:0:0:0:
305,208,5678,1,0,0:0:0:0:
120,288,5860,1,0,0:0:0:0:
140,100,6042,6,0,P|123:70|91:51,1,68
304,84,6406,2,0,P|337:84|369:66,1,68
235,234,6769,2,0,P|217:263|217:299,1,68
227,140,7133,5,0,0:0:0:0:
76,240,7315,1,0,0:0:0:0:
60,269,7405,1,0,0:0:0:0:
54,303,7496,1,0,0:0:0:0:
60,336,7587,1,0,0:0:0:0:
76,366,7678,6,0,L|260:375,1,170
376,264,8224,1,0,0:0:0:0:
376,264,8315,1,0,0:0:0:0:
376,264,8406,1,0,0:0:0:0:
212,220,8587,1,0,0:0:0:0:
360,120,8769,1,0,0:0:0:0:
140,284,8951,6,0,B|112:228|112:228|144:116,1,170
260,72,9496,1,0,0:0:0:0:
288,272,9678,2,0,B|368:236|368:300|453:267,1,170
488,256,10133,1,0,0:0:0:0:
488,256,10224,1,0,0:0:0:0:
332,356,10406,1,0,0:0:0:0:
407,180,10587,6,0,P|392:144|352:120,1,85
216,4,10951,2,0,P|215:45|191:80,1,85
220,208,11315,5,0,0:0:0:0:
344,4,11496,1,0,0:0:0:0:
328,248,11678,1,0,0:0:0:0:
112,148,11860,6,0,L|96:344,1,170
288,100,12406,2,0,L|180:88,1,85
380,48,12769,5,0,0:0:0:0:
390,71,12859,1,0,0:0:0:0:
396,95,12950,1,0,0:0:0:0:
394,121,13041,1,0,0:0:0:0:
386,145,13132,1,0,0:0:0:0:
377,169,13223,1,0,0:0:0:0:
373,194,13314,1,0,0:0:0:0:
375,219,13405,1,0,0:0:0:0:
382,244,13496,5,0,0:0:0:0:
256,291,13678,2,0,P|212:300|172:285,1,85
164,132,14042,1,0,0:0:0:0:
164,132,14133,1,0,0:0:0:0:
164,132,14224,2,0,P|205:123|245:136,1,85
68,212,14587,1,0,0:0:0:0:
68,212,14769,6,0,P|44:133|77:57,1,170
208,32,15315,1,0,0:0:0:0:
204,232,15496,1,0,0:0:0:0:
204,232,15587,1,0,0:0:0:0:
204,232,15678,1,0,0:0:0:0:
320,132,15860,1,0,0:0:0:0:
312,332,16042,2,0,P|264:324|224:336,1,85
404,232,16406,5,0,0:0:0:0:
224,144,16587,1,0,0:0:0:0:
408,96,16769,1,0,0:0:0:0:
156,88,16951,1,0,0:0:0:0:
156,88,17042,1,0,0:0:0:0:
156,87,17133,2,0,P|136:124|144:180,1,85
300,232,17496,1,0,0:0:0:0:
352,16,17678,6,0,P|433:0|500:60,1,170
416,212,18224,1,0,0:0:0:0:
244,140,18406,1,0,0:0:0:0:
244,140,18496,1,0,0:0:0:0:
244,140,18587,1,0,0:0:0:0:
360,104,18769,1,0,0:0:0:0:
280,288,18951,2,0,L|160:284,1,85
244,20,19315,5,0,0:0:0:0:
112,136,19496,1,0,0:0:0:0:
312,176,19678,1,0,0:0:0:0:
124,28,19860,1,0,0:0:0:0:
124,28,19951,1,0,0:0:0:0:
124,28,20042,2,0,P|76:32|32:64,1,85
200,216,20406,1,0,0:0:0:0:
408,52,20587,6,0,B|372:132|432:132|400:218,1,170
492,100,21133,1,0,0:0:0:0:
312,176,21315,1,0,0:0:0:0:
312,176,21406,1,0,0:0:0:0:
312,176,21496,1,0,0:0:0:0:
312,32,21678,1,0,0:0:0:0:
491,243,21860,2,0,P|500:280|488:328,1,85
208,248,22224,5,0,0:0:0:0:
406,184,22406,1,0,0:0:0:0:
210,121,22587,1,0,0:0:0:0:
332,288,22769,1,0,0:0:0:0:
331,80,22951,2,0,P|312:36|272:12,1,85
300,184,23315,1,0,0:0:0:0:
80,176,23496,6,0,P|46:150|31:110,1,85
216,292,23860,2,0,P|210:333|183:366,1,85
248,116,24224,1,0,0:0:0:0:
196,208,24406,5,0,0:0:0:0:
196,208,24496,1,0,0:0:0:0:
196,208,24587,1,0,0:0:0:0:
196,208,24678,1,0,0:0:0:0:
196,208,24769,1,0,0:0:0:0:
424,32,25133,6,0,L|308:24,1,85
292,224,25496,1,0,0:0:0:0:
220,100,25678,1,0,0:0:0:0:
220,100,25769,1,0,0:0:0:0:
220,100,25860,1,0,0:0:0:0:
416,164,26042,2,0,L|500:158,1,85
201,363,26406,6,0,P|169:283|204:200,1,170
72,296,26951,1,0,0:0:0:0:
276,284,27133,1,0,0:0:0:0:
276,284,27224,1,0,0:0:0:0:
276,284,27315,1,0,0:0:0:0:
140,140,27496,1,0,0:0:0:0:
328,120,27678,1,0,0:0:0:0:
172,332,27860,1,0,0:0:0:0:
172,332,27951,1,0,0:0:0:0:
172,332,28042,5,0,0:0:0:0:
218,91,28224,1,0,0:0:0:0:
332,216,28406,1,0,0:0:0:0:
132,228,28587,1,0,0:0:0:0:
292,40,28769,5,0,0:0:0:0:
316,304,28951,1,0,0:0:0:0:
140,140,29133,1,0,0:0:0:0:
420,144,29315,6,0,P|444:224|400:304,1,170
224,224,29860,2,0,L|228:128,1,85
232,108,30133,1,0,0:0:0:0:
232,108,30224,1,0,0:0:0:0:
332,216,30406,1,0,0:0:0:0:
116,180,30587,2,0,P|75:171|31:183,1,85
16,216,30860,1,0,0:0:0:0:
16,260,30951,6,0,P|56:270|98:262,1,85
256,256,31315,1,0,0:0:0:0:
140,96,31496,1,0,0:0:0:0:
140,96,31587,1,0,0:0:0:0:
140,96,31678,1,0,0:0:0:0:
291,84,31860,2,0,P|332:71|373:80,1,85
420,262,32224,6,0,B|337:230|337:294|253:254,1,170
380,352,32769,1,0,0:0:0:0:
312,176,32951,1,0,0:0:0:0:
312,176,33042,1,0,0:0:0:0:
312,176,33133,1,0,0:0:0:0:
264,356,33315,1,0,0:0:0:0:
428,172,33496,1,0,0:0:0:0:
168,144,33678,6,0,P|132:216|172:308,1,170
52,152,34224,5,0,0:0:0:0:
232,224,34406,1,0,0:0:0:0:
52,296,34587,5,0,0:0:0:0:
224,68,34769,1,0,0:0:0:0:
159,296,34951,5,0,0:0:0:0:
112,56,35133,1,0,0:0:0:0:
376,56,35496,5,0,0:0:0:0:
329,296,35860,1,0,0:0:0:0:
329,296,36042,2,0,L|160:296,1,170
112,56,36769,5,0,0:0:0:0:
112,56,36951,2,0,P|104:100|120:148,1,68
208,176,37315,1,0,0:0:0:0:
208,176,37496,2,0,P|216:132|200:84,1,68
112,228,37860,1,0,0:0:0:0:
188,304,38042,6,0,L|344:300,1,136
440,292,38587,1,0,0:0:0:0:
384,192,38769,1,0,0:0:0:0:
384,192,38860,1,0,0:0:0:0:
384,192,38951,1,0,0:0:0:0:
264,196,39133,1,0,0:0:0:0:
364,72,39315,2,0,L|464:68,1,68
240,64,39678,5,0,0:0:0:0:
332,260,39860,1,0,0:0:0:0:
332,260,39951,1,0,0:0:0:0:
332,260,40042,1,0,0:0:0:0:
136,224,40224,1,0,0:0:0:0:
136,224,40315,1,0,0:0:0:0:
136,224,40406,1,0,0:0:0:0:
244,168,40587,2,0,P|280:168|320:152,1,68
144,96,40951,6,0,P|120:158|140:230,1,136
160,264,41406,1,0,0:0:0:0:
160,264,41496,1,0,0:0:0:0:
268,344,41678,1,0,0:0:0:0:
268,344,41769,1,0,0:0:0:0:
268,344,41860,2,0,P|272:312|264:276,1,68
392,264,42224,2,0,P|384:297|388:330,1,68
320,152,42587,5,0,0:0:0:0:
320,152,42769,2,0,L|236:144,1,68
296,36,43133,1,0,0:0:0:0:
296,36,43224,1,0,0:0:0:0:
296,36,43315,2,0,L|380:28,1,68
192,64,43678,1,0,0:0:0:0:
88,220,43860,6,0,P|68:156|91:93,1,136
180,272,44406,1,0,0:0:0:0:
312,184,44587,1,0,0:0:0:0:
312,184,44678,1,0,0:0:0:0:
312,184,44769,1,0,0:0:0:0:
184,164,44951,1,0,0:0:0:0:
304,288,45133,2,0,B|340:288|340:288|380:264,1,68
256,96,45496,5,0,0:0:0:0:
400,24,45678,1,0,0:0:0:0:
408,184,45860,1,0,0:0:0:0:
356,112,46042,1,0,0:0:0:0:
356,112,46133,1,0,0:0:0:0:
356,112,46224,1,0,0:0:0:0:
460,104,46406,1,0,0:0:0:0:
304,196,46587,1,0,0:0:0:0:
308,16,46769,5,0,0:0:0:0:
464,252,47133,1,0,0:0:0:0:
132,236,47496,1,0,0:0:0:0:
132,236,47678,5,0,0:0:0:0:
132,236,47769,1,0,0:0:0:0:
132,236,47860,1,0,0:0:0:0:
132,236,47951,1,0,0:0:0:0:
132,236,48042,2,0,L|12:232,1,85
156,92,48406,6,0,B|238:52|238:112|322:84,1,170
208,184,48951,1,0,0:0:0:0:
208,184,49042,1,0,0:0:0:0:
208,184,49133,1,0,0:0:0:0:
284,0,49315,2,0,P|328:-8|372:4,1,85
408,232,49678,6,0,P|440:155|410:77,1,170
284,256,50224,1,0,0:0:0:0:
216,96,50406,1,0,0:0:0:0:
216,96,50496,1,0,0:0:0:0:
216,96,50587,1,0,0:0:0:0:
168,212,50769,1,0,0:0:0:0:
320,108,50951,1,0,0:0:0:0:
112,76,51133,1,0,0:0:0:0:
204,356,51315,6,0,L|32:352,1,170
68,176,51860,1,0,0:0:0:0:
68,176,51951,1,0,0:0:0:0:
68,176,52042,1,0,0:0:0:0:
228,148,52224,2,0,L|332:144,1,85
132,88,52587,6,0,P|151:60|154:26,1,68
164,236,52951,1,0,0:0:0:0:
164,236,53133,2,0,P|167:269|186:297,1,68
216,324,53406,1,0,0:0:0:0:
216,324,53496,5,0,0:0:0:0:
384,180,53678,1,0,0:0:0:0:
256,184,53860,1,0,0:0:0:0:
328,300,54042,1,0,0:0:0:0:
328,300,54224,6,0,L|452:296,1,101.999996887207
240,260,54769,1,0,0:0:0:0:
240,260,54951,2,0,L|168:256,1,50.9999984436036
320,200,55315,2,0,L|380:196,1,50.9999984436036
232,136,55678,6,0,P|227:111|230:85,1,50.9999984436036
328,40,56042,2,0,P|332:64|329:90,1,50.9999984436036
200,4,56406,2,0,P|224:0|250:2,1,50.9999984436036
364,168,56769,2,0,P|340:172|314:170,1,50.9999984436036
96,176,57133,5,0,0:0:0:0:
192,304,57315,1,0,0:0:0:0:
228,96,57496,1,0,0:0:0:0:
212,208,57678,1,0,0:0:0:0:
212,208,57769,1,0,0:0:0:0:
212,208,57860,5,0,0:0:0:0:
112,72,58042,1,0,0:0:0:0:
344,76,58224,1,0,0:0:0:0:
192,304,58406,1,0,0:0:0:0:
396,220,58587,5,0,0:0:0:0:
396,220,58678,1,0,0:0:0:0:
396,220,58769,1,0,0:0:0:0:
396,220,58860,1,0,0:0:0:0:
396,220,58951,6,0,L|324:216,1,42.5
204,112,59133,2,0,L|276:108,1,42.5
392,48,59315,2,0,L|388:120,1,42.5
240,304,59496,2,0,L|237:261,1,42.5
116,40,59678,5,0,0:0:0:0:
90,73,59768,1,0,0:0:0:0:
80,114,59859,1,0,0:0:0:0:
85,156,59950,1,0,0:0:0:0:
106,193,60042,6,0,L|100:288,1,68
204,112,60406,2,0,L|197:206,1,68
316,112,60769,2,0,L|309:206,1,68
400,212,61133,2,0,L|393:306,1,68
152,328,61678,6,0,B|232:288|232:348|324:316,1,170
164,200,62224,1,0,0:0:0:0:
181,171,62314,1,0,0:0:0:0:
188,137,62405,1,0,0:0:0:0:
183,104,62496,1,0,0:0:0:0:
167,74,62587,2,0,L|160:4,1,42.5
56,188,62769,1,0,0:0:0:0:
52,220,62860,1,0,0:0:0:0:
48,252,62951,5,0,0:0:0:0:
288,208,63133,1,0,0:0:0:0:
72,92,63315,1,0,0:0:0:0:
168,312,63496,1,0,0:0:0:0:
168,312,63587,1,0,0:0:0:0:
168,312,63678,2,0,B|208:324|256:312,1,85
188,137,64042,1,0,0:0:0:0:
432,128,64224,6,0,P|456:207|423:284,1,170
240,220,64769,1,0,0:0:0:0:
320,60,64951,1,0,0:0:0:0:
320,60,65042,1,0,0:0:0:0:
320,60,65133,1,0,0:0:0:0:
332,256,65315,1,0,0:0:0:0:
152,176,65496,2,0,P|108:168|64:176,1,85
268,152,65860,5,0,0:0:0:0:
108,268,66042,1,0,0:0:0:0:
332,256,66224,1,0,0:0:0:0:
140,84,66406,1,0,0:0:0:0:
140,84,66496,1,0,0:0:0:0:
140,84,66587,1,0,0:0:0:0:
220,280,66769,1,0,0:0:0:0:
248,40,66951,1,0,0:0:0:0:
436,160,67133,6,0,B|352:124|352:188|240:140,1,170
384,248,67678,1,0,0:0:0:0:
320,64,67860,1,0,0:0:0:0:
320,64,67951,1,0,0:0:0:0:
320,64,68042,1,0,0:0:0:0:
276,248,68224,1,0,0:0:0:0:
420,64,68406,2,0,P|464:56|508:72,1,85
176,80,68769,6,0,L|168:192,1,85
156,300,69133,1,0,0:0:0:0:
56,128,69315,1,0,0:0:0:0:
56,128,69406,1,0,0:0:0:0:
56,128,69496,1,0,0:0:0:0:
296,124,69678,1,0,0:0:0:0:
168,196,69860,1,0,0:0:0:0:
296,236,70042,6,0,B|336:244|372:212|372:212|408:244|452:236,1,170
372,332,70587,1,0,0:0:0:0:
448,144,70769,1,0,0:0:0:0:
448,144,70860,1,0,0:0:0:0:
448,144,70951,1,0,0:0:0:0:
236,144,71133,1,0,0:0:0:0:
416,32,71315,1,0,0:0:0:0:
344,216,71496,1,0,0:0:0:0:
180,40,71678,5,0,0:0:0:0:
208,260,71860,1,0,0:0:0:0:
336,104,72042,1,0,0:0:0:0:
120,136,72224,1,0,0:0:0:0:
344,216,72406,5,0,0:0:0:0:
328,0,72587,1,0,0:0:0:0:
236,144,72769,1,0,0:0:0:0:
440,76,72951,1,0,0:0:0:0:
244,304,73315,5,0,0:0:0:0:
336,104,73496,1,0,0:0:0:0:
456,292,73678,1,0,0:0:0:0:
164,148,73860,6,0,P|124:136|80:148,1,85
48,171,74133,1,0,0:0:0:0:
27,207,74223,1,0,0:0:0:0:
21,249,74314,1,0,0:0:0:0:
31,290,74405,1,0,0:0:0:0:
56,325,74496,1,0,0:0:0:0:
91,348,74587,5,0,0:0:0:0:
316,328,74769,1,0,0:0:0:0:
128,244,74951,1,0,0:0:0:0:
260,176,75133,2,0,L|256:224,1,42.5
212,320,75315,5,0,0:0:0:0:
364,200,75496,1,0,0:0:0:0:
160,144,75678,1,0,0:0:0:0:
428,104,75860,6,0,P|475:172|463:254,1,170
320,348,76406,1,0,0:0:0:0:
268,184,76587,1,0,0:0:0:0:
268,184,76678,1,0,0:0:0:0:
268,184,76769,1,0,0:0:0:0:
224,288,76951,1,0,0:0:0:0:
312,80,77133,2,0,P|272:68|224:80,1,85
376,204,77496,5,0,0:0:0:0:
156,168,77678,1,0,0:0:0:0:
312,80,77860,1,0,0:0:0:0:
320,296,78042,1,0,0:0:0:0:
320,296,78133,1,0,0:0:0:0:
320,296,78224,1,0,0:0:0:0:
268,184,78406,1,0,0:0:0:0:
464,144,78587,1,0,0:0:0:0:
216,96,78769,6,0,B|300:60|300:116|382:84,1,170
208,0,79315,1,0,0:0:0:0:
368,180,79496,1,0,0:0:0:0:
156,164,79678,1,0,0:0:0:0:
336,0,79860,1,0,0:0:0:0:
116,56,80042,5,0,0:0:0:0:
264,220,80224,1,0,0:0:0:0:
264,220,80315,1,0,0:0:0:0:
263,219,80406,6,0,P|272:264|256:304,1,85
380,248,80769,1,0,0:0:0:0:
164,256,80951,1,0,0:0:0:0:
164,256,81042,1,0,0:0:0:0:
164,256,81133,2,0,P|119:247|76:260,1,85
124,352,81496,1,0,0:0:0:0:
172,132,81678,6,0,L|0:128,1,170
172,36,82224,1,0,0:0:0:0:
152,240,82406,1,0,0:0:0:0:
152,240,82496,1,0,0:0:0:0:
152,240,82587,1,0,0:0:0:0:
64,36,82769,1,0,0:0:0:0:
284,40,82951,2,0,L|380:36,1,85
212,184,83315,5,0,0:0:0:0:
396,216,83496,1,0,0:0:0:0:
232,320,83678,1,0,0:0:0:0:
316,124,83860,1,0,0:0:0:0:
316,124,83951,1,0,0:0:0:0:
316,124,84042,5,0,0:0:0:0:
300,236,84224,1,0,0:0:0:0:
184,68,84406,1,0,0:0:0:0:
392,40,84587,6,0,P|420:68|428:114,1,85
300,236,84951,1,0,0:0:0:0:
276,20,85133,5,0,0:0:0:0:
156,240,85315,1,0,0:0:0:0:
108,12,85496,5,0,0:0:0:0:
344,120,85678,1,0,0:0:0:0:
344,120,85769,1,0,0:0:0:0:
344,120,85860,2,0,L|272:116,1,42.5
168,120,86042,2,0,L|96:124,1,42.5
9,218,86224,6,0,P|6:175|0:133,1,85
152,316,86587,2,0,P|154:273|161:231,1,85
202,98,86951,1,0,0:0:0:0:
9,218,87133,1,0,0:0:0:0:
299,190,87315,1,0,0:0:0:0:
86,26,87496,6,0,P|85:110|90:195,1,170
211,262,88042,2,0,P|253:259|295:262,1,85
381,144,88406,2,0,P|296:143|212:127,1,170
430,39,88951,6,0,P|494:93|499:175,1,170
381,329,89496,2,0,P|380:286|381:244,1,85
268,77,89860,2,0,P|269:119|268:161,1,85
244,284,90224,1,0,0:0:0:0:
98,153,90406,6,0,L|267:161,1,170
455,234,90951,2,0,P|412:238|370:244,1,85
395,118,91315,2,0,P|437:113|479:107,1,85
267,161,91678,1,0,0:0:0:0:
455,234,91860,1,0,0:0:0:0:
243,283,92042,6,0,P|170:245|143:166,1,170
217,55,92587,1,0,0:0:0:0:
76,61,92769,1,0,0:0:0:0:
267,161,92951,1,0,0:0:0:0:
47,275,93133,1,0,0:0:0:0:
142,165,93315,6,0,P|160:248|161:333,1,170
286,356,93860,2,0,P|328:361|370:359,1,85
512,237,94224,2,0,P|428:222|343:227,1,170
211,102,94769,6,0,B|226:165|226:165|208:205|208:205|216:265,1,170
88,140,95315,5,0,0:0:0:0:
343,227,95496,1,0,0:0:0:0:
108,336,95678,5,0,0:0:0:0:
337,100,95860,1,0,0:0:0:0:
53,243,96042,5,0,0:0:0:0:
310,349,96224,1,0,0:0:0:0:
217,28,96587,5,0,0:0:0:0:
108,336,96951,1,0,0:0:0:0:
108,336,97133,2,0,P|102:251|94:166,1,170
31,37,97860,5,0,0:0:0:0:
31,37,98042,2,0,P|65:33|99:29,1,68
281,89,98406,1,0,0:0:0:0:
281,89,98587,2,0,P|247:92|213:96,1,68
94,166,98951,1,0,0:0:0:0:
94,166,99133,6,0,P|150:200|169:264,1,136
68,340,99678,2,0,P|65:306|62:272,1,68
55,190,99951,1,0,0:0:0:0:
53,169,100042,1,0,0:0:0:0:
132,64,100224,1,0,0:0:0:0:
201,168,100406,2,0,P|218:197|234:227,1,68
319,338,100769,5,0,0:0:0:0:
399,230,100951,1,0,0:0:0:0:
399,230,101042,1,0,0:0:0:0:
399,230,101133,1,0,0:0:0:0:
323,123,101315,1,0,0:0:0:0:
323,123,101406,1,0,0:0:0:0:
323,123,101496,1,0,0:0:0:0:
478,335,101678,1,0,0:0:0:0:
234,227,101860,1,0,0:0:0:0:
489,128,102042,6,0,P|445:180|399:230,1,136
306,330,102587,2,0,P|339:323|372:317,1,68
454,303,102860,1,0,0:0:0:0:
474,299,102951,1,0,0:0:0:0:
314,241,103133,1,0,0:0:0:0:
166,256,103315,2,0,P|199:262|233:269,1,68
86,284,103678,6,0,P|80:250|86:217,1,68
175,129,104042,1,0,0:0:0:0:
70,101,104224,1,0,0:0:0:0:
70,101,104315,1,0,0:0:0:0:
70,101,104406,1,0,0:0:0:0:
284,155,104587,1,0,0:0:0:0:
86,217,104769,1,0,0:0:0:0:
174,58,104951,6,0,P|176:125|180:193,1,136
293,289,105496,1,0,0:0:0:0:
157,340,105678,1,0,0:0:0:0:
157,340,105769,1,0,0:0:0:0:
157,340,105860,2,0,L|223:356,1,68
36,270,106224,2,0,L|102:253,1,68
264,204,106587,5,0,0:0:0:0:
223,356,106769,1,0,0:0:0:0:
223,356,106860,1,0,0:0:0:0:
223,356,106951,1,0,0:0:0:0:
387,316,107133,1,0,0:0:0:0:
387,316,107224,1,0,0:0:0:0:
387,316,107315,1,0,0:0:0:0:
164,263,107496,1,0,0:0:0:0:
316,376,107678,1,0,0:0:0:0:
391,187,107860,5,0,0:0:0:0:
110,354,108224,1,0,0:0:0:0:
42,105,108587,1,0,0:0:0:0:
42,105,108769,5,0,0:0:0:0:
42,105,108860,1,0,0:0:0:0:
42,105,108951,1,0,0:0:0:0:
42,105,109042,1,0,0:0:0:0:
42,105,109133,2,0,L|64:187,1,85
14,281,109496,6,0,P|81:232|163:245,1,170
292,315,110042,1,0,0:0:0:0:
292,315,110133,1,0,0:0:0:0:
292,315,110224,1,0,0:0:0:0:
339,100,110406,2,0,P|317:136|295:173,1,85
163,245,110769,6,0,P|158:160|145:76,1,170
24,30,111315,1,0,0:0:0:0:
263,9,111496,1,0,0:0:0:0:
263,9,111587,1,0,0:0:0:0:
263,9,111678,1,0,0:0:0:0:
31,136,111860,2,0,L|115:148,1,85
295,173,112224,1,0,0:0:0:0:
461,163,112406,6,0,B|401:196|363:152|295:173,1,170
409,56,112951,1,0,0:0:0:0:
409,56,113042,1,0,0:0:0:0:
409,56,113133,1,0,0:0:0:0:
335,282,113315,2,0,P|322:322|311:363,1,85
210,99,113678,6,0,P|190:180|216:260,1,170
378,176,114224,2,0,P|336:172|294:173,1,85
126,95,114587,2,0,P|168:98|210:98,1,85
316,67,114951,1,0,0:0:0:0:
199,193,115133,1,0,0:0:0:0:
331,278,115315,6,0,L|432:282,1,101.999996887207
512,198,115860,1,0,0:0:0:0:
409,174,116042,2,0,P|383:174|358:173,1,50.9999984436036
217,116,116406,2,0,P|242:116|267:115,1,50.9999984436036
367,24,116769,6,0,P|364:49|362:75,1,50.9999984436036
267,115,117133,2,0,P|264:89|261:64,1,50.9999984436036
166,24,117496,2,0,P|163:49|160:74,1,50.9999984436036
65,114,117860,2,0,P|62:88|59:63,1,50.9999984436036
149,173,118224,5,0,0:0:0:0:
346,256,118406,1,0,0:0:0:0:
127,350,118587,1,0,0:0:0:0:
215,266,118769,1,0,0:0:0:0:
215,266,118860,1,0,0:0:0:0:
215,266,118951,1,0,0:0:0:0:
300,105,119133,5,0,0:0:0:0:
13,254,119315,1,0,0:0:0:0:
243,370,119496,1,0,0:0:0:0:
149,173,119678,5,0,0:0:0:0:
149,173,119769,1,0,0:0:0:0:
149,173,119860,1,0,0:0:0:0:
149,173,119951,1,0,0:0:0:0:
149,173,120042,6,0,L|157:214,1,42.5
328,342,120224,2,0,L|319:300,1,42.5
335,171,120406,2,0,L|293:179,1,42.5
143,336,120587,2,0,L|184:327,1,42.5
436,257,120769,5,0,0:0:0:0:
453,219,120859,1,0,0:0:0:0:
459,177,120950,1,0,0:0:0:0:
451,135,121041,1,0,0:0:0:0:
433,97,121133,6,0,L|372:66,1,68
274,202,121496,2,0,L|334:170,1,68
175,65,121860,2,0,L|235:96,1,68
75,201,122224,2,0,L|135:169,1,68
262,168,122769,6,0,B|253:231|253:231|269:267|269:267|256:332,1,170
351,97,123315,1,0,0:0:0:0:
317,73,123405,1,0,0:0:0:0:
276,62,123496,1,0,0:0:0:0:
234,67,123587,1,0,0:0:0:0:
197,88,123678,2,0,L|160:108,1,42.5
85,315,123860,1,0,0:0:0:0:
125,302,123950,1,0,0:0:0:0:
165,289,124041,5,0,0:0:0:0:
368,215,124224,1,0,0:0:0:0:
133,123,124406,1,0,0:0:0:0:
290,45,124587,1,0,0:0:0:0:
290,45,124678,1,0,0:0:0:0:
290,45,124769,2,0,P|282:86|276:128,1,85
252,255,125133,1,0,0:0:0:0:
419,250,125315,6,0,B|339:282|333:234|253:255,1,170
372,148,125860,1,0,0:0:0:0:
292,365,126042,1,0,0:0:0:0:
292,365,126133,1,0,0:0:0:0:
292,365,126224,1,0,0:0:0:0:
35,226,126406,2,0,P|77:230|119:234,1,85
252,255,126769,1,0,0:0:0:0:
211,45,126951,6,0,P|206:87|201:129,1,85
76,108,127315,1,0,0:0:0:0:
335,81,127496,1,0,0:0:0:0:
335,81,127587,1,0,0:0:0:0:
335,81,127678,1,0,0:0:0:0:
162,248,127860,1,0,0:0:0:0:
211,45,128042,1,0,0:0:0:0:
251,304,128224,6,0,B|261:242|261:242|247:199|247:199|256:138,1,170
391,40,128769,2,0,P|348:40|306:42,1,85
211,45,129042,1,0,0:0:0:0:
185,46,129133,1,0,0:0:0:0:
354,192,129315,1,0,0:0:0:0:
162,248,129496,1,0,0:0:0:0:
426,352,129678,1,0,0:0:0:0:
206,348,129860,6,0,P|247:340|289:332,1,85
472,240,130224,1,0,0:0:0:0:
239,169,130406,1,0,0:0:0:0:
239,169,130496,1,0,0:0:0:0:
239,169,130587,1,0,0:0:0:0:
349,239,130769,1,0,0:0:0:0:
411,38,130951,1,0,0:0:0:0:
457,137,131133,6,0,P|375:142|314:86,1,170
213,186,131678,1,0,0:0:0:0:
255,0,131860,1,0,0:0:0:0:
255,0,131951,1,0,0:0:0:0:
255,0,132042,1,0,0:0:0:0:
144,73,132224,1,0,0:0:0:0:
354,161,132406,1,0,0:0:0:0:
140,261,132587,1,0,0:0:0:0:
231,159,132769,5,0,0:0:0:0:
34,191,132951,1,0,0:0:0:0:
257,325,133133,1,0,0:0:0:0:
303,58,133315,1,0,0:0:0:0:
140,261,133496,5,0,0:0:0:0:
395,166,133678,1,0,0:0:0:0:
124,56,133860,1,0,0:0:0:0:
253,296,134042,1,0,0:0:0:0:
253,296,134406,6,0,P|241:255|226:215,1,85
78,193,134769,1,0,0:0:0:0:
380,229,134951,1,0,0:0:0:0:
172,71,135133,5,0,0:0:0:0:
214,67,135223,1,0,0:0:0:0:
256,64,135314,1,0,0:0:0:0:
299,60,135405,1,0,0:0:0:0:
341,57,135496,1,0,0:0:0:0:
383,54,135587,1,0,0:0:0:0:
425,50,135678,5,0,0:0:0:0:
415,266,135860,1,0,0:0:0:0:
192,177,136042,1,0,0:0:0:0:
323,165,136224,1,0,0:0:0:0:
323,165,136315,1,0,0:0:0:0:
323,165,136406,2,0,P|365:159|407:154,1,85
266,275,136769,1,0,0:0:0:0:
191,176,136951,6,0,P|171:94|144:13,1,170
54,139,137496,1,0,0:0:0:0:
323,165,137678,1,0,0:0:0:0:
323,165,137769,1,0,0:0:0:0:
323,165,137860,1,0,0:0:0:0:
141,287,138042,1,0,0:0:0:0:
286,44,138224,1,0,0:0:0:0:
83,40,138406,6,0,P|121:58|159:77,1,85
259,172,138769,1,0,0:0:0:0:
286,44,138951,1,0,0:0:0:0:
131,205,139133,1,0,0:0:0:0:
131,205,139224,1,0,0:0:0:0:
131,205,139315,1,0,0:0:0:0:
360,260,139496,1,0,0:0:0:0:
159,77,139678,1,0,0:0:0:0:
469,155,139860,6,0,B|406:188|379:139|302:170,1,170
420,68,140406,1,0,0:0:0:0:
217,233,140587,1,0,0:0:0:0:
217,233,140678,1,0,0:0:0:0:
217,233,140769,1,0,0:0:0:0:
457,268,140951,1,0,0:0:0:0:
298,85,141133,2,0,P|299:127|302:169,1,85
119,343,141496,6,0,P|117:300|114:258,1,85
26,151,141860,1,0,0:0:0:0:
263,319,142042,1,0,0:0:0:0:
263,319,142133,1,0,0:0:0:0:
263,319,142224,1,0,0:0:0:0:
302,169,142406,1,0,0:0:0:0:
114,258,142587,1,0,0:0:0:0:
208,57,142769,6,0,B|218:119|218:119|204:162|204:162|213:223,1,170
122,106,143315,1,0,0:0:0:0:
302,169,143496,1,0,0:0:0:0:
302,169,143587,1,0,0:0:0:0:
302,169,143678,1,0,0:0:0:0:
291,2,143860,1,0,0:0:0:0:
436,80,144042,2,0,P|476:100|512:118,1,85
445,301,144406,5,0,0:0:0:0:
436,80,144587,1,0,0:0:0:0:
218,171,144769,1,0,0:0:0:0:
379,187,144951,1,0,0:0:0:0:
379,187,145042,1,0,0:0:0:0:
379,187,145133,5,0,0:0:0:0:
287,290,145315,1,0,0:0:0:0:
306,74,145496,1,0,0:0:0:0:
78,154,145678,1,0,0:0:0:0:
78,154,146042,5,0,0:0:0:0:
218,171,146224,1,0,0:0:0:0:
127,269,146406,1,0,0:0:0:0:
164,54,146587,1,0,0:0:0:0:
361,182,146769,1,0,0:0:0:0:
361,182,146860,1,0,0:0:0:0:
361,182,146951,1,0,0:0:0:0:
361,182,147042,1,0,0:0:0:0:
361,182,147133,1,0,0:0:0:0:
361,182,147224,1,0,0:0:0:0:
361,182,147315,6,0,L|368:288,1,85
268,340,147678,2,0,L|262:255,1,85
260,224,147951,1,0,0:0:0:0:
260,224,148042,1,0,0:0:0:0:
112,224,148224,1,0,0:0:0:0:
168,328,148406,1,0,0:0:0:0:
280,112,148587,6,0,P|202:84|117:105,1,170
416,92,149133,1,0,0:0:0:0:
368,224,149315,1,0,0:0:0:0:
368,224,149406,1,0,0:0:0:0:
368,224,149496,1,0,0:0:0:0:
496,216,149678,1,0,0:0:0:0:
244,263,149860,2,0,P|202:272|162:260,1,85
288,48,150224,6,0,L|292:172,1,85
416,72,150587,2,0,L|420:196,1,85
424,196,150860,1,0,0:0:0:0:
424,196,150951,1,0,0:0:0:0:
512,84,151133,1,0,0:0:0:0:
324,224,151315,1,0,0:0:0:0:
228,28,151496,6,0,P|200:92|220:196,1,170
316,344,152042,1,0,0:0:0:0:
192,316,152224,1,0,0:0:0:0:
192,316,152315,1,0,0:0:0:0:
192,316,152406,1,0,0:0:0:0:
324,224,152587,1,0,0:0:0:0:
96,200,152769,2,0,P|28:196|-20:224,1,85
192,88,153133,6,0,L|288:84,1,85
324,224,153496,2,0,L|239:227,1,85
200,232,153769,1,0,0:0:0:0:
200,232,153860,1,0,0:0:0:0:
380,136,154042,1,0,0:0:0:0:
272,328,154224,1,0,0:0:0:0:
456,52,154406,6,0,P|496:132|452:220,1,170
392,304,154951,1,0,0:0:0:0:
272,216,155133,2,0,L|196:212,2,42.5
380,136,155496,1,0,0:0:0:0:
272,328,155678,2,0,L|152:324,1,85
168,100,156042,6,0,L|292:104,1,85
132,216,156406,2,0,L|47:213,1,85
8,216,156678,1,0,0:0:0:0:
8,216,156769,1,0,0:0:0:0:
72,104,156951,1,0,0:0:0:0:
88,324,157133,1,0,0:0:0:0:
304,192,157315,6,0,P|348:212|372:264,1,85
160,80,157678,2,0,P|155:31|188:-14,1,85
135,260,158042,2,0,P|95:288|38:282,1,85
200,180,158406,1,0,0:0:0:0:
416,140,158587,1,0,0:0:0:0:
443,172,158677,1,0,0:0:0:0:
456,212,158768,1,0,0:0:0:0:
452,254,158859,1,0,0:0:0:0:
432,291,158951,6,0,L|240:296,1,170
112,168,159496,1,0,0:0:0:0:
112,168,159587,1,0,0:0:0:0:
112,168,159678,1,0,0:0:0:0:
300,100,159860,1,0,0:0:0:0:
156,320,160042,1,0,0:0:0:0:
192,44,160224,6,0,L|216:232,1,170
476,112,160769,2,0,L|352:100,1,85
348,228,161133,1,0,0:0:0:0:
296,16,161315,1,0,0:0:0:0:
156,176,161496,1,0,0:0:0:0:
268,128,161678,1,0,0:0:0:0:
268,128,161769,1,0,0:0:0:0:
268,128,161860,5,0,0:0:0:0:
232,280,162042,1,0,0:0:0:0:
391,103,162224,1,0,0:0:0:0:
152,36,162406,1,0,0:0:0:0:
152,36,162496,1,0,0:0:0:0:
152,36,162587,1,0,0:0:0:0:
71,185,162769,2,0,L|179:173,1,85
280,280,163133,6,0,B|196:240|196:308|100:268,1,170
232,368,163678,1,0,0:0:0:0:
256,172,163860,1,0,0:0:0:0:
256,172,163951,1,0,0:0:0:0:
256,172,164042,1,0,0:0:0:0:
392,304,164224,1,0,0:0:0:0:
408,56,164406,5,0,0:0:0:0:
400,64,164496,1,0,0:0:0:0:
392,72,164587,1,0,0:0:0:0:
384,80,164678,1,0,0:0:0:0:
376,88,164769,6,0,L|176:76,1,170
72,116,165315,1,0,0:0:0:0:
196,252,165496,2,0,L|80:244,1,85
316,300,165860,1,0,0:0:0:0:
315,300,166042,6,0,P|328:259|315:207,1,85
220,348,166406,1,0,0:0:0:0:
432,256,166587,1,0,0:0:0:0:
248,132,166769,1,0,0:0:0:0:
308,256,166951,5,0,0:0:0:0:
112,128,167133,1,0,0:0:0:0:
328,12,167315,1,0,0:0:0:0:
172,256,167496,1,0,0:0:0:0:
172,256,167587,1,0,0:0:0:0:
172,256,167678,5,0,0:0:0:0:
388,124,167860,1,0,0:0:0:0:
112,128,168042,2,0,L|104:184,1,42.5
272,328,168224,2,0,L|265:285,1,42.5
256,104,168406,5,0,0:0:0:0:
120,328,168587,1,0,0:0:0:0:
420,264,168769,1,0,0:0:0:0:
120,72,168951,6,0,P|88:132|104:236,1,170
128,244,169406,1,0,0:0:0:0:
156,252,169496,1,0,0:0:0:0:
184,260,169587,1,0,0:0:0:0:
212,268,169678,5,0,0:0:0:0:
254,265,169768,1,0,0:0:0:0:
293,248,169859,1,0,0:0:0:0:
324,220,169950,1,0,0:0:0:0:
344,182,170041,1,0,0:0:0:0:
350,140,170132,1,0,0:0:0:0:
342,99,170223,1,0,0:0:0:0:
432,360,170406,6,0,L|248:364,1,170
228,144,170951,1,0,0:0:0:0:
468,176,171133,1,0,0:0:0:0:
468,176,171224,1,0,0:0:0:0:
468,176,171315,1,0,0:0:0:0:
244,280,171496,1,0,0:0:0:0:
268,20,171678,1,0,0:0:0:0:
340,160,171860,6,0,P|258:136|167:159,1,170
44,316,172406,2,0,L|40:196,1,85
44,196,172678,1,0,0:0:0:0:
44,196,172769,5,0,0:0:0:0:
188,40,172951,1,0,0:0:0:0:
260,220,173133,1,0,0:0:0:0:
152,208,173315,1,0,0:0:0:0:
224,128,173496,6,0,P|268:120|312:144,1,68
416,196,173860,2,0,P|383:203|350:194,1,68
484,132,174224,2,0,P|508:180|484:264,1,136
420,320,174769,6,0,L|268:316,1,136
216,252,175315,2,0,L|116:248,1,68
56,244,175678,1,0,0:0:0:0:
300,188,176042,1,0,0:0:0:0:
220,123,176224,1,0,0:0:0:0:
220,123,176315,1,0,0:0:0:0:
219,123,176406,6,0,P|198:186|215:251,1,136
300,308,176951,1,0,0:0:0:0:
388,252,177133,2,0,P|404:186|383:123,1,136
340,32,177678,6,0,B|404:0|404:44|478:20,1,136
384,124,178224,2,0,L|296:120,1,68
200,84,178587,5,0,0:0:0:0:
200,84,178678,1,0,0:0:0:0:
200,84,178769,1,0,0:0:0:0:
200,84,178860,1,0,0:0:0:0:
200,84,178951,1,0,0:0:0:0:
108,208,179133,1,0,0:0:0:0:
108,208,179224,1,0,0:0:0:0:
108,208,179315,6,0,L|224:212,1,101.999996887207
292,244,179860,1,0,0:0:0:0:
292,244,180042,2,0,L|408:248,1,101.999996887207
472,304,180587,6,0,P|488:244|472:192,1,101.999996887207
408,144,181133,2,0,P|380:148|352:144,1,50.9999984436036
244,80,181496,2,0,P|269:77|294:81,1,50.9999984436036
268,172,181860,2,0,P|265:197|269:222,1,50.9999984436036
272,260,182133,1,0,0:0:0:0:
272,260,182224,5,0,0:0:0:0:
136,96,182406,1,0,0:0:0:0:
396,88,182587,1,0,0:0:0:0:
156,216,182769,1,0,0:0:0:0:
156,216,182860,1,0,0:0:0:0:
156,216,182951,5,0,0:0:0:0:
316,4,183133,1,0,0:0:0:0:
364,292,183315,1,0,0:0:0:0:
204,20,183496,1,0,0:0:0:0:
288,164,183678,5,0,0:0:0:0:
288,164,183769,1,0,0:0:0:0:
288,164,183860,1,0,0:0:0:0:
288,164,183951,1,0,0:0:0:0:
288,164,184042,6,0,L|284:244,1,42.5
128,356,184224,2,0,L|125:313,1,42.5
104,100,184406,2,0,L|106:142,1,42.5
328,368,184587,2,0,L|330:325,1,42.5
376,88,184769,5,0,0:0:0:0:
339,66,184859,1,0,0:0:0:0:
298,56,184950,1,0,0:0:0:0:
256,59,185041,1,0,0:0:0:0:
217,75,185133,2,0,L|196:200,1,85
273,247,185496,2,0,L|287:163,1,85
188,248,185860,2,0,L|166:372,1,85
340,360,186224,2,0,L|354:276,1,85
388,104,186769,6,0,B|309:135|309:75|222:113,1,170
348,16,187315,1,0,0:0:0:0:
388,8,187405,1,0,0:0:0:0:
430,13,187496,1,0,0:0:0:0:
464,37,187587,1,0,0:0:0:0:
485,74,187678,1,0,0:0:0:0:
488,116,187769,1,0,0:0:0:0:
474,156,187860,1,0,0:0:0:0:
444,185,187951,1,0,0:0:0:0:
408,208,188042,5,0,0:0:0:0:
204,188,188224,1,0,0:0:0:0:
388,104,188406,1,0,0:0:0:0:
404,324,188587,1,0,0:0:0:0:
404,324,188678,1,0,0:0:0:0:
404,324,188769,2,0,P|362:315|320:322,1,85
200,368,189133,1,0,0:0:0:0:
216,100,189315,6,0,P|249:175|218:252,1,170
372,100,189860,1,0,0:0:0:0:
356,288,190042,1,0,0:0:0:0:
356,288,190133,1,0,0:0:0:0:
356,288,190224,1,0,0:0:0:0:
496,104,190406,1,0,0:0:0:0:
244,92,190587,2,0,L|124:88,1,85
364,184,190951,5,0,0:0:0:0:
100,224,191133,1,0,0:0:0:0:
320,352,191315,1,0,0:0:0:0:
168,96,191496,1,0,0:0:0:0:
168,96,191587,1,0,0:0:0:0:
168,96,191678,1,0,0:0:0:0:
188,344,191860,1,0,0:0:0:0:
296,76,192042,1,0,0:0:0:0:
240,220,192224,6,0,L|32:212,1,170
396,180,192769,1,0,0:0:0:0:
296,352,192951,1,0,0:0:0:0:
296,352,193042,1,0,0:0:0:0:
296,352,193133,1,0,0:0:0:0:
192,128,193315,1,0,0:0:0:0:
368,96,193496,2,0,P|409:90|449:108,1,85
294,149,193860,6,0,P|276:110|282:69,1,85
208,232,194224,1,0,0:0:0:0:
396,196,194406,1,0,0:0:0:0:
396,196,194496,1,0,0:0:0:0:
396,196,194587,1,0,0:0:0:0:
160,64,194769,1,0,0:0:0:0:
328,304,194951,1,0,0:0:0:0:
43,233,195133,6,0,B|124:194|124:258|212:230,1,170
88,328,195678,1,0,0:0:0:0:
180,128,195860,1,0,0:0:0:0:
180,128,195951,1,0,0:0:0:0:
180,128,196042,1,0,0:0:0:0:
288,288,196224,1,0,0:0:0:0:
348,72,196406,1,0,0:0:0:0:
284,172,196587,1,0,0:0:0:0:
236,8,196769,5,0,0:0:0:0:
428,188,196951,1,0,0:0:0:0:
160,244,197133,1,0,0:0:0:0:
348,72,197315,1,0,0:0:0:0:
268,352,197496,5,0,0:0:0:0:
64,124,197678,1,0,0:0:0:0:
284,172,197860,1,0,0:0:0:0:
52,328,198042,1,0,0:0:0:0:
344,284,198406,5,0,0:0:0:0:
16,224,198587,1,0,0:0:0:0:
204,36,198769,1,0,0:0:0:0:
120,144,198951,5,0,0:0:0:0:
157,164,199041,1,0,0:0:0:0:
198,174,199132,1,0,0:0:0:0:
239,168,199223,1,0,0:0:0:0:
278,150,199314,1,0,0:0:0:0:
318,136,199405,1,0,0:0:0:0:
360,136,199496,1,0,0:0:0:0:
400,150,199587,1,0,0:0:0:0:
437,171,199678,5,0,0:0:0:0:
204,36,199860,1,0,0:0:0:0:
344,284,200042,1,0,0:0:0:0:
364,4,200224,1,0,0:0:0:0:
364,4,200315,1,0,0:0:0:0:
364,4,200406,1,0,0:0:0:0:
278,150,200587,1,0,0:0:0:0:
128,152,200769,1,0,0:0:0:0:
428,148,200951,6,0,P|456:208|424:324,1,170
284,376,201496,1,0,0:0:0:0:
216,208,201678,1,0,0:0:0:0:
216,208,201769,1,0,0:0:0:0:
216,208,201860,1,0,0:0:0:0:
172,344,202042,1,0,0:0:0:0:
328,128,202224,2,0,L|324:24,1,85
104,104,202587,5,0,0:0:0:0:
312,200,202769,1,0,0:0:0:0:
68,268,202951,1,0,0:0:0:0:
280,352,203133,1,0,0:0:0:0:
280,352,203224,1,0,0:0:0:0:
280,352,203315,1,0,0:0:0:0:
400,100,203496,1,0,0:0:0:0:
420,296,203678,1,0,0:0:0:0:
200,124,203860,6,0,L|176:324,1,170
80,52,204406,1,0,0:0:0:0:
336,64,204587,1,0,0:0:0:0:
336,64,204678,1,0,0:0:0:0:
336,64,204769,1,0,0:0:0:0:
304,264,204951,1,0,0:0:0:0:
472,64,205133,5,0,0:0:0:0:
200,160,205315,1,0,0:0:0:0:
200,160,205406,1,0,0:0:0:0:
200,160,205496,6,0,P|152:168|96:144,1,85
64,264,205860,1,0,0:0:0:0:
168,60,206042,1,0,0:0:0:0:
168,60,206133,1,0,0:0:0:0:
168,60,206224,2,0,P|216:52|272:76,1,85
272,272,206587,1,0,0:0:0:0:
472,64,206769,6,0,L|480:304,1,203.999993774414
304,140,207315,1,0,0:0:0:0:
152,328,207496,1,0,0:0:0:0:
152,328,207587,1,0,0:0:0:0:
152,328,207678,1,0,0:0:0:0:
376,328,207860,1,0,0:0:0:0:
128,176,208042,2,0,P|80:168|20:184,1,85
256,244,208406,5,0,0:0:0:0:
428,60,208587,1,0,0:0:0:0:
144,12,208769,1,0,0:0:0:0:
276,128,208951,1,0,0:0:0:0:
276,128,209042,1,0,0:0:0:0:
276,128,209133,5,0,0:0:0:0:
124,132,209315,1,0,0:0:0:0:
400,180,209496,1,0,0:0:0:0:
256,329,209678,6,0,L|256:217,1,85
200,88,210042,1,0,0:0:0:0:
412,280,210224,5,0,0:0:0:0:
104,204,210406,1,0,0:0:0:0:
356,100,210587,5,0,0:0:0:0:
140,360,210769,1,0,0:0:0:0:
140,360,210860,1,0,0:0:0:0:
140,360,210951,2,0,L|144:280,1,42.5
253,201,211133,2,0,L|255:243,1,42.5
116,88,211315,6,0,B|164:72|224:96,1,85
356,100,211678,1,0,0:0:0:0:
380,296,211860,1,0,0:0:0:0:
380,296,211951,1,0,0:0:0:0:
380,296,212042,1,0,0:0:0:0:
253,201,212224,2,0,B|217:185|169:201,1,85
464,88,212587,6,0,P|496:164|444:260,1,170
240,104,213133,1,0,0:0:0:0:
288,312,213315,1,0,0:0:0:0:
288,312,213406,1,0,0:0:0:0:
288,312,213496,1,0,0:0:0:0:
352,80,213678,1,0,0:0:0:0:
84,104,213860,1,0,0:0:0:0:
224,196,214042,1,0,0:0:0:0:
224,196,214133,1,0,0:0:0:0:
224,196,214224,5,0,0:0:0:0:
412,196,214406,1,0,0:0:0:0:
216,56,214587,1,0,0:0:0:0:
164,336,214769,1,0,0:0:0:0:
352,80,214951,5,0,0:0:0:0:
72,168,215133,1,0,0:0:0:0:
304,292,215315,1,0,0:0:0:0:
216,56,215496,6,0,L|208:252,1,170
388,32,216042,5,0,0:0:0:0:
420,272,216224,1,0,0:0:0:0:
420,272,216315,1,0,0:0:0:0:
420,272,216406,5,0,0:0:0:0:
136,148,216587,1,0,0:0:0:0:
448,152,216769,5,0,0:0:0:0:
192,328,216951,1,0,0:0:0:0:
288,24,217133,5,0,0:0:0:0:
300,328,217315,1,0,0:0:0:0:
404,28,217496,5,0,0:0:0:0:
124,240,217678,1,0,0:0:0:0:
368,192,217860,5,0,0:0:0:0:
148,36,218042,1,0,0:0:0:0:
484,72,218224,1,0,0:0:0:0:
256,76,218406,6,0,B|286:158|230:158|262:246,1,170
151,120,218951,2,0,L|147:8,1,85
148,0,219224,1,0,0:0:0:0:
148,0,219315,1,0,0:0:0:0:
48,188,219496,1,0,0:0:0:0:
276,72,219678,1,0,0:0:0:0:
228,272,219860,6,0,P|316:244|404:292,1,170
164,120,220406,5,0,0:0:0:0:
304,356,220587,1,0,0:0:0:0:
368,72,220769,5,0,0:0:0:0:
120,224,220951,1,0,0:0:0:0:
464,224,221133,5,0,0:0:0:0:
248,40,221315,1,0,0:0:0:0:
232,360,221678,5,0,0:0:0:0:
80,136,222042,1,0,0:0:0:0:
80,136,222224,2,0,L|264:144,1,170
168,320,222951,5,0,0:0:0:0:
408,56,223133,1,0,0:0:0:0:
400,348,223315,1,0,0:0:0:0:
260,152,223496,1,0,0:0:0:0:
260,152,223587,1,0,0:0:0:0:
260,152,223678,5,0,0:0:0:0:
456,192,223860,1,0,0:0:0:0:
200,8,224042,1,0,0:0:0:0:
284,320,224224,1,0,0:0:0:0:
284,320,224587,5,0,0:0:0:0:
52,136,224769,1,0,0:0:0:0:
272,24,224951,6,0,P|316:168|196:112,1,340
