osu file format v14

[General]
AudioFilename: audio.mp3
AudioLeadIn: 0
PreviewTime: 59243
Countdown: 0
SampleSet: Soft
StackLeniency: 0.5
Mode: 0
LetterboxInBreaks: 0
WidescreenStoryboard: 1

[Editor]
Bookmarks: 48879,76516
DistanceSpacing: 0.9
BeatDivisor: 4
GridSize: 32
TimelineZoom: 1.5

[Metadata]
Title:SAKURA Skip
TitleUnicode:SAKURAスキップ
Artist:fourfolium
ArtistUnicode:fourfolium
Creator:Kashima
Version:Hard
Source:NEW GAME!
Tags:フォーフォリウム ニューゲーム tv size opening Kantokun takada yuuki 高田憂希 suzukaze aoba 涼風青葉 yamaguchi megumi 山口愛 takimoto hifumi 滝本ひふみ toda megumi 戸田めぐみ shinoda hazime 篠田はじめ ayumi takeo 竹尾歩美 iizima yun 飯島ゆん
BeatmapID:1100237
BeatmapSetID:516329

[Difficulty]
HPDrainRate:5
CircleSize:3.5
OverallDifficulty:6
ApproachRate:7.5
SliderMultiplier:1.8
SliderTickRate:1

[Events]
//Background and Video events
0,0,"bg.png",0,0
//Break Periods
//Storyboard Layer 0 (Background)
//Storyboard Layer 1 (Fail)
//Storyboard Layer 2 (Pass)
//Storyboard Layer 3 (Foreground)
//Storyboard Sound Samples

[TimingPoints]
-393,363.636363636364,4,2,2,45,1,0
12697,-100,4,2,2,60,0,0
14243,-100,4,2,2,5,0,0
14334,-100,4,2,2,60,0,0
15697,-100,4,2,2,5,0,0
15788,-100,4,2,2,60,0,0
18607,-100,4,2,2,5,0,0
18697,-100,4,2,2,60,0,0
20061,-100,4,2,2,5,0,0
20152,-100,4,2,2,60,0,0
24334,-100,4,2,2,45,0,0
57788,-100,4,2,2,50,0,0
58152,-100,4,2,2,55,0,0
58516,-100,4,2,2,60,0,0
60879,-100,4,2,2,60,0,1
61243,-100,4,2,2,45,0,0
61425,-100,4,2,2,60,0,1
61516,-100,4,2,2,45,0,0
62152,-100,4,2,2,45,0,1
85061,-100,4,2,2,45,0,0

[Colours]
Combo1 : 185,115,255
Combo2 : 125,125,255
Combo3 : 255,255,166
Combo4 : 255,140,140

[HitObjects]
23,119,334,6,0,L|10:60,4,45,0|0|0|0|4,0:0|0:0|0:0|0:0|0:2,0:0:0:0:
72,193,879,1,0,0:0:0:0:
91,204,970,1,0,0:0:0:0:
111,214,1061,6,0,P|162:225|219:195,1,90,2|0,0:1|0:0,0:0:0:0:
248,148,1425,2,0,L|342:135,1,90,2|0,0:1|0:0,0:0:0:0:
412,112,1788,1,2,0:1:0:0:
480,67,1970,1,0,0:0:0:0:
487,147,2152,1,2,0:1:0:0:
477,227,2334,6,0,L|501:335,1,90,2|0,0:1|0:1,0:0:0:0:
428,357,2697,2,0,L|384:174,1,180,2|2,0:0|0:1,0:0:0:0:
358,103,3243,1,2,0:0:0:0:
368,22,3425,1,2,0:1:0:0:
280,37,3607,1,2,0:1:0:0:
269,117,3789,1,0,0:0:0:0:
281,198,3970,6,0,P|306:259|283:308,1,90,2|0,0:1|0:0,0:0:0:0:
223,256,4334,2,0,L|146:307,1,90,2|0,0:0|0:0,0:0:0:0:
115,331,4607,1,0,0:0:0:0:
115,331,4697,1,2,0:1:0:0:
53,278,4879,1,0,0:0:0:0:
98,211,5061,1,2,0:1:0:0:
54,145,5243,6,0,P|75:64|172:54,1,180,4|4,0:2|0:2,0:0:0:0:
271,238,5970,2,0,L|129:120,1,180,4|4,0:2|0:2,0:0:0:0:
57,62,6516,2,0,L|21:29,3,45
97,47,6879,6,0,B|159:18|235:62|292:34,1,180,4|8,0:0|0:0,0:0:0:0:
354,59,7425,2,0,L|372:2,2,45,0|0|2,0:0|0:0|0:2,0:0:0:0:
406,120,7788,1,0,0:0:0:0:
382,197,7970,1,8,0:2:0:0:
311,236,8152,6,0,P|384:279|456:233,1,180,4|0,0:2|0:0,0:0:0:0:
382,197,8697,1,8,0:2:0:0:
311,236,8879,2,0,P|296:326|199:339,1,180
239,270,9425,1,8,0:2:0:0:
226,92,9788,6,0,L|290:154,1,90,2|0,0:2|0:0,0:0:0:0:
225,203,10152,2,0,L|161:140,1,90,8|0,0:2|0:0,0:0:0:0:
160,44,10516,1,2,0:2:0:0:
83,145,10697,1,0,0:0:0:0:
79,20,10879,1,8,0:2:0:0:
29,86,11061,6,0,P|6:168|72:224,1,180,4|0,0:2|0:0,0:0:0:0:
83,145,11607,2,0,L|189:168,1,90,8|0,0:0|0:0,0:0:0:0:
217,230,11970,2,0,L|286:249,3,45,2|0|0|0,0:2|0:0|0:0|0:0,0:0:0:0:
293,266,12334,2,0,L|362:285,3,45,8|0|0|0,0:2|0:0|0:0|0:0,0:0:0:0:
376,270,12697,6,0,L|410:151,1,90,4|0,0:2|0:0,0:0:0:0:
429,107,13061,1,8,0:2:0:0:
369,50,13243,2,0,L|384:7,2,45,0|0|2,0:0|0:0|0:2,0:0:0:0:
294,84,13607,2,0,L|206:61,1,90,0|8,0:0|0:2,0:0:0:0:
142,11,13970,6,0,B|116:27|115:82|130:109|157:128|157:128|180:189,1,180,4|0,0:2|0:0,0:0:0:0:
196,248,14516,2,0,L|224:354,1,90,8|0,0:2|0:2,0:0:0:0:
291,297,14879,2,0,L|269:209,2,90,0|0|8,0:0|0:0|0:2,0:0:0:0:
364,331,15425,6,0,P|464:326|481:250,1,180,4|0,0:0|0:0,0:0:0:0:
455,185,15970,1,8,0:2:0:0:
382,228,16152,2,0,L|412:274,2,45,0|0|2,0:0|0:0|0:2,0:0:0:0:
335,161,16516,1,0,0:0:0:0:
343,80,16697,1,8,0:2:0:0:
262,72,16879,6,0,B|207:26|207:26|161:77|75:63,1,180,4|0,0:2|0:0,0:0:0:0:
71,146,17425,2,0,P|118:151|170:141,1,90,12|0,0:2|0:0,0:0:0:0:
203,137,17697,1,0,0:0:0:0:
203,137,17788,1,2,0:2:0:0:
248,204,17970,1,0,0:0:0:0:
236,284,18152,1,8,0:2:0:0:
157,305,18334,6,0,P|208:361|317:302,1,180,4|0,0:2|0:0,0:0:0:0:
317,257,18879,1,8,0:2:0:0:
237,239,19061,2,0,L|234:323,2,45,0|0|2,0:0|0:0|0:2,0:0:0:0:
218,159,19425,1,0,0:0:0:0:
240,81,19607,1,8,0:2:0:0:
317,64,19788,6,0,B|354:53|402:7|402:7|469:44,1,180,4|0,0:2|0:0,0:0:0:0:
414,110,20334,2,0,L|438:219,1,90,8|0,0:2|0:0,0:0:0:0:
361,234,20697,2,0,L|383:332,2,90,2|0|8,0:2|0:0|0:2,0:0:0:0:
341,154,21243,6,0,L|319:60,1,90,0|4,0:0|0:2,0:0:0:0:
155,50,21788,1,8,0:2:0:0:
138,129,21970,2,0,L|117:216,1,90,0|6,0:0|0:2,0:0:0:0:
272,266,22516,1,8,0:2:0:0:
286,345,22697,5,4,0:2:0:0:
116,216,23061,1,4,0:0:0:0:
282,94,23425,1,4,0:2:0:0:
306,217,23607,2,0,L|317:278,4,45,2|0|0|0|12,0:0|0:0|0:0|0:0|0:2,0:0:0:0:
94,36,24334,6,0,L|111:140,1,90,2|0,0:2|0:0,0:0:0:0:
190,93,24697,2,0,L|207:197,1,90,8|0,0:2|0:2,0:0:0:0:
284,166,25061,1,2,0:2:0:0:
295,246,25243,1,0,0:2:0:0:
212,215,25425,1,8,0:2:0:0:
363,190,25607,6,0,P|472:128|454:64,1,180,4|0,0:2|0:0,0:0:0:0:
391,113,26152,2,0,L|316:61,1,90,8|0,0:2|0:0,0:0:0:0:
241,31,26516,1,2,0:2:0:0:
117,53,26697,2,0,L|161:44,2,45,0|0|8,0:0|0:0|0:2,0:0:0:0:
39,78,27061,6,0,P|51:223|91:231,1,180,4|0,0:2|0:0,0:0:0:0:
87,146,27607,2,0,P|175:147|198:169,1,90,8|0,0:2|0:0,0:0:0:0:
245,181,27970,2,0,L|343:168,1,90,2|0,0:2|0:0,0:0:0:0:
416,157,28334,1,8,0:2:0:0:
395,251,28516,6,0,P|349:324|251:298,1,180,4|0,0:0|0:0,0:0:0:0:
282,164,29061,2,0,L|314:249,1,90,12|0,0:2|0:0,0:0:0:0:
161,169,29425,2,0,L|193:254,1,90,6|0,0:2|0:0,0:0:0:0:
216,330,29788,2,0,L|267:357,3,45,8|0|0|0,0:0|0:0|0:0|0:0,0:0:0:0:
295,362,30152,6,0,L|397:342,1,90,6|0,0:2|0:0,0:0:0:0:
340,275,30516,2,0,L|442:255,1,90,8|0,0:2|0:0,0:0:0:0:
484,199,30879,1,2,0:2:0:0:
463,121,31061,1,0,0:0:0:0:
389,87,31243,1,8,0:2:0:0:
312,116,31425,6,0,L|126:151,1,180,4|0,0:2|0:0,0:0:0:0:
138,230,31970,2,0,L|252:209,1,90,8|0,0:2|0:0,0:0:0:0:
306,197,32334,1,2,0:0:0:0:
385,180,32516,1,0,0:0:0:0:
407,176,32607,1,0,0:0:0:0:
428,172,32697,1,8,0:2:0:0:
340,56,32879,6,0,P|278:130|307:198,1,180,4|0,0:2|0:0,0:0:0:0:
355,260,33425,2,0,L|440:291,1,90,12|0,0:2|0:2,0:0:0:0:
342,345,33788,2,0,L|257:314,1,90,6|0,0:2|0:2,0:0:0:0:
226,238,34152,1,8,0:0:0:0:
220,157,34334,6,0,P|186:78|100:71,2,180,4|4|4,0:2|0:2|0:2,0:0:0:0:
136,147,35243,2,0,P|108:269|147:321,1,180,6|8,0:2|0:0,0:0:0:0:
322,262,35970,5,2,0:2:0:0:
375,200,36152,2,0,L|385:100,1,90,0|8,0:2|0:2,0:0:0:0:
302,119,36516,1,0,0:2:0:0:
253,183,36697,2,0,L|235:309,1,90,2|0,0:2|0:2,0:0:0:0:
210,348,37061,1,8,0:2:0:0:
141,301,37243,6,0,P|78:244|106:161,1,180,4|0,0:2|0:0,0:0:0:0:
183,146,37788,1,8,0:2:0:0:
200,231,37970,2,0,L|150:222,2,45,2|0|0,0:2|0:0|0:0,0:0:0:0:
263,168,38334,1,0,0:0:0:0:
362,191,38516,1,8,0:0:0:0:
270,63,38879,6,0,L|370:79,2,90,2|0|8,0:2|0:2|0:2,0:0:0:0:
208,115,39425,2,0,P|125:123|69:47,1,180
158,40,39970,1,8,0:0:0:0:
208,115,40152,6,0,P|193:199|263:250,1,180,4|0,0:2|0:0,0:0:0:0:
347,118,40697,2,0,L|268:172,1,90,8|0,0:2|0:0,0:0:0:0:
338,217,41061,2,0,L|414:166,1,90,2|0,0:2|0:0,0:0:0:0:
480,212,41425,2,0,L|401:266,1,90,8|0,0:2|0:0,0:0:0:0:
338,217,41788,6,0,L|259:271,1,90,4|0,0:2|0:0,0:0:0:0:
193,309,42152,1,8,0:2:0:0:
193,227,42334,1,0,0:2:0:0:
193,227,42425,1,0,0:2:0:0:
193,227,42516,1,2,0:2:0:0:
247,166,42697,2,0,P|243:82|222:60,1,90,0|10,0:2|0:2,0:0:0:0:
165,129,43061,1,2,0:0:0:0:
179,314,43425,5,0,0:2:0:0:
133,246,43607,1,8,0:2:0:0:
87,179,43788,2,0,L|58:136,2,45,0|0|2,0:2|0:2|0:2,0:0:0:0:
168,172,44152,1,0,0:2:0:0:
248,165,44334,1,8,0:2:0:0:
407,19,44697,6,0,L|428:122,1,90,2|0,0:2|0:2,0:0:0:0:
427,189,45061,1,8,0:2:0:0:
400,265,45243,2,0,P|294:290|250:227,1,180,0|0,0:2|0:2,0:0:0:0:
266,164,45788,1,8,0:2:0:0:
333,215,45970,2,0,P|336:120|231:85,2,180,4|4|4,0:2|0:2|0:2,0:0:0:0:
285,320,46879,2,0,L|262:358,3,45,2|0|0|0,0:2|0:2|0:2|0:2,0:0:0:0:
323,307,47243,2,0,L|415:273,1,90,12|0,0:2|0:2,0:0:0:0:
409,194,47607,6,0,P|387:123|275:122,1,180,4|8,0:2|0:2,0:0:0:0:
295,217,48152,2,0,B|327:184,2,45,0|0|2,0:0|0:0|0:2,0:0:0:0:
212,224,48516,2,0,L|138:292,1,90,0|8,0:2|0:2,0:0:0:0:
117,361,48879,1,4,0:2:0:0:
248,287,49243,5,0,0:2:0:0:
295,217,49425,2,0,L|361:156,1,90,8|0,0:2|0:2,0:0:0:0:
385,139,49697,1,0,0:2:0:0:
385,139,49788,1,2,0:2:0:0:
328,81,49970,5,0,0:2:0:0:
251,108,50152,1,8,0:2:0:0:
166,98,50334,1,0,0:2:0:0:
90,51,50516,2,0,P|77:110|168:184,1,180,4|8,0:2|0:2,0:0:0:0:
207,79,51061,2,0,L|166:98,2,45,0|0|0,0:2|0:2|0:2,0:0:0:0:
282,109,51425,1,0,0:2:0:0:
366,88,51607,1,8,0:2:0:0:
395,167,51788,6,0,P|418:262|344:326,1,180,4|0,0:2|0:2,0:0:0:0:
286,324,52334,2,0,L|165:319,1,90,4|0,3:0|3:0,3:0:0:0:
127,278,52697,6,0,P|52:236|56:151,1,180,6|8,0:2|0:2,0:0:0:0:
126,196,53243,1,0,0:0:0:0:
194,242,53425,6,0,P|197:155|118:116,2,180,6|8|2,0:2|0:2|0:2,0:0:0:0:
150,310,54334,1,0,0:2:0:0:
69,317,54516,1,8,0:2:0:0:
23,250,54697,1,0,0:2:0:0:
42,171,54879,2,0,P|61:95|48:60,1,90,2|0,0:2|0:2,0:0:0:0:
138,68,55243,2,0,P|194:122|231:128,1,90,8|0,0:2|0:2,0:0:0:0:
129,182,55607,2,0,L|180:359,1,180,2|8,0:2|0:2,0:0:0:0:
228,127,56334,6,0,L|258:213,1,90,2|0,0:2|0:2,0:0:0:0:
361,248,56697,2,0,L|333:163,1,90,8|0,0:2|0:2,0:0:0:0:
280,284,57061,2,0,L|309:369,1,90,2|0,0:2|0:2,0:0:0:0:
204,334,57425,2,0,L|171:239,1,90,8|0,0:2|0:2,0:0:0:0:
149,112,57788,6,0,L|124:27,3,45,2|0|0|0,0:2|0:2|0:2|0:2,0:0:0:0:
220,150,58152,2,0,L|293:129,3,45,8|0|0|0,0:2|0:2|0:2|0:2,0:0:0:0:
176,214,58516,2,0,L|201:299,3,45,2|0|0|0,0:2|0:2|0:2|0:2,0:0:0:0:
107,177,58880,2,0,L|34:198,3,45,8|0|0|0,0:2|0:2|0:2|0:2,0:0:0:0:
153,109,59243,6,0,L|261:82,1,90,2|0,0:1|0:1,0:0:0:0:
420,106,59607,2,0,L|312:133,1,90,2|0,0:1|0:2,0:0:0:0:
203,240,59970,2,0,L|311:213,1,90,2|0,0:1|0:1,0:0:0:0:
470,237,60334,2,0,L|362:264,1,90,2|0,0:1|0:2,0:0:0:0:
62,209,60879,6,0,P|122:269|203:240,1,180,2|0,0:1|0:2,0:0:0:0:
140,191,61425,2,0,L|158:150,3,45,2|0|0|0,0:1|0:2|0:2|0:2,0:0:0:0:
184,119,61788,2,0,L|202:78,3,45,0|0|0|0,0:0|0:2|0:2|0:2,0:0:0:0:
239,58,62152,6,0,P|294:47|354:75,1,90,2|0,0:2|0:2,0:0:0:0:
371,123,62516,1,8,0:2:0:0:
404,196,62698,2,0,L|424:235,2,45,0|0|2,0:2|0:2|0:2,0:0:0:0:
323,208,63062,2,0,L|267:113,1,90,0|8,0:2|0:2,0:0:0:0:
239,58,63425,6,0,P|170:5|84:64,1,180,4|0,0:2|0:2,0:0:0:0:
162,86,63971,2,0,L|191:195,1,90,8|0,0:2|0:2,0:0:0:0:
111,210,64334,2,0,L|133:298,2,90,2|0|8,0:2|0:2|0:2,0:0:0:0:
94,129,64880,6,0,P|114:34|216:30,1,180,4|0,0:2|0:2,0:0:0:0:
258,49,65425,1,8,0:2:0:0:
210,113,65607,2,0,L|169:96,2,45,0|0|2,0:2|0:2|0:2,0:0:0:0:
266,171,65971,1,0,0:2:0:0:
336,132,66152,1,8,0:2:0:0:
355,53,66334,6,0,P|434:24|492:113,1,180,4|0,0:2|0:2,0:0:0:0:
433,191,66880,2,0,L|415:100,1,90,4|0,0:2|0:2,0:0:0:0:
496,242,67243,2,0,P|414:270|355:185,1,180,6|8,0:2|0:2,0:0:0:0:
325,55,67788,6,0,P|252:9|178:55,1,180,4|0,0:2|0:2,0:0:0:0:
252,93,68334,1,8,0:2:0:0:
182,134,68516,2,0,L|197:210,2,45,0|0|2,0:2|0:2|0:2,0:0:0:0:
112,91,68880,1,0,0:2:0:0:
40,129,69062,1,8,0:2:0:0:
126,224,69243,6,0,P|247:236|268:164,1,180,4|0,0:2|0:2,0:0:0:0:
170,91,69789,2,0,L|191:178,1,90,8|0,0:2|0:2,0:0:0:0:
257,125,70152,2,0,L|236:37,2,90,2|0|8,0:2|0:2|0:2,0:0:0:0:
278,203,70697,6,0,L|303:300,1,90,0|4,0:0|0:2,0:0:0:0:
451,354,71243,1,8,0:2:0:0:
474,276,71425,2,0,L|502:182,1,90,0|4,0:2|0:2,0:0:0:0:
339,217,71970,1,8,0:2:0:0:
299,288,72152,5,4,0:2:0:0:
234,139,72516,1,4,0:0:0:0:
219,300,72879,1,4,0:2:0:0:
299,288,73061,2,0,L|370:278,3,45,2|0|0|0,0:0|0:0|0:0|0:0,0:0:0:0:
339,358,73425,2,8,L|384:352,3,45,8|0|4|0,0:2|0:0|0:2|0:0,0:0:0:0:
411,347,73788,6,0,P|458:317|458:248,1,90,0|0,0:0|0:2,0:0:0:0:
427,215,74152,1,8,0:2:0:0:
371,156,74334,1,0,0:2:0:0:
371,156,74425,1,0,0:2:0:0:
371,156,74516,1,2,0:2:0:0:
345,227,74698,2,0,L|310:340,1,90,0|8,0:2|0:2,0:0:0:0:
243,350,75061,6,0,P|173:328|168:216,1,180,4|0,0:2|0:2,0:0:0:0:
230,268,75607,2,0,L|325:248,1,90,8|0,0:2|0:2,0:0:0:0:
310,168,75970,2,0,L|219:187,2,90,2|0|8,0:2|0:2|0:2,0:0:0:0:
355,100,76516,6,0,P|440:101|472:199,1,180,4|0,0:2|0:2,0:0:0:0:
442,251,77061,1,8,0:2:0:0:
399,181,77243,1,0,0:0:0:0:
399,181,77334,1,0,0:0:0:0:
399,181,77425,1,2,0:2:0:0:
354,248,77607,2,0,P|317:207|320:143,1,90,0|8,0:2|0:2,0:0:0:0:
178,203,77970,6,0,P|251:245|245:331,1,180,4|0,0:2|0:2,0:0:0:0:
91,299,78516,2,0,L|180:284,1,90,4|0,0:2|0:2,0:0:0:0:
92,380,78879,2,0,P|18:337|25:252,1,180,6|8,0:2|0:2,0:0:0:0:
69,183,79425,6,0,B|142:93|142:93|193:112|229:95,1,180,4|0,0:2|0:0,0:0:0:0:
284,86,79970,1,8,0:2:0:0:
264,164,80152,1,0,0:2:0:0:
264,164,80243,1,0,0:2:0:0:
264,164,80334,1,2,0:2:0:0:
343,148,80516,1,0,0:2:0:0:
322,225,80697,1,8,0:2:0:0:
387,273,80879,6,0,P|305:303|244:243,1,180,4|0,0:2|0:0,0:0:0:0:
322,225,81425,2,0,L|335:136,1,90,8|0,0:2|0:2,0:0:0:0:
413,116,81788,2,0,L|425:26,2,90,2|0|8,0:2|0:2|0:2,0:0:0:0:
400,196,82334,6,0,P|338:269|252:220,1,180,4|0,0:2|0:2,0:0:0:0:
235,172,82879,1,8,0:2:0:0:
324,192,83061,1,0,0:2:0:0:
324,192,83152,1,0,0:2:0:0:
324,192,83243,1,2,0:2:0:0:
288,110,83425,1,0,0:2:0:0:
255,35,83606,1,8,0:2:0:0:
204,98,83788,5,4,0:2:0:0:
358,267,84152,1,4,0:0:0:0:
334,40,84516,1,4,0:2:0:0:
386,153,84697,2,0,L|411:204,4,45,2|0|0|0|12,0:2|0:0|0:0|0:0|0:2,0:0:0:0:
228,351,85425,5,4,0:2:0:0:
336,293,85607,2,0,P|340:216|322:181,1,90
245,247,85970,5,0,0:2:0:0:
233,124,86152,2,0,P|163:90|124:93,1,90,4|0,0:0|0:0,0:0:0:0:
155,186,86516,5,4,0:2:0:0:
328,107,86697,1,4,0:2:0:0:
155,186,87061,5,4,0:0:0:0:
173,276,87243,1,0,0:0:0:0:
189,366,87425,1,0,0:0:0:0:
244,215,87607,5,4,0:0:0:0:
