osu file format v14

[General]
AudioFilename: audio.mp3
AudioLeadIn: 0
PreviewTime: 61949
Countdown: 0
SampleSet: Soft
StackLeniency: 0.5
Mode: 2
LetterboxInBreaks: 0
WidescreenStoryboard: 0

[Editor]
DistanceSpacing: 2
BeatDivisor: 2
GridSize: 8
TimelineZoom: 1.4

[Metadata]
Title:SAKURA Skip
TitleUnicode:SAKURAスキップ
Artist:fourfolium
ArtistUnicode:fourfolium
Creator:Kagari
Version:Salad
Source:NEW GAME!
Tags:フォーフォリウム ニューゲーム opening tv size takeda yuuki 高田憂希 suzukaze aoba 涼風青葉 yamaguchi megumi 山口愛 takimoto hifumi 滝本ひふみ toda megumi 戸田めぐみ shinoda hajime 篠田はじめ ayumi takeo 竹尾歩美 iijima yun 飯島ゆん setomi kowaii_ne
BeatmapID:1092831
BeatmapSetID:511118

[Difficulty]
HPDrainRate:4
CircleSize:3.2
OverallDifficulty:7.2
ApproachRate:7.2
SliderMultiplier:1.9
SliderTickRate:1

[Events]
//Background and Video events
Video,-163,"newgame_op.avi"
0,0,"new_game_bg.jpg",0,0
//Break Periods
//Storyboard Layer 0 (Background)
//Storyboard Layer 1 (Fail)
//Storyboard Layer 2 (Pass)
//Storyboard Layer 3 (Foreground)
//Storyboard Sound Samples

[TimingPoints]
-323,363.636363636364,4,2,1,70,1,0
12767,-100,4,2,1,80,0,0
24404,-100,4,2,1,70,0,0
36040,-100,4,2,1,60,0,0
47677,-100,4,2,1,70,0,0
53495,-100,4,2,1,50,0,0
56404,-100,4,2,1,60,0,0
59313,-100,4,2,1,70,0,0
62222,-100,4,2,1,80,0,1
73767,-100,4,2,1,80,0,0
73858,-100,4,2,1,80,0,1
85495,-100,4,2,1,80,0,0

[Colours]
Combo1 : 107,174,242
Combo2 : 180,143,213
Combo3 : 235,86,144
Combo4 : 117,213,165

[HitObjects]
368,96,404,5,0,3:0:0:0:
384,160,495,1,0,3:0:0:0:
376,232,586,1,0,3:0:0:0:
352,280,677,1,0,3:0:0:0:
312,280,767,1,4,3:2:0:0:
128,168,1131,5,6,0:1:0:0:
328,144,1495,1,10,1:0:0:0:
152,64,1858,1,2,0:1:0:0:
112,128,2040,1,2,0:0:0:0:
152,192,2222,1,10,0:1:0:0:
320,200,2404,5,6,1:0:0:0:
168,200,2767,1,2,1:0:0:0:
240,128,3131,1,2,1:0:0:0:
88,96,3313,1,2,0:0:0:0:
56,136,3495,1,2,1:0:0:0:
88,184,3677,1,10,1:0:0:0:
384,176,4040,5,6,1:0:0:0:
184,168,4404,1,10,1:0:0:0:
336,56,4767,1,2,1:0:0:0:
392,56,4949,1,0,1:0:0:0:
344,168,5131,1,10,1:0:0:0:
160,176,5313,5,2,1:0:0:0:
312,208,5677,1,2,1:0:0:0:
160,248,6040,1,2,1:0:0:0:
384,216,6404,1,4,1:2:0:0:
416,160,6586,1,0,3:0:0:0:
384,96,6767,1,0,3:0:0:0:
200,96,6949,6,0,P|152:168|200:256,1,190,6|8,0:0|0:0,0:0:0:0:
384,80,7677,1,2,0:0:0:0:
424,120,7858,1,2,0:0:0:0:
384,160,8040,1,8,0:0:0:0:
240,248,8222,6,0,P|192:184|248:104,1,190,6|0,0:0|0:0,0:0:0:0:
296,152,8767,1,8,0:0:0:0:
392,240,8949,2,0,P|440:176|408:72,1,190,6|0,0:0|0:0,0:0:0:0:
360,72,9495,1,8,0:0:0:0:
104,168,9858,5,4,0:0:0:0:
296,184,10222,1,8,0:0:0:0:
144,248,10586,1,2,0:0:0:0:
80,208,10767,1,0,0:0:0:0:
144,176,10949,1,8,0:0:0:0:
328,224,11131,6,0,P|400:168|352:104,1,190,6|0,0:0|0:0,0:0:0:0:
288,80,11677,1,8,0:0:0:0:
216,72,11858,1,0,0:0:0:0:
120,64,12040,1,2,3:2:0:0:
64,112,12222,1,0,3:0:0:0:
120,168,12404,1,0,3:0:0:0:
272,216,12767,5,6,0:0:0:0:
336,176,12949,1,0,0:0:0:0:
336,144,13131,1,8,0:0:0:0:
288,80,13313,1,0,0:0:0:0:
160,80,13495,2,0,P|112:152|168:224,1,190,2|8,0:0|0:0,0:0:0:0:
352,240,14040,6,0,P|360:152|296:80,1,190,6|0,0:0|0:0,0:0:0:0:
264,64,14586,1,8,0:0:0:0:
208,56,14767,1,0,0:0:0:0:
64,56,14949,2,0,P|16:128|72:200,1,190,2|8,0:0|0:0,0:0:0:0:
296,160,15677,5,6,0:0:0:0:
368,120,15858,1,0,0:0:0:0:
368,192,16040,1,8,0:0:0:0:
328,200,16222,1,0,0:0:0:0:
192,96,16404,1,2,0:0:0:0:
160,160,16586,1,0,0:0:0:0:
192,224,16767,1,8,0:0:0:0:
344,224,16949,6,0,P|408:176|352:104,1,190,6|0,0:0|0:0,0:0:0:0:
280,96,17495,1,10,0:0:0:0:
312,48,17677,1,0,0:0:0:0:
448,56,17858,2,0,P|496:128|440:200,1,190,2|8,0:0|0:0,0:0:0:0:
224,216,18586,5,6,0:0:0:0:
160,176,18768,1,0,0:0:0:0:
160,144,18950,1,8,0:0:0:0:
208,80,19132,1,0,0:0:0:0:
336,80,19314,2,0,P|384:152|328:224,1,190,2|8,0:0|0:0,0:0:0:0:
144,240,19859,6,0,P|136:152|200:80,1,190,6|0,0:0|0:0,0:0:0:0:
232,64,20405,1,8,0:0:0:0:
288,56,20586,1,0,0:0:0:0:
432,56,20768,2,0,P|480:128|424:200,1,190,2|8,0:0|0:0,0:0:0:0:
184,152,21495,5,6,0:0:0:0:
144,80,21677,1,0,0:0:0:0:
168,48,21858,1,8,0:0:0:0:
216,88,22040,1,2,0:0:0:0:
376,96,22222,1,6,0:0:0:0:
400,136,22404,1,0,0:0:0:0:
376,184,22586,1,8,0:0:0:0:
200,184,22767,5,2,0:0:0:0:
376,128,23131,2,0,P|296:136|232:56,1,190,2|2,0:0|0:0,0:0:0:0:
408,256,23677,6,0,P|432:216|424:168,1,95,4|0,3:0|3:0,0:0:0:0:
376,128,24040,1,4,3:2:0:0:
72,248,24404,6,0,P|72:176|168:128,1,190,6|8,0:0|0:0,0:0:0:0:
120,200,24949,1,0,0:0:0:0:
272,216,25131,1,2,0:0:0:0:
296,192,25313,1,0,0:0:0:0:
272,168,25495,1,8,0:0:0:0:
144,152,25677,6,0,P|160:80|264:56,1,190,6|0,0:0|0:0,0:0:0:0:
288,72,26222,1,8,0:0:0:0:
56,144,26586,1,2,0:0:0:0:
32,112,26767,1,0,0:0:0:0:
56,88,26949,1,8,0:0:0:0:
360,216,27313,6,0,P|360:144|264:96,1,190,2|8,0:0|0:0,0:0:0:0:
312,168,27858,1,0,0:0:0:0:
160,184,28040,1,2,0:0:0:0:
136,160,28222,1,0,0:0:0:0:
160,136,28404,1,8,0:0:0:0:
328,240,28586,6,0,P|368:176|312:88,1,190,6|0,0:0|0:0,0:0:0:0:
160,80,29131,1,10,0:0:0:0:
144,128,29313,1,0,0:0:0:0:
320,80,29495,1,2,0:0:0:0:
192,88,29858,1,8,0:0:0:0:
440,248,30222,6,0,P|440:176|344:128,1,190,6|8,0:0|0:0,0:0:0:0:
392,200,30767,1,0,0:0:0:0:
240,216,30949,1,2,0:0:0:0:
216,192,31131,1,0,0:0:0:0:
240,168,31313,1,8,0:0:0:0:
368,152,31495,6,0,P|352:80|248:56,1,190,6|0,0:0|0:0,0:0:0:0:
224,72,32040,1,8,0:0:0:0:
456,144,32404,1,2,0:0:0:0:
480,112,32585,1,0,0:0:0:0:
456,88,32767,1,8,0:0:0:0:
272,184,32949,6,0,P|256:104|344:88,1,190,6|0,0:0|0:0,0:0:0:0:
384,136,33495,1,8,0:0:0:0:
344,176,33677,1,0,0:0:0:0:
176,112,33858,1,2,0:0:0:0:
144,176,34040,1,0,0:0:0:0:
176,232,34222,1,8,0:0:0:0:
352,136,34404,1,0,1:0:0:0:
208,112,34767,1,0,1:0:0:0:
360,96,35131,1,0,1:0:0:0:
175,263,35313,6,0,P|151:223|143:175,1,95,2|0,3:2|3:0,0:0:0:0:
143,79,35677,1,4,0:0:0:0:
384,216,36040,6,0,L|440:136,1,95,6|0,0:0|0:0,0:0:0:0:
432,80,36404,1,8,0:0:0:0:
384,64,36586,1,2,0:0:0:0:
240,184,36767,1,0,0:0:0:0:
184,136,36949,1,0,0:0:0:0:
240,80,37131,1,8,0:0:0:0:
424,72,37313,6,0,P|464:184|432:240,1,190,2|2,0:3|0:0,0:0:0:0:
376,256,37858,1,8,0:0:0:0:
104,216,38222,2,0,P|64:144|112:56,1,190,2|8,0:0|0:0,0:0:0:0:
336,104,38949,5,2,0:0:0:0:
368,144,39131,1,0,0:0:0:0:
336,176,39313,1,8,0:0:0:0:
176,168,39495,1,0,0:0:0:0:
304,168,39858,1,0,0:0:0:0:
56,320,40222,6,0,P|24:216|88:56,1,285,2|8,0:3|0:0,0:0:0:0:
392,256,41131,2,0,L|432:168,1,95,2|0,0:0|0:0,0:0:0:0:
384,136,41495,1,8,0:0:0:0:
128,216,41858,6,0,L|72:136,1,95,6|0,0:0|0:0,0:0:0:0:
80,80,42222,1,8,0:0:0:0:
128,64,42404,1,2,0:0:0:0:
272,184,42585,1,2,0:0:0:0:
328,136,42767,1,0,0:0:0:0:
272,80,42949,1,8,0:0:0:0:
88,72,43131,6,0,P|48:184|80:240,1,190,2|2,0:3|0:0,0:0:0:0:
136,256,43676,1,8,0:0:0:0:
408,216,44040,2,0,P|448:144|400:56,1,190,2|8,0:0|0:0,0:0:0:0:
144,88,44767,5,2,0:0:0:0:
112,128,44949,1,0,0:0:0:0:
144,160,45131,1,8,0:0:0:0:
320,208,45313,2,0,P|392:160|376:64,1,190,0|0,0:0|0:0,0:0:0:0:
328,64,45858,1,8,0:0:0:0:
144,200,46040,5,4,0:0:0:0:
272,200,46404,1,0,0:0:0:0:
152,64,46767,1,0,0:0:0:0:
336,56,46949,1,2,3:2:0:0:
392,144,47131,1,0,3:0:0:0:
352,248,47313,1,4,3:0:0:0:
120,280,47677,6,0,P|64:216|112:136,1,190,6|8,0:0|0:0,0:0:0:0:
288,112,48222,1,0,0:0:0:0:
136,192,48586,1,0,0:0:0:0:
392,192,48949,6,0,P|432:144|368:48,1,190,4|0,0:0|0:0,0:0:0:0:
240,24,49495,2,0,P|168:96|136:176,1,190,8|2,0:0|0:0,0:0:0:0:
136,240,50040,1,0,0:0:0:0:
184,288,50222,1,8,0:0:0:0:
256,304,50404,1,0,0:0:0:0:
392,280,50586,6,0,P|448:216|400:136,1,190,2|8,0:0|0:0,0:0:0:0:
224,112,51131,1,0,0:0:0:0:
376,192,51495,1,0,0:0:0:0:
120,232,51858,6,0,P|80:184|144:88,1,190,4|0,0:0|0:0,0:0:0:0:
272,80,52404,1,8,0:0:0:0:
120,112,52767,1,8,0:3:0:0:
80,160,52949,1,0,0:3:0:0:
128,208,53131,1,8,0:3:0:0:
416,208,53495,6,0,P|464:144|400:72,1,190,6|0,0:0|0:0,0:0:0:0:
208,56,54222,1,8,0:0:0:0:
160,72,54404,1,0,0:0:0:0:
280,112,54586,1,0,0:0:0:0:
328,144,54767,1,0,0:0:0:0:
184,264,54949,6,0,P|152:176|168:80,1,190,0|0,0:0|0:0,0:0:0:0:
344,264,55677,2,0,P|376:176|360:80,1,190,8|8,0:0|0:0,0:0:0:0:
88,224,56404,6,0,P|80:152|152:64,1,190,4|8,0:0|0:0,0:0:0:0:
344,64,57131,1,8,0:0:0:0:
296,128,57313,1,0,0:0:0:0:
144,104,57495,1,8,0:0:0:0:
120,176,57677,1,4,0:0:0:0:
296,80,57858,6,0,P|256:176|192:232,1,190,8|8,0:0|0:3,0:0:0:0:
200,168,58404,1,0,0:0:0:0:
368,112,58586,1,8,0:3:0:0:
176,208,58949,1,8,0:3:0:0:
384,232,59313,5,8,0:0:0:0:
256,232,59677,1,0,0:0:0:0:
400,224,60040,1,0,0:0:0:0:
216,88,60404,1,0,0:0:0:0:
392,128,60586,5,2,0:3:0:0:
208,128,60949,1,2,0:3:0:0:
320,128,61313,1,0,0:0:0:0:
144,40,61495,5,8,3:3:0:0:
104,88,61586,1,0,3:0:0:0:
80,136,61677,1,0,3:0:0:0:
64,192,61767,1,0,3:0:0:0:
64,176,61858,1,0,3:0:0:0:
80,232,61949,1,0,3:0:0:0:
104,280,62040,1,0,3:0:0:0:
272,216,62222,5,6,0:0:0:0:
336,176,62404,1,0,0:0:0:0:
336,144,62586,1,8,0:0:0:0:
288,80,62768,1,0,0:0:0:0:
160,80,62950,2,0,P|112:152|168:224,1,190,2|8,0:0|0:0,0:0:0:0:
352,240,63495,6,0,P|360:152|296:80,1,190,6|0,0:0|0:0,0:0:0:0:
264,64,64041,1,8,0:0:0:0:
208,56,64222,1,0,0:0:0:0:
64,56,64404,2,0,P|16:128|72:200,1,190,2|8,0:0|0:0,0:0:0:0:
296,160,65132,5,2,0:0:0:0:
368,120,65313,1,0,0:0:0:0:
368,192,65495,1,8,0:0:0:0:
328,200,65677,1,0,0:0:0:0:
192,96,65859,1,2,0:0:0:0:
160,160,66041,1,0,0:0:0:0:
192,224,66222,1,8,0:0:0:0:
352,224,66404,6,0,P|416:176|360:104,1,190,6|0,0:0|0:0,0:0:0:0:
208,104,66950,1,10,0:0:0:0:
264,56,67132,1,0,0:0:0:0:
448,56,67313,2,0,P|496:128|440:200,1,190,2|8,0:0|0:0,0:0:0:0:
224,216,68041,5,6,0:0:0:0:
160,176,68223,1,0,0:0:0:0:
160,144,68405,1,8,0:0:0:0:
208,80,68587,1,0,0:0:0:0:
336,80,68767,2,0,P|384:152|328:224,1,190,2|8,0:0|0:0,0:0:0:0:
176,240,69314,6,0,P|168:152|232:80,1,190,6|0,0:0|0:0,0:0:0:0:
264,64,69858,1,8,0:0:0:0:
320,56,70041,1,0,0:0:0:0:
432,56,70223,6,0,P|480:128|424:200,1,190,2|8,0:0|0:0,0:0:0:0:
176,200,70949,5,4,0:0:0:0:
160,152,71131,1,0,0:0:0:0:
144,96,71313,1,8,0:0:0:0:
128,56,71495,1,2,0:0:0:0:
304,192,71677,1,2,0:0:0:0:
320,136,71858,1,0,0:0:0:0:
336,88,72040,1,8,0:0:0:0:
152,208,72222,5,6,0:0:0:0:
320,200,72586,1,0,0:0:0:0:
152,128,72949,1,2,0:0:0:0:
336,312,73131,6,0,P|384:288|408:256,1,95,6|0,0:0|3:0,0:0:0:0:
440,216,73404,1,0,3:0:0:0:
448,176,73495,1,0,3:0:0:0:
400,72,73677,1,0,3:0:0:0:
240,216,73858,5,6,0:0:0:0:
176,176,74040,1,0,0:0:0:0:
176,144,74222,1,8,0:0:0:0:
224,80,74404,1,0,0:0:0:0:
352,80,74586,2,0,P|400:152|344:224,1,190,2|8,0:0|0:0,0:0:0:0:
160,240,75131,6,0,P|152:152|216:80,1,190,6|0,0:0|0:0,0:0:0:0:
248,64,75677,1,8,0:0:0:0:
304,56,75858,1,0,0:0:0:0:
448,56,76040,2,0,P|496:128|440:200,1,190,2|8,0:0|0:0,0:0:0:0:
216,160,76768,5,2,0:0:0:0:
144,120,76949,1,0,0:0:0:0:
144,192,77131,1,8,0:0:0:0:
184,200,77313,1,0,0:0:0:0:
320,96,77495,1,2,0:0:0:0:
352,160,77677,1,0,0:0:0:0:
320,224,77858,1,8,0:0:0:0:
160,224,78040,6,0,P|96:176|152:104,1,190,4|0,0:0|0:0,0:0:0:0:
304,104,78586,1,10,0:0:0:0:
248,56,78768,1,0,0:0:0:0:
64,56,78949,2,0,P|16:128|72:200,1,190,2|8,0:0|0:0,0:0:0:0:
288,216,79677,5,6,0:0:0:0:
352,176,79859,1,0,0:0:0:0:
352,144,80041,1,8,0:0:0:0:
304,80,80223,1,0,0:0:0:0:
176,80,80405,2,0,P|128:152|184:224,1,190,2|0,0:0|0:0,0:0:0:0:
360,240,80950,6,0,P|368:152|304:80,1,190,6|0,0:0|0:0,0:0:0:0:
168,64,81496,1,8,0:0:0:0:
224,56,81677,1,0,0:0:0:0:
400,56,81859,2,0,P|448:128|392:200,1,190,2|8,0:0|0:0,0:0:0:0:
152,152,82586,5,2,0:0:0:0:
112,80,82768,1,0,0:0:0:0:
136,48,82949,1,8,0:0:0:0:
184,88,83131,1,2,0:0:0:0:
344,96,83313,1,2,0:0:0:0:
368,136,83495,1,0,0:0:0:0:
344,184,83677,1,8,0:0:0:0:
160,184,83858,5,6,0:0:0:0:
320,128,84222,1,0,1:0:0:0:
168,120,84586,1,2,0:0:0:0:
344,248,84768,6,0,P|376:216|392:168,1,95,6|0,0:0|3:0,0:0:0:0:
408,128,85040,1,0,3:0:0:0:
392,88,85131,1,0,3:0:0:0:
120,192,85495,5,6,0:0:0:0:
136,144,85677,1,0,0:0:0:0:
152,96,85858,1,2,0:0:0:0:
176,64,86040,1,0,0:0:0:0:
328,104,86222,1,4,0:3:0:0:
304,160,86404,1,0,0:0:0:0:
280,200,86586,1,2,0:0:0:0:
136,240,86767,5,6,0:0:0:0:
64,152,87131,1,0,1:0:0:0:
248,56,87313,1,2,0:0:0:0:
256,96,87495,1,0,1:0:0:0:
264,144,87677,1,6,1:2:0:0:
