osu file format v14

[General]
AudioFilename: audio.mp3
AudioLeadIn: 0
PreviewTime: -1
Countdown: 1
SampleSet: Normal
StackLeniency: 0.7
Mode: 0
LetterboxInBreaks: 0
WidescreenStoryboard: 0

[Editor]
Bookmarks: 4803,5894,25167,27530,30975,63884,148975,156793
DistanceSpacing: 1
BeatDivisor: 4
GridSize: 4
TimelineZoom: 1.900006

[Metadata]
Title:SAKURA SKIP
TitleUnicode:SAKURAスキップ
Artist:fourfolium
ArtistUnicode:fourfolium
Creator:Bukkake Blast
Version:Insane
Source:New Game!
Tags:New game Aoba is cute Hifumi is cute Yun is cute krkr ilsytomatosnake Bukkake Blast Wings Gaming
BeatmapID:1066527
BeatmapSetID:501124

[Difficulty]
HPDrainRate:7
CircleSize:4
OverallDifficulty:8
ApproachRate:9
SliderMultiplier:1.6
SliderTickRate:1

[Events]
//Background and Video events
//Break Periods
2,147538,156738
//Storyboard Layer 0 (Background)
//Storyboard Layer 1 (Fail)
//Storyboard Layer 2 (Pass)
//Storyboard Layer 3 (Foreground)
//Storyboard Sound Samples

[TimingPoints]
1157,363.636363636364,4,1,0,70,1,0
6247,-100,4,2,0,5,0,0
6429,-100,4,1,0,70,0,0
8247,-100,4,2,0,5,0,0
8429,-133.333333333333,4,1,0,70,0,0
8520,-133.333333333333,4,2,0,5,0,0
8611,-133.333333333333,4,1,0,70,0,0
8702,-133.333333333333,4,2,0,5,0,0
8793,-133.333333333333,4,1,0,70,0,0
9429,-133.333333333333,4,2,0,5,0,0
9520,-133.333333333333,4,1,0,70,0,0
9611,-133.333333333333,4,2,0,5,0,0
9702,-133.333333333333,4,1,0,70,0,0
9793,-133.333333333333,4,2,0,5,0,0
10066,-100,4,1,0,40,0,0
10611,-133.333333333333,4,1,0,70,0,0
10793,-133.333333333333,4,2,0,5,0,0
10975,-133.333333333333,4,1,0,70,0,0
11157,-133.333333333333,4,2,0,5,0,0
11338,-133.333333333333,4,1,0,70,0,0
13520,-100,4,1,0,70,0,0
14975,-100,4,1,0,5,0,0
15157,-100,4,1,0,70,0,0
16429,-100,4,1,0,5,0,0
16611,-100,4,1,0,70,0,0
17884,-100,4,1,0,5,0,0
18066,-100,4,1,0,70,0,0
18975,-66.6666666666667,4,1,0,70,0,0
19066,-66.6666666666667,4,1,0,5,0,0
19157,-100,4,1,0,70,0,0
19338,-100,4,1,0,5,0,0
19520,-100,4,1,0,70,0,0
20793,-100,4,1,0,5,0,0
20975,-100,4,1,0,70,0,0
22247,-100,4,1,0,5,0,0
22429,-100,4,1,0,70,0,0
23520,-133.333333333333,4,1,0,70,0,0
23702,-133.333333333333,4,2,0,5,0,0
23884,-100,4,1,0,70,0,0
24247,-100,4,2,0,5,0,0
24429,-66.6666666666667,4,1,0,70,0,0
24520,-66.6666666666667,4,2,0,5,0,0
25157,-100,4,1,0,70,0,0
26429,-133.333333333333,4,1,0,70,0,0
27338,-66.6666666666667,4,1,0,70,0,0
27429,-66.6666666666667,4,2,0,5,0,0
27702,-100,4,1,0,70,0,0
28066,-100,4,1,0,70,0,0
29338,-66.6666666666667,4,1,0,70,0,0
29884,-100,4,1,0,70,0,0
30702,-100,4,1,0,40,0,0
30884,-100,4,1,0,70,0,0
33157,-66.6666666666667,4,1,0,70,0,0
33247,-66.6666666666667,4,2,0,5,0,0
33520,-100,4,1,0,40,0,0
33702,-100,4,1,0,70,0,0
35338,-100,4,2,0,5,0,0
35520,-200,4,1,0,70,0,0
36066,-50,4,1,0,70,0,0
36793,-100,4,1,0,70,0,0
38247,-100,4,2,0,5,0,0
38429,-100,4,1,0,70,0,0
39429,-100,4,1,0,40,0,0
39702,-100,4,1,0,70,0,0
41338,-100,4,2,0,5,0,0
41520,-100,4,1,0,70,0,0
41793,-100,4,2,0,5,0,0
41884,-100,4,1,0,70,0,0
42157,-100,4,2,0,5,0,0
42247,-100,4,1,0,70,0,0
47247,-100,4,1,0,30,0,0
47429,-100,4,1,0,70,0,0
48247,-100,4,2,0,5,0,0
48429,-100,4,1,0,70,0,0
54247,-133.333333333333,4,1,0,70,0,0
55884,-133.333333333333,4,2,0,5,0,0
56066,-133.333333333333,4,1,0,70,0,0
60066,-133.333333333333,4,1,0,50,0,0
61793,-133.333333333333,4,2,0,5,0,0
61975,-133.333333333333,4,1,0,70,0,0
62793,-100,4,1,0,70,0,0
64247,-100,4,1,0,70,0,0
64429,-100,4,2,0,5,0,0
64611,-100,4,1,0,70,0,0
65884,-100,4,2,0,5,0,0
66066,-100,4,1,0,70,0,0
66793,-100,4,2,0,5,0,0
66975,-100,4,1,0,70,0,0
67338,-100,4,2,0,5,0,0
67520,-100,4,1,0,70,0,0
68247,-100,4,2,0,5,0,0
68429,-66.6666666666667,4,1,0,70,0,0
68520,-100,4,2,0,5,0,0
68611,-100,4,1,0,70,0,0
70247,-100,4,2,0,5,0,0
70429,-100,4,1,0,70,0,0
71702,-100,4,2,0,5,0,0
71884,-100,4,1,0,70,0,0
73157,-100,4,2,0,5,0,0
73338,-133.333333333333,4,1,0,70,0,0
73520,-133.333333333333,4,2,0,5,0,0
73702,-83.3333333333333,4,1,0,70,0,0
73884,-133.333333333333,4,1,0,70,0,0
74429,-100,4,1,0,70,0,0
77520,-100,4,2,0,5,0,0
77702,-100,4,1,0,70,0,0
78793,-133.333333333333,4,1,0,70,0,0
78975,-133.333333333333,4,2,0,5,0,0
79157,-66.6666666666667,4,1,0,70,0,0
79702,-133.333333333333,4,1,0,70,0,0
79884,-133.333333333333,4,2,0,5,0,0
80066,-66.6666666666667,4,1,0,70,0,0
80429,-100,4,1,0,70,0,0
81338,-100,4,2,0,5,0,0
81520,-100,4,1,0,70,0,0
81884,-100,4,2,0,5,0,0
82066,-100,4,1,0,70,0,0
83338,-100,4,2,0,5,0,0
83520,-100,4,1,0,70,0,0
84611,-133.333333333333,4,1,0,70,0,0
84793,-133.333333333333,4,2,0,5,0,0
84975,-100,4,1,0,70,0,0
85429,-133.333333333333,4,1,0,70,0,0
85702,-100,4,1,0,50,0,0
86247,-100,4,1,0,70,0,0
87884,-100,4,2,0,5,0,0
88066,-100,4,1,0,70,0,0
88429,-66.6666666666667,4,1,0,70,0,0
88611,-100,4,1,0,70,0,0
90429,-200,4,1,0,70,0,0
90975,-100,4,1,0,70,0,0
94247,-66.6666666666667,4,1,0,70,0,0
94338,-100,4,2,0,5,0,0
94520,-100,4,1,0,70,0,0
94975,-100,4,2,0,5,0,0
95157,-133.333333333333,4,1,0,70,0,0
96429,-133.333333333333,4,2,0,5,0,0
96611,-133.333333333333,4,1,0,70,0,0
96793,-133.333333333333,4,2,0,5,0,0
96975,-100,4,1,0,70,0,0
97066,-100,4,2,0,5,0,0
97157,-100,4,1,0,70,0,0
99338,-100,4,2,0,5,0,0
99520,-100,4,1,0,70,0,0
100157,-100,4,1,0,40,0,0
100793,-100,4,1,0,60,0,0
102066,-133.333333333333,4,1,0,70,0,0
102429,-133.333333333333,4,2,0,5,0,0
102611,-133.333333333333,4,1,0,70,0,0
102793,-133.333333333333,4,2,0,5,0,0
102975,-133.333333333333,4,1,0,70,0,0
107338,-133.333333333333,4,2,0,5,0,0
107520,-133.333333333333,4,1,0,70,0,0
108066,-133.333333333333,4,2,0,5,0,0
108247,-133.333333333333,4,1,0,70,0,0
108429,-133.333333333333,4,2,0,5,0,0
108611,-133.333333333333,4,1,0,70,0,0
109520,-100,4,1,0,70,0,0
111611,-100,4,1,0,5,0,0
111793,-100,4,1,0,70,0,0
114066,-100,4,1,0,5,0,0
114247,-100,4,1,0,70,0,0
114429,-100,4,1,0,5,0,0
114611,-100,4,1,0,70,0,0
116975,-100,4,1,0,5,0,0
117157,-100,4,1,0,70,0,0
117338,-100,4,1,0,5,0,0
117520,-100,4,1,0,70,0,0
117702,-100,4,1,0,5,0,0
117884,-100,4,1,0,70,0,0
118066,-100,4,1,0,5,0,0
118247,-100,4,1,0,70,0,0
122429,-200,4,1,0,70,0,0
123884,-83.3333333333333,4,1,0,70,0,0
127884,-133.333333333333,4,1,0,70,0,0
128066,-133.333333333333,4,2,0,5,0,0
128247,-83.3333333333333,4,1,0,70,0,0
129338,-83.3333333333333,4,2,0,5,0,0
129520,-50,4,1,0,70,0,0
129702,-83.3333333333333,4,1,0,70,0,0
132611,-133.333333333333,4,1,0,70,0,0
134247,-133.333333333333,4,2,0,5,0,0
134429,-100,4,1,0,70,0,0
134793,-100,4,1,0,5,0,0
134975,-66.6666666666667,4,1,0,70,0,0
135247,-83.3333333333333,4,1,0,70,0,0
135702,-83.3333333333333,4,2,0,5,0,0
135884,-83.3333333333333,4,1,0,70,0,0
139884,-133.333333333333,4,1,0,70,0,0
141702,-83.3333333333333,4,1,0,70,0,0
142793,-133.333333333333,4,1,0,70,0,0
145702,-200,4,1,0,70,0,0
147338,-100,4,1,0,70,0,0
158520,-83.3333333333333,4,1,0,20,0,0
158975,-100,4,1,0,70,0,0
159793,-100,4,1,0,5,0,0
159884,-100,4,1,0,70,0,0
159975,-100,4,1,0,5,0,0
160066,-100,4,1,0,70,0,0
160157,-100,4,1,0,5,0,0
160247,-100,4,1,0,70,0,0
161247,-100,4,1,0,5,0,0
161338,-100,4,1,0,70,0,0
161429,-100,4,1,0,5,0,0
161520,-100,4,1,0,70,0,0
161611,-100,4,1,0,5,0,0
161702,-100,4,1,0,70,0,0
163793,-100,4,1,0,5,0,0
163884,-100,4,1,0,70,0,0
163975,-100,4,1,0,5,0,0
164066,-100,4,1,0,70,0,0
166338,-100,4,1,0,5,0,0
166429,-100,4,1,0,70,0,0
167157,-100,4,1,0,50,0,0
173338,-133.333333333333,4,1,0,60,0,0
176611,-133.333333333333,4,2,0,5,0,0
176793,-133.333333333333,4,1,0,60,0,0
177338,-133.333333333333,4,2,0,5,0,0
177520,-133.333333333333,4,1,0,60,0,0
180247,-133.333333333333,4,2,0,5,0,0
180429,-133.333333333333,4,1,0,60,0,0
182066,-100,4,1,0,70,0,0
188247,-83.3333333333333,4,1,0,70,0,0
188975,-83.3333333333333,4,2,0,5,0,0
189157,-83.3333333333333,4,1,0,70,0,0
192066,-133.333333333333,4,1,0,70,0,0
192429,-133.333333333333,4,2,0,5,0,0
192611,-83.3333333333333,4,1,0,70,0,0
193611,-83.3333333333333,4,2,0,5,0,0
193702,-83.3333333333333,4,1,0,70,0,0
196611,-133.333333333333,4,1,0,50,0,0
198066,-133.333333333333,4,1,0,70,0,0
198247,-133.333333333333,4,2,0,5,0,0
198429,-83.3333333333333,4,1,0,70,0,0
198611,-83.3333333333333,4,2,0,5,0,0
198793,-133.333333333333,4,1,0,70,0,0
198975,-83.3333333333333,4,1,0,70,0,0
202066,-83.3333333333333,4,1,0,50,0,0
202429,-83.3333333333333,4,1,0,70,0,0
203884,-133.333333333333,4,1,0,70,0,0
204066,-133.333333333333,4,2,0,5,0,0
204247,-83.3333333333333,4,1,0,70,0,0
205247,-83.3333333333333,4,2,0,5,0,0
205338,-83.3333333333333,4,1,0,70,0,0
208247,-133.333333333333,4,1,0,70,0,0
209884,-133.333333333333,4,2,0,5,0,0
210066,-133.333333333333,4,1,0,70,0,0
210611,-83.3333333333333,4,1,0,70,0,0
211338,-100,4,1,0,70,0,0
213520,-66.6666666666667,4,1,0,70,0,0
214066,-100,4,1,0,70,0,0
215702,-100,4,2,0,5,0,0
215884,-100,4,1,0,70,0,0
219338,-66.6666666666667,4,1,0,70,0,0
219884,-100,4,1,0,70,0,0
220066,-100,4,2,0,5,0,0
220247,-100,4,1,0,70,0,0
223520,-100,4,1,0,40,0,0
223884,-100,4,1,0,70,0,0
225793,-100,4,2,0,5,0,0

[HitObjects]
194,128,1157,5,0,0:0:0:0:
194,128,1248,1,0,0:0:0:0:
194,128,1339,1,0,0:0:0:0:
194,128,1521,1,0,0:0:0:0:
314,179,1702,1,0,0:0:0:0:
314,179,1793,1,0,0:0:0:0:
314,179,1884,1,2,0:0:0:0:
166,281,2247,1,0,0:0:0:0:
359,283,2611,5,2,0:0:0:0:
432,191,2793,1,0,0:0:0:0:
359,109,2975,1,2,0:0:0:0:
229,240,3157,5,0,0:0:0:0:
132,108,3520,1,0,0:0:0:0:
289,189,3702,1,4,0:0:0:0:
289,189,3884,1,2,0:0:0:0:
289,189,3975,1,0,0:0:0:0:
289,189,4066,1,0,0:0:0:0:
132,108,4247,1,2,0:0:0:0:
322,113,4429,1,2,0:0:0:0:
146,294,4793,6,0,P|151:240|172:185,1,80,2|0,0:0|0:0,0:0:0:0:
236,259,5157,2,0,P|256:212|295:167,1,80,2|0,0:0|0:0,0:0:0:0:
324,254,5520,2,2,P|350:211|392:171,2,80
461,181,6066,6,0,P|434:128|378:89,1,120
341,76,6429,2,0,P|256:71|182:116,2,160
282,175,7338,5,0,0:0:0:0:
263,232,7429,1,0,0:0:0:0:
220,274,7520,1,0,0:0:0:0:
160,284,7612,1,0,0:0:0:0:
101,275,7702,2,0,B|55:204|176:173|176:173|271:52,1,280
295,179,8429,6,0,L|326:145,1,30.0000011444092
357,229,8611,2,0,L|403:204,1,30.0000011444092
395,137,8793,2,0,L|457:95,1,60.0000022888184
254,76,9338,6,0,L|244:122,1,30.0000011444092
124,95,9520,2,0,L|94:132,1,30.0000011444092
167,225,9702,2,0,L|217:210,1,30.0000011444092
73,270,10066,5,0,0:0:0:0:
73,270,10247,1,0,0:0:0:0:
73,270,10429,1,0,0:0:0:0:
165,52,10611,6,0,P|206:80|236:121,1,90.0000034332277
154,141,10975,2,0,P|174:189|177:243,1,90.0000034332277
154,272,11338,1,0,0:0:0:0:
272,329,11520,1,0,0:0:0:0:
367,223,11702,1,0,0:0:0:0:
457,107,11884,2,0,P|404:79|328:61,1,120.000004577637
187,179,12429,5,0,0:0:0:0:
318,275,12611,1,0,0:0:0:0:
236,89,12793,1,0,0:0:0:0:
195,70,12884,1,0,0:0:0:0:
150,76,12975,1,0,0:0:0:0:
115,104,13066,1,0,0:0:0:0:
97,145,13157,1,0,0:0:0:0:
108,188,13247,1,0,0:0:0:0:
130,227,13338,1,0,0:0:0:0:
270,183,13520,6,0,P|315:195|374:180,1,80
456,152,13884,1,0,0:0:0:0:
456,152,14066,1,0,0:0:0:0:
347,191,14247,6,0,P|306:195|254:171,1,80
205,68,14611,1,0,0:0:0:0:
269,182,14793,2,0,P|257:249|202:311,1,120
165,328,15157,1,0,0:0:0:0:
72,232,15338,2,0,P|73:184|98:148,1,80
205,68,15702,1,0,0:0:0:0:
414,273,15884,6,0,L|390:230,1,40
339,136,16066,1,0,0:0:0:0:
241,270,16247,2,0,P|201:209|143:212,1,120
86,236,16611,1,0,0:0:0:0:
83,336,16793,1,0,0:0:0:0:
241,270,16975,1,0,0:0:0:0:
293,139,17157,2,0,P|267:89|241:69,2,80
241,270,17702,6,0,P|210:297|131:296,1,120
77,255,18066,1,0,0:0:0:0:
231,91,18247,1,0,0:0:0:0:
49,180,18429,1,0,0:0:0:0:
49,180,18520,1,0,0:0:0:0:
49,180,18611,1,0,0:0:0:0:
177,36,18793,1,0,0:0:0:0:
282,146,18975,2,0,P|315:184|356:198,1,60.0000022888184
423,210,19157,6,0,P|411:284|372:329,1,120
296,318,19520,2,0,P|252:304|217:273,1,80
166,165,19884,1,0,0:0:0:0:
257,43,20066,2,0,P|316:34|364:43,2,80
166,165,20611,6,0,P|226:209|291:216,1,120
345,170,20975,1,0,0:0:0:0:
255,40,21157,1,0,0:0:0:0:
166,165,21338,1,0,0:0:0:0:
166,165,21429,1,0,0:0:0:0:
166,165,21520,2,0,P|191:255|253:313,1,160
345,170,22066,6,0,P|288:137|221:112,1,120
172,92,22429,2,0,P|114:117|101:134,1,80
38,264,22793,1,0,0:0:0:0:
172,92,22975,1,0,0:0:0:0:
177,283,23157,1,0,0:0:0:0:
237,117,23338,1,0,0:0:0:0:
332,301,23520,6,0,P|375:279|393:222,1,90.0000034332277
392,166,23884,2,0,P|327:93|230:126,1,200
304,180,24429,2,0,P|287:221|211:255,1,120.000004577637
410,205,25157,6,0,P|418:155|387:100,1,80
320,43,25520,1,0,0:0:0:0:
212,73,25702,1,0,0:0:0:0:
315,190,25884,5,0,0:0:0:0:
149,131,26066,1,0,0:0:0:0:
290,258,26247,1,0,0:0:0:0:
329,115,26429,2,0,P|376:143|386:218,1,120.000004577637
315,190,26975,1,0,0:0:0:0:
142,161,27157,1,0,0:0:0:0:
32,56,27338,2,0,P|55:94|51:175,1,120.000004577637
196,258,27702,5,0,0:0:0:0:
56,243,27884,1,0,0:0:0:0:
142,161,28066,2,0,P|144:106|176:65,1,80
266,149,28429,1,0,0:0:0:0:
346,304,28611,1,0,0:0:0:0:
370,144,28793,1,0,0:0:0:0:
424,205,28975,1,0,0:0:0:0:
327,77,29157,1,0,0:0:0:0:
334,229,29338,6,0,B|290:290|191:139|112:214,1,240.000009155274
71,280,29884,1,0,0:0:0:0:
202,346,30066,1,0,0:0:0:0:
202,346,30247,2,0,P|271:320|310:232,1,160
191,234,30793,1,0,0:0:0:0:
302,79,30975,5,0,0:0:0:0:
372,136,31157,2,0,P|400:175|405:228,1,80
376,305,31520,1,0,0:0:0:0:
376,305,31702,2,0,P|321:338|288:342,1,80
301,239,32066,1,0,0:0:0:0:
239,159,32247,2,0,P|199:132|64:130,1,160
133,233,32793,6,0,P|148:294|186:325,1,80
215,246,33157,2,0,L|338:225,1,120.000004577637
431,207,33520,1,0,0:0:0:0:
228,60,33702,5,0,0:0:0:0:
138,309,34066,1,0,0:0:0:0:
320,84,34247,1,0,0:0:0:0:
101,242,34429,1,0,0:0:0:0:
361,148,34611,1,0,0:0:0:0:
97,168,34793,1,0,0:0:0:0:
367,222,34975,1,0,0:0:0:0:
188,77,35157,6,0,P|215:142|219:202,1,120
245,271,35520,2,0,P|195:273|161:250,1,80
222,189,36066,2,0,B|183:22|148:348|386:71,1,320
334,122,36793,5,0,0:0:0:0:
397,172,36975,1,0,0:0:0:0:
420,245,37157,1,0,0:0:0:0:
242,221,37338,1,0,0:0:0:0:
213,154,37520,1,0,0:0:0:0:
206,79,37702,2,0,P|248:47|305:38,1,80
242,221,38066,6,0,P|200:253|121:258,1,120
163,181,38429,2,0,P|137:143|101:120,1,80
24,89,38793,1,0,0:0:0:0:
47,52,38884,1,0,0:0:0:0:
80,27,38975,2,0,P|149:28|194:39,1,80
259,116,39338,2,0,P|303:73|346:59,1,80
381,203,39702,5,0,0:0:0:0:
247,297,39884,1,0,0:0:0:0:
154,179,40066,1,0,0:0:0:0:
167,108,40247,2,0,P|104:127|94:219,1,160
154,179,40793,1,0,0:0:0:0:
147,252,40975,2,0,P|271:265|336:188,1,200
362,161,41520,2,0,P|345:83|292:52,1,120
275,141,41884,2,0,P|216:108|145:110,1,120
188,189,42247,2,0,P|128:193|90:210,1,80
210,338,42611,5,0,0:0:0:0:
340,278,42793,1,0,0:0:0:0:
188,189,42975,1,0,0:0:0:0:
353,134,43157,1,0,0:0:0:0:
315,111,43247,1,0,0:0:0:0:
275,85,43338,2,0,P|211:60|166:66,1,80
70,116,43702,1,0,0:0:0:0:
353,134,43884,1,0,0:0:0:0:
97,205,44247,6,0,P|123:250|148:266,1,80
181,187,44611,1,0,0:0:0:0:
199,153,44702,1,0,0:0:0:0:
220,114,44793,2,0,P|268:90|359:145,1,160
199,321,45520,6,0,P|162:294|141:245,2,80
273,347,46066,2,0,P|341:330|412:268,1,160
382,214,46611,2,0,P|392:181|377:108,1,80
156,239,47157,6,0,P|134:169|140:141,1,80
265,37,47520,1,0,0:0:0:0:
300,169,47702,1,0,0:0:0:0:
273,204,47793,1,0,0:0:0:0:
261,247,47884,1,0,0:0:0:0:
284,287,47975,1,0,0:0:0:0:
317,312,48066,2,0,P|390:307|427:245,1,120
431,159,48429,6,0,P|426:149|293:42,1,160
176,54,48975,1,0,0:0:0:0:
138,75,49066,1,0,0:0:0:0:
106,93,49157,2,0,P|78:131|66:169,1,80
104,265,49520,2,0,P|195:328|323:319,1,240
230,221,50247,5,0,0:0:0:0:
210,101,50429,1,0,0:0:0:0:
178,75,50520,1,0,0:0:0:0:
130,65,50611,1,0,0:0:0:0:
67,159,50793,5,0,0:0:0:0:
104,265,50975,2,0,P|141:301|171:318,1,80
230,221,51338,2,0,P|192:167|179:70,1,160
285,18,51884,1,0,0:0:0:0:
328,29,51975,1,0,0:0:0:0:
363,62,52066,2,0,P|390:108|394:137,1,80
334,247,52429,1,0,0:0:0:0:
134,93,52611,5,0,0:0:0:0:
334,247,52793,1,0,0:0:0:0:
95,157,52975,5,0,0:0:0:0:
301,312,53157,1,0,0:0:0:0:
76,230,53338,5,0,0:0:0:0:
120,224,53429,1,0,0:0:0:0:
163,198,53520,1,0,0:0:0:0:
193,157,53611,1,0,0:0:0:0:
209,117,53702,1,0,0:0:0:0:
249,91,53793,1,0,0:0:0:0:
299,100,53884,1,0,0:0:0:0:
394,219,54066,5,0,0:0:0:0:
394,219,54247,2,0,P|328:263|221:266,1,180.000006866455
229,268,54975,1,0,0:0:0:0:
188,49,55157,2,0,P|226:65|242:86,2,60.0000022888184
86,166,55702,2,0,P|105:216|156:247,1,90.0000034332277
200,257,56066,2,0,P|259:257|316:230,2,120.000004577637
236,153,56975,1,0,0:0:0:0:
336,66,57157,2,0,P|362:115|361:188,1,120.000004577637
241,303,57793,5,0,0:0:0:0:
196,312,57884,1,0,0:0:0:0:
310,287,58066,5,0,0:0:0:0:
336,66,58247,1,0,0:0:0:0:
363,178,58429,1,0,0:0:0:0:
238,203,58611,1,0,0:0:0:0:
369,57,58793,5,0,0:0:0:0:
336,66,58884,1,0,0:0:0:0:
307,44,58975,1,0,0:0:0:0:
273,32,59066,1,0,0:0:0:0:
237,35,59157,1,0,0:0:0:0:
205,52,59247,1,0,0:0:0:0:
179,77,59338,1,0,0:0:0:0:
161,108,59429,1,0,0:0:0:0:
150,141,59520,2,0,L|139:183,4,30.0000011444092
259,283,60066,5,0,0:0:0:0:
306,229,60247,1,0,0:0:0:0:
252,107,60429,5,0,0:0:0:0:
211,166,60611,1,0,0:0:0:0:
350,169,60793,5,0,0:0:0:0:
396,113,60975,1,0,0:0:0:0:
171,227,61157,5,0,0:0:0:0:
124,281,61338,2,0,P|101:234|131:167,1,120.000004577637
184,130,61793,2,0,P|224:102|286:84,1,90.0000034332277
265,177,62247,5,0,0:0:0:0:
234,196,62338,1,0,0:0:0:0:
212,225,62429,1,0,0:0:0:0:
207,260,62520,1,0,0:0:0:0:
224,291,62611,1,0,0:0:0:0:
250,315,62702,1,0,0:0:0:0:
282,329,62793,6,0,P|313:325|366:300,1,80
418,264,63157,1,0,0:0:0:0:
466,205,63338,1,0,0:0:0:0:
357,305,63520,6,0,P|313:325|269:331,1,80
211,301,63884,2,0,P|185:269|167:195,1,80
180,119,64247,2,0,P|199:86|280:68,1,120
261,149,64611,1,0,0:0:0:0:
319,210,64793,1,0,0:0:0:0:
345,134,64975,1,0,0:0:0:0:
387,164,65066,1,0,0:0:0:0:
402,208,65157,2,0,P|391:253|368:278,1,80
296,312,65520,5,0,0:0:0:0:
214,284,65702,2,0,P|183:255|173:173,1,120
265,205,66066,1,0,0:0:0:0:
306,145,66247,1,0,0:0:0:0:
148,81,66429,1,0,0:0:0:0:
185,53,66520,1,0,0:0:0:0:
224,53,66611,2,0,P|275:57|371:80,1,120
410,106,66975,1,0,0:0:0:0:
117,147,67157,6,0,P|155:190|226:222,1,120
264,218,67520,1,0,0:0:0:0:
410,106,67702,1,0,0:0:0:0:
323,263,67884,1,0,0:0:0:0:
470,149,68066,2,0,P|453:198|405:248,1,120
410,106,68429,2,0,P|368:74|322:58,1,60.0000022888184
291,49,68611,6,0,P|234:44|195:57,1,80
112,95,68975,1,0,0:0:0:0:
112,95,69157,1,0,0:0:0:0:
62,183,69338,1,0,0:0:0:0:
72,224,69429,1,0,0:0:0:0:
107,258,69520,2,0,P|152:281|185:286,1,80
266,273,69884,1,0,0:0:0:0:
339,222,70066,2,0,P|361:183|361:98,1,120
343,57,70429,2,0,P|290:36|261:35,1,80
126,74,70793,5,0,0:0:0:0:
86,104,70884,1,0,0:0:0:0:
63,139,70975,2,0,P|63:195|85:245,1,80
243,174,71338,5,0,0:0:0:0:
284,109,71520,2,0,P|317:151|289:237,1,120
246,255,71884,2,0,P|198:266|159:258,1,80
56,167,72247,1,0,0:0:0:0:
246,50,72429,1,0,0:0:0:0:
120,201,72611,1,0,0:0:0:0:
297,107,72793,1,0,0:0:0:0:
11,104,72975,6,0,P|62:89|123:126,1,120
56,167,73338,2,0,P|50:214|88:266,1,90.0000034332277
150,199,73702,1,0,0:0:0:0:
238,210,73884,2,0,P|287:224|316:238,1,60.0000022888184
325,236,74157,1,0,0:0:0:0:
359,228,74247,1,0,0:0:0:0:
392,213,74338,1,0,0:0:0:0:
426,179,74429,2,0,P|417:123|337:54,1,160
332,151,74975,1,0,0:0:0:0:
239,30,75157,2,0,L|274:69,1,40
332,151,75338,6,0,P|275:156|187:81,1,160
109,142,75884,2,0,P|126:201|83:298,1,160
8,212,76429,1,0,0:0:0:0:
107,141,76611,1,0,0:0:0:0:
144,117,76702,1,0,0:0:0:0:
183,115,76793,2,0,P|203:160|315:198,1,160
279,115,77338,6,0,P|341:122|382:182,1,120
299,202,77702,2,0,P|275:248|241:262,1,80
120,290,78066,1,0,0:0:0:0:
25,158,78247,1,0,0:0:0:0:
177,193,78429,1,0,0:0:0:0:
69,59,78611,1,0,0:0:0:0:
233,144,78793,6,0,P|272:110|323:98,1,90.0000034332277
305,185,79157,2,0,P|334:245|308:325,1,120.000004577637
146,255,79520,1,0,0:0:0:0:
233,144,79702,2,0,P|182:120|127:130,1,90.0000034332277
146,255,80066,2,0,P|199:288|234:291,1,60.0000022888184
240,287,80247,1,0,0:0:0:0:
283,275,80338,1,0,0:0:0:0:
320,256,80429,6,0,P|357:226|367:165,1,80
365,79,80793,1,0,0:0:0:0:
365,84,80975,2,0,L|321:69,1,40
251,44,81157,2,0,P|193:34|116:58,1,120
95,73,81520,1,0,0:0:0:0:
196,133,81702,2,0,P|216:171|207:250,1,120
139,197,82066,2,0,P|124:233|142:296,1,80
206,340,82429,1,0,0:0:0:0:
256,331,82520,1,0,0:0:0:0:
298,311,82611,2,0,P|333:271|345:223,1,80
369,127,82975,1,0,0:0:0:0:
258,20,83157,6,0,P|233:55|222:138,1,120
131,133,83520,2,0,P|148:187|196:217,1,80
288,265,83884,1,0,0:0:0:0:
369,127,84066,1,0,0:0:0:0:
132,133,84247,1,0,0:0:0:0:
355,227,84429,1,0,0:0:0:0:
249,54,84611,6,0,P|227:108|241:160,1,90.0000034332277
216,257,84975,2,0,P|196:213|150:196,1,80
136,275,85338,1,0,0:0:0:0:
200,328,85520,2,0,P|233:328|273:299,1,60.0000022888184
285,291,85793,1,0,0:0:0:0:
310,254,85884,1,0,0:0:0:0:
319,216,85975,1,0,0:0:0:0:
313,169,86066,1,0,0:0:0:0:
115,212,86247,6,0,P|109:144|125:103,1,80
212,172,86611,1,0,0:0:0:0:
212,172,86793,1,0,0:0:0:0:
278,50,86975,2,0,P|330:85|342:112,2,80
111,133,87520,6,0,P|105:179|226:264,1,200
206,171,88066,2,0,P|227:132|275:115,1,80
292,115,88338,1,0,0:0:0:0:
291,198,88429,2,0,P|347:256|399:275,1,120.000004577637
389,167,88793,1,0,0:0:0:0:
369,66,88975,6,0,P|332:41|221:61,1,160
145,137,89520,1,0,0:0:0:0:
303,274,89702,1,0,0:0:0:0:
346,254,89793,1,0,0:0:0:0:
361,207,89884,2,0,P|356:161|333:117,1,80
253,57,90247,1,0,0:0:0:0:
125,21,90429,2,0,P|97:57|92:98,1,80
130,176,90975,5,0,0:0:0:0:
384,256,91157,1,0,0:0:0:0:
241,90,91338,2,0,P|296:72|335:70,1,80
130,176,91702,1,0,0:0:0:0:
270,283,92066,6,0,P|277:228|303:188,2,80
366,269,92611,1,0,0:0:0:0:
437,163,92793,2,0,P|420:119|389:94,2,80
366,269,93338,2,0,P|316:298|211:303,1,160
104,257,93884,2,0,P|81:214|80:172,1,80
87,139,94157,1,0,0:0:0:0:
164,189,94247,2,0,P|222:161|249:113,1,120.000004577637
314,224,94793,6,0,P|334:177|339:85,1,120
324,59,95157,1,0,0:0:0:0:
137,183,95338,1,0,0:0:0:0:
253,48,95520,1,0,0:0:0:0:
201,222,95702,1,0,0:0:0:0:
183,45,95884,1,0,0:0:0:0:
314,224,96066,1,0,0:0:0:0:
73,147,96247,6,0,P|67:186|91:238,1,90.0000034332277
150,181,96611,2,0,P|162:125|198:89,1,90.0000034332277
229,167,96975,2,0,P|231:213|241:237,1,40
305,182,97157,2,0,P|316:129|414:81,1,160
281,48,97884,6,0,P|230:39|186:42,2,80
402,79,98429,1,0,0:0:0:0:
442,116,98520,1,0,0:0:0:0:
461,164,98611,2,0,P|457:217|436:265,1,80
349,310,98975,1,0,0:0:0:0:
224,307,99157,2,0,P|159:273|139:198,1,120
120,179,99520,5,0,0:0:0:0:
295,56,99702,1,0,0:0:0:0:
365,219,99884,1,0,0:0:0:0:
344,261,99975,1,0,0:0:0:0:
303,289,100066,1,0,0:0:0:0:
224,307,100247,2,0,P|183:289|150:260,1,80
152,183,100611,1,0,0:0:0:0:
381,137,100793,6,0,P|351:97|319:76,1,80
221,45,101157,2,0,P|167:55|128:90,1,80
106,100,101429,1,0,0:0:0:0:
89,136,101520,2,0,P|73:170|59:241,1,80
92,304,101884,1,0,0:0:0:0:
172,239,102066,6,0,P|190:190|278:127,1,150.000005722046
263,225,102611,2,0,P|309:192|360:172,1,90.0000034332277
337,267,102975,2,0,P|389:242|458:229,1,120.000004577637
352,76,103702,5,0,0:0:0:0:
267,192,103884,1,0,0:0:0:0:
146,110,104066,1,0,0:0:0:0:
116,246,104247,5,0,0:0:0:0:
116,246,104338,1,0,0:0:0:0:
116,246,104429,1,0,0:0:0:0:
232,68,104611,5,0,0:0:0:0:
285,246,104793,1,0,0:0:0:0:
350,115,104975,2,0,P|390:140|415:222,1,120.000004577637
285,246,105520,2,0,P|247:202|228:184,1,60.0000022888184
208,170,105793,1,0,0:0:0:0:
167,142,105884,2,0,P|112:127|43:146,1,120.000004577637
111,241,106429,5,0,0:0:0:0:
111,241,106611,2,0,P|131:271|166:300,1,60.0000022888184
249,313,106975,1,0,0:0:0:0:
356,249,107157,2,0,P|369:206|364:134,1,90.0000034332277
348,79,107520,1,0,0:0:0:0:
246,28,107702,1,0,0:0:0:0:
146,84,107884,6,0,P|101:135|86:167,1,90.0000034332277
175,164,108247,2,0,P|152:205|144:258,1,90.0000034332277
162,289,108611,1,0,0:0:0:0:
299,236,108793,5,0,0:0:0:0:
331,209,108884,1,0,0:0:0:0:
353,170,108975,1,0,0:0:0:0:
360,126,109066,1,0,0:0:0:0:
342,86,109157,2,0,P|325:68|296:57,2,30.0000011444092
219,46,109520,6,0,P|248:76|234:201,1,160
151,132,110066,2,0,P|112:174|102:280,2,160
256,192,110884,12,0,111702,0:0:0:0:
259,110,111884,6,0,P|311:140|331:156,2,80
216,234,112429,2,0,P|161:198|133:92,1,160
260,110,112975,2,0,P|293:83|410:59,1,160
431,320,113702,6,0,P|415:225|322:141,1,200
330,273,114247,2,0,P|292:221|234:181,1,120
225,285,114611,2,0,P|176:246|58:191,1,160
256,192,115338,12,0,116247,0:0:0:0:
153,150,116429,5,0,0:0:0:0:
278,67,116611,1,0,0:0:0:0:
412,145,116793,2,0,P|413:203|384:261,1,120
312,324,117157,2,0,P|256:333|192:324,1,120
128,263,117520,2,0,P|127:205|156:147,1,120
224,86,117884,2,0,P|280:77|344:86,1,120
256,192,118247,12,0,119338,0:0:0:0:
166,137,119520,5,0,0:0:0:0:
352,108,119702,1,0,0:0:0:0:
375,135,119793,1,0,0:0:0:0:
361,168,119884,1,0,0:0:0:0:
333,191,119975,1,0,0:0:0:0:
300,207,120066,1,0,0:0:0:0:
264,211,120157,1,0,0:0:0:0:
229,203,120247,1,0,0:0:0:0:
197,186,120338,1,0,0:0:0:0:
168,163,120429,2,0,L|121:121,4,40
113,225,120884,6,0,L|78:194,3,40
186,270,121338,5,0,0:0:0:0:
251,240,121520,1,0,0:0:0:0:
325,121,121702,5,0,0:0:0:0:
394,96,121884,1,0,0:0:0:0:
181,52,122066,5,0,0:0:0:0:
114,75,122247,1,0,0:0:0:0:
305,52,122429,2,0,P|274:71|254:123,2,80
332,123,123338,2,0,L|355:143,5,20
300,192,123884,6,0,P|263:285|171:309,1,191.999994140625
94,246,124429,1,0,0:0:0:0:
119,136,124611,1,0,0:0:0:0:
152,101,124702,1,0,0:0:0:0:
184,73,124793,2,0,P|292:70|374:149,1,191.999994140625
396,219,125338,2,0,P|378:282|274:350,1,191.999994140625
146,269,125884,1,0,0:0:0:0:
119,136,126066,1,0,0:0:0:0:
152,101,126157,1,0,0:0:0:0:
184,73,126247,6,0,P|260:59|363:123,1,191.999994140625
396,219,126793,2,0,P|378:282|274:350,1,191.999994140625
271,224,127338,1,0,0:0:0:0:
115,98,127520,1,0,0:0:0:0:
152,88,127611,1,0,0:0:0:0:
198,85,127702,1,0,0:0:0:0:
309,104,127884,2,0,P|361:127|392:157,1,90.0000034332277
396,219,128247,2,0,P|378:282|274:350,1,191.999994140625
259,212,128793,5,0,0:0:0:0:
138,321,128975,1,0,0:0:0:0:
316,170,129157,2,0,P|245:142|192:223,1,143.999995605469
196,248,129520,2,0,P|227:276|313:261,1,80
330,266,129702,2,0,P|400:194|378:96,1,191.999994140625
271,35,130247,1,0,0:0:0:0:
166,70,130429,1,0,0:0:0:0:
126,92,130520,1,0,0:0:0:0:
93,123,130611,2,0,P|93:207|171:296,1,191.999994140625
330,266,131157,6,0,P|378:228|378:96,1,191.999994140625
269,34,131702,1,0,0:0:0:0:
166,70,131884,1,0,0:0:0:0:
126,92,131975,1,0,0:0:0:0:
91,126,132066,1,0,0:0:0:0:
92,256,132247,1,0,0:0:0:0:
207,335,132429,1,0,0:0:0:0:
341,298,132611,6,0,P|379:254|392:174,1,120.000004577637
376,124,133157,1,0,0:0:0:0:
332,64,133338,1,0,0:0:0:0:
267,30,133520,2,0,P|220:28|197:30,2,60.0000022888184
194,102,134066,6,0,P|143:138|119:177,1,90.0000034332277
353,235,134430,2,0,P|288:162|191:195,1,200
263,241,134975,2,0,P|246:282|170:316,1,120.000004577637
134,310,135247,5,0,0:0:0:0:
86,275,135338,1,0,0:0:0:0:
73,222,135429,1,0,0:0:0:0:
76,171,135520,2,0,P|104:104|169:63,1,143.999995605469
231,46,135884,2,0,P|295:48|337:59,1,95.9999970703126
417,148,136247,5,0,0:0:0:0:
421,196,136338,1,0,0:0:0:0:
396,238,136429,2,0,P|337:276|214:278,1,191.999994140625
194,101,136975,2,0,P|253:63|376:61,1,191.999994140625
413,145,137520,1,0,0:0:0:0:
397,238,137702,1,0,0:0:0:0:
361,273,137793,1,0,0:0:0:0:
318,296,137884,2,0,P|265:300|207:283,2,95.9999970703126
361,273,138429,6,0,P|404:228|439:101,1,191.999994140625
350,99,138975,2,0,P|337:148|301:186,1,95.9999970703126
275,207,139247,1,0,0:0:0:0:
236,226,139338,2,0,P|192:241|136:240,2,95.9999970703126
126,61,139884,6,0,P|174:119|190:177,1,120.000004577637
63,164,140429,1,0,0:0:0:0:
184,294,140611,1,0,0:0:0:0:
188,160,140793,1,0,0:0:0:0:
96,54,140975,1,0,0:0:0:0:
264,83,141157,1,0,0:0:0:0:
290,120,141247,1,0,0:0:0:0:
305,162,141338,1,0,0:0:0:0:
312,210,141429,1,0,0:0:0:0:
302,260,141520,1,0,0:0:0:0:
223,337,141702,6,0,P|179:350|121:339,1,95.9999970703126
69,237,142066,2,0,P|113:224|171:235,1,95.9999970703126
138,112,142611,5,0,0:0:0:0:
138,112,142793,2,0,P|177:78|261:74,1,120.000004577637
220,161,143338,1,0,0:0:0:0:
413,233,143520,1,0,0:0:0:0:
413,233,143611,1,0,0:0:0:0:
413,233,143702,1,0,0:0:0:0:
204,299,143884,1,0,0:0:0:0:
413,139,144066,1,0,0:0:0:0:
175,228,144247,6,0,P|156:182|177:113,1,120.000004577637
248,172,144793,2,0,P|262:217|277:237,1,60.0000022888184
303,258,145066,1,0,0:0:0:0:
346,282,145157,2,0,P|398:298|411:297,2,60.0000022888184
395,212,145702,6,0,P|389:182|361:135,1,80
302,75,146247,1,0,0:0:0:0:
219,43,146429,1,0,0:0:0:0:
137,66,146611,5,0,0:0:0:0:
108,99,146702,1,0,0:0:0:0:
85,136,146793,1,0,0:0:0:0:
71,178,146884,1,0,0:0:0:0:
65,221,146975,1,0,0:0:0:0:
88,261,147066,1,0,0:0:0:0:
121,292,147157,1,0,0:0:0:0:
159,308,147247,1,0,0:0:0:0:
203,305,147338,1,0,0:0:0:0:
56,51,157338,5,0,0:0:0:0:
255,338,157702,1,0,0:0:0:0:
463,48,158066,1,0,0:0:0:0:
56,51,158429,5,0,0:0:0:0:
128,66,158520,2,0,L|164:84,8,23.9999992675781
111,137,158975,2,0,P|149:153|272:167,1,160
149,257,159702,6,0,L|193:230,1,40
206,121,159884,2,0,L|162:147,1,40
317,227,160066,2,0,L|276:254,1,40
201,306,160247,2,0,P|135:328|79:256,1,160
79,268,160793,1,0,0:0:0:0:
213,119,161157,6,0,L|167:152,1,40
181,269,161338,2,0,L|227:235,1,40
349,250,161520,2,0,L|404:211,1,40
432,283,161702,2,0,P|456:233|396:153,1,160
322,128,162247,1,0,0:0:0:0:
236,114,162429,2,0,B|181:154|139:60|61:143,1,160
81,270,163157,6,0,B|136:230|178:324|256:241,1,160
311,290,163702,2,0,L|348:263,1,40
344,182,163884,2,0,L|395:212,1,40
417,270,164066,6,0,P|451:222|409:131,1,160
374,111,164520,1,0,0:0:0:0:
336,80,164611,1,0,0:0:0:0:
292,59,164702,1,0,0:0:0:0:
244,54,164793,2,0,P|171:59|91:105,1,160
208,164,165338,5,0,0:0:0:0:
167,189,165429,1,0,0:0:0:0:
137,226,165520,2,0,P|194:266|254:344,1,160
280,222,166066,6,0,P|305:162|347:96,1,120
369,81,166429,1,0,0:0:0:0:
437,232,166611,1,0,0:0:0:0:
279,222,166793,1,0,0:0:0:0:
148,100,167157,5,0,0:0:0:0:
148,100,167338,1,0,0:0:0:0:
148,100,167520,1,0,0:0:0:0:
83,275,167702,5,0,0:0:0:0:
148,100,167884,1,0,0:0:0:0:
296,139,168066,1,0,0:0:0:0:
335,166,168157,1,0,0:0:0:0:
356,208,168247,1,0,0:0:0:0:
363,255,168338,1,0,0:0:0:0:
344,299,168429,1,0,0:0:0:0:
261,240,168611,1,8,0:0:0:0:
261,240,168793,1,8,0:0:0:0:
128,132,168975,6,0,L|190:103,1,40
281,49,169157,2,0,L|232:75,1,40
212,173,169338,2,0,L|281:138,1,40
329,187,169520,2,0,L|380:160,1,40
406,254,169702,2,0,L|361:279,1,40
323,282,169884,1,0,0:0:0:0:
277,265,169975,1,0,0:0:0:0:
229,258,170066,1,0,0:0:0:0:
184,275,170157,1,0,0:0:0:0:
152,310,170247,1,0,0:0:0:0:
87,206,170429,6,0,L|125:166,1,40
115,49,170611,2,0,L|76:85,1,40
204,139,170793,2,0,L|268:73,1,80
256,234,171157,1,0,0:0:0:0:
390,101,171338,1,0,0:0:0:0:
416,280,171520,1,0,0:0:0:0:
260,81,171702,1,0,0:0:0:0:
135,140,171884,6,0,P|173:196|268:234,1,160
260,81,172429,1,0,0:0:0:0:
371,237,172611,1,0,0:0:0:0:
371,237,172702,1,0,0:0:0:0:
371,237,172793,1,0,0:0:0:0:
135,140,172975,1,0,0:0:0:0:
169,330,173157,1,0,0:0:0:0:
260,81,173338,6,0,P|307:63|385:79,1,120.000004577637
320,142,173884,1,0,0:0:0:0:
320,142,174066,1,0,0:0:0:0:
381,203,174247,2,0,P|334:221|256:205,1,120.000004577637
320,142,174793,2,0,P|367:124|445:140,1,120.000004577637
380,200,175338,1,0,0:0:0:0:
333,261,175520,1,0,0:0:0:0:
260,271,175702,1,0,0:0:0:0:
147,203,176247,6,0,P|169:154|259:111,1,150.000005722046
287,109,176793,1,0,0:0:0:0:
356,128,176975,1,0,0:0:0:0:
410,175,177157,2,0,P|388:224|346:256,1,90.0000034332277
326,257,177520,1,0,0:0:0:0:
249,261,177702,2,0,P|189:237|131:184,1,120.000004577637
122,134,178247,1,0,0:0:0:0:
145,65,178429,1,0,0:0:0:0:
209,32,178611,5,0,0:0:0:0:
244,34,178702,1,0,0:0:0:0:
276,49,178793,1,0,0:0:0:0:
302,73,178884,1,0,0:0:0:0:
321,103,178975,1,0,0:0:0:0:
329,138,179066,1,0,0:0:0:0:
313,170,179157,1,0,0:0:0:0:
290,197,179247,1,0,0:0:0:0:
256,209,179338,2,0,P|202:233|167:301,1,120.000004577637
259,302,179884,1,0,0:0:0:0:
345,279,180066,2,0,P|382:233|390:180,1,90.0000034332277
384,168,180429,5,0,0:0:0:0:
349,87,180611,2,0,P|313:57|222:48,1,120.000004577637
264,132,181157,2,0,P|210:148|154:188,2,120.000004577637
247,226,182066,1,0,0:0:0:0:
364,188,182247,5,0,0:0:0:0:
247,226,182611,1,0,0:0:0:0:
352,310,182793,1,0,0:0:0:0:
352,310,182884,1,0,0:0:0:0:
352,310,182975,1,0,0:0:0:0:
364,188,183157,5,0,0:0:0:0:
288,84,183338,1,0,0:0:0:0:
247,226,183520,1,0,0:0:0:0:
171,91,183702,5,0,0:0:0:0:
140,127,183793,1,0,0:0:0:0:
123,171,183884,1,0,0:0:0:0:
124,219,183975,1,0,0:0:0:0:
147,260,184066,1,0,0:0:0:0:
183,291,184157,1,0,0:0:0:0:
247,226,184247,5,0,0:0:0:0:
253,178,184338,1,0,0:0:0:0:
276,136,184429,1,0,0:0:0:0:
306,98,184520,1,0,0:0:0:0:
343,68,184611,1,0,0:0:0:0:
382,40,184702,2,0,P|412:34|449:36,4,40
417,116,185157,5,0,0:0:0:0:
317,215,185338,1,0,0:0:0:0:
370,335,185520,5,0,0:0:0:0:
470,245,185702,1,0,0:0:0:0:
236,230,185884,5,0,0:0:0:0:
147,331,186066,1,0,0:0:0:0:
177,174,186247,5,0,0:0:0:0:
276,68,186429,1,0,0:0:0:0:
142,101,186793,5,0,0:0:0:0:
142,101,187157,1,0,0:0:0:0:
104,202,187338,1,0,0:0:0:0:
126,244,187429,1,0,0:0:0:0:
161,276,187520,1,0,0:0:0:0:
204,296,187611,1,0,0:0:0:0:
249,310,187702,1,0,0:0:0:0:
297,308,187793,2,0,L|355:286,3,40
402,255,188247,6,0,P|432:202|416:140,1,95.9999970703126
396,98,188611,1,0,0:0:0:0:
365,61,188702,1,0,0:0:0:0:
322,39,188793,2,0,P|268:27|152:68,1,143.999995605469
150,82,189157,1,0,0:0:0:0:
116,176,189338,2,0,P|132:270|217:322,1,191.999994140625
313,317,189884,1,0,0:0:0:0:
395,255,190066,2,0,P|414:223|419:205,1,47.9999985351563
426,137,190247,2,0,P|414:87|381:47,2,95.9999970703126
395,255,190793,6,0,P|340:267|264:240,2,95.9999970703126
460,210,191338,1,0,0:0:0:0:
481,137,191520,1,0,0:0:0:0:
461,68,191702,1,0,0:0:0:0:
398,29,191884,1,0,0:0:0:0:
329,10,192066,1,0,0:0:0:0:
345,85,192247,2,0,P|348:117|312:166,1,90.0000034332277
161,67,192611,5,0,0:0:0:0:
219,310,192793,1,0,0:0:0:0:
50,96,192975,2,0,L|72:157,1,47.9999985351563
120,281,193157,1,0,0:0:0:0:
160,218,193338,1,0,0:0:0:0:
201,156,193520,2,0,L|232:108,1,47.9999985351563
265,48,193702,6,0,P|309:87|341:225,1,191.999994140625
312,280,194247,1,0,0:0:0:0:
238,316,194429,1,0,0:0:0:0:
189,317,194520,1,0,0:0:0:0:
143,302,194611,1,0,0:0:0:0:
78,216,194793,1,0,0:0:0:0:
84,109,194975,1,0,0:0:0:0:
179,37,195157,6,0,P|256:29|378:68,1,191.999994140625
421,131,195702,1,0,0:0:0:0:
438,219,195884,1,0,0:0:0:0:
412,259,195975,1,0,0:0:0:0:
371,284,196066,1,0,0:0:0:0:
242,217,196247,5,0,0:0:0:0:
358,197,196429,1,0,0:0:0:0:
230,117,196611,6,0,P|182:133|141:205,1,120.000004577637
242,217,197157,1,0,0:0:0:0:
230,119,197338,1,0,0:0:0:0:
252,293,197520,1,0,0:0:0:0:
218,46,197702,1,0,0:0:0:0:
242,217,197884,1,0,0:0:0:0:
230,119,198066,6,0,P|277:121|334:156,1,90.0000034332277
242,217,198429,6,0,P|195:215|124:154,1,143.999995605469
230,119,198793,6,0,P|277:121|307:144,1,60.0000022888184
334,139,199066,1,0,0:0:0:0:
372,167,199157,1,0,0:0:0:0:
399,205,199247,1,0,0:0:0:0:
412,251,199338,1,0,0:0:0:0:
395,296,199429,1,0,0:0:0:0:
354,321,199520,2,0,P|331:332|303:338,2,47.9999985351563
204,341,199884,6,0,P|166:311|133:230,1,95.9999970703126
129,169,200247,1,0,0:0:0:0:
142,122,200338,1,0,0:0:0:0:
171,83,200429,2,0,P|223:61|301:67,2,95.9999970703126
129,169,200975,2,0,P|128:239|212:326,1,191.999994140625
286,185,201520,1,0,0:0:0:0:
395,315,201702,2,0,L|384:257,1,47.9999985351563
357,106,201884,1,0,0:0:0:0:
318,326,202066,5,0,0:0:0:0:
274,104,202247,1,0,0:0:0:0:
242,336,202429,6,0,P|156:251|139:175,1,191.999994140625
197,56,202975,1,0,0:0:0:0:
315,161,203157,2,0,L|355:199,1,47.9999985351563
454,282,203338,1,0,0:0:0:0:
454,282,203520,1,0,0:0:0:0:
454,282,203702,1,0,0:0:0:0:
321,262,203884,6,0,P|291:255|235:225,1,90.0000034332277
203,194,204247,1,0,0:0:0:0:
382,87,204429,1,0,0:0:0:0:
175,114,204611,2,0,L|237:133,1,47.9999985351563
380,164,204793,1,0,0:0:0:0:
203,194,204975,1,0,0:0:0:0:
383,239,205157,2,0,L|330:281,1,47.9999985351563
303,292,205338,6,0,P|238:318|109:294,1,191.999994140625
203,194,205884,1,0,0:0:0:0:
203,194,206066,1,0,0:0:0:0:
105,92,206247,2,0,P|170:66|299:90,1,191.999994140625
360,140,206793,2,0,P|380:184|330:329,1,191.999994140625
179,349,207338,1,0,0:0:0:0:
80,217,207520,2,0,L|106:159,1,47.9999985351563
207,52,207702,1,0,0:0:0:0:
246,167,207884,5,0,0:0:0:0:
270,231,208066,1,0,0:0:0:0:
207,52,208247,2,0,P|136:67|86:112,1,120.000004577637
66,159,208793,1,0,0:0:0:0:
84,230,208975,1,0,0:0:0:0:
103,252,209066,1,0,0:0:0:0:
130,264,209157,1,0,0:0:0:0:
203,265,209338,1,0,0:0:0:0:
268,236,209520,1,0,0:0:0:0:
311,168,209702,6,0,P|360:152|401:160,1,90.0000034332277
360,231,210066,2,0,L|364:297,1,60.0000022888184
348,83,210429,1,0,0:0:0:0:
348,83,210611,2,0,P|289:103|248:133,1,95.9999970703126
230,159,210884,1,0,0:0:0:0:
210,202,210975,1,0,0:0:0:0:
200,249,211066,1,0,0:0:0:0:
214,294,211157,1,0,0:0:0:0:
248,326,211247,1,0,0:0:0:0:
294,339,211338,6,0,P|339:333|385:303,1,80
311,261,211702,2,0,P|370:232|384:220,2,80
230,261,212247,1,0,0:0:0:0:
169,213,212429,1,0,0:0:0:0:
141,144,212611,6,0,P|167:73|250:32,1,160
246,144,213157,2,0,P|279:186|332:208,1,80
372,219,213520,2,0,P|411:244|449:312,1,120.000004577637
349,314,213884,1,0,0:0:0:0:
246,309,214066,6,0,P|207:268|198:167,1,160
316,91,214611,1,0,0:0:0:0:
419,194,214793,2,0,L|383:222,1,40
248,307,214975,1,0,0:0:0:0:
112,196,215157,1,0,0:0:0:0:
231,67,215338,1,0,0:0:0:0:
298,131,215520,6,0,P|241:151|168:134,1,120
148,120,215884,1,0,0:0:0:0:
40,35,216066,1,0,0:0:0:0:
112,196,216247,2,0,L|79:167,1,40
9,99,216429,1,0,0:0:0:0:
74,261,216611,1,0,0:0:0:0:
226,313,216793,1,0,0:0:0:0:
180,192,217157,6,0,P|208:141|248:119,1,80
266,207,217520,1,0,0:0:0:0:
314,144,217702,1,0,0:0:0:0:
352,153,217793,1,0,0:0:0:0:
388,168,217884,2,0,P|429:199|446:238,2,80
359,252,218429,6,0,P|330:278|213:311,1,160
249,189,218975,1,0,0:0:0:0:
188,151,219157,1,0,0:0:0:0:
166,117,219247,1,0,0:0:0:0:
160,77,219338,2,0,P|198:28|255:22,1,120.000004577637
332,73,219702,1,0,0:0:0:0:
380,159,219884,6,0,P|380:221|345:280,1,120
225,183,220247,1,0,0:0:0:0:
252,21,220429,1,0,0:0:0:0:
150,186,220611,1,0,0:0:0:0:
184,31,220793,1,0,0:0:0:0:
76,193,220975,1,0,0:0:0:0:
115,40,221157,1,0,0:0:0:0:
6,196,221338,1,0,0:0:0:0:
249,276,221702,5,0,0:0:0:0:
121,125,222066,1,0,0:0:0:0:
188,100,222247,1,0,0:0:0:0:
123,251,222429,1,0,0:0:0:0:
123,251,222520,1,0,0:0:0:0:
123,251,222611,1,0,0:0:0:0:
335,250,222975,6,0,P|303:191|286:176,2,80
349,334,223520,1,0,0:0:0:0:
349,334,223611,1,0,0:0:0:0:
349,334,223702,1,0,0:0:0:0:
206,280,223884,1,0,0:0:0:0:
157,225,224066,1,0,0:0:0:0:
144,152,224247,1,0,0:0:0:0:
283,178,224611,5,0,0:0:0:0:
319,240,224793,1,0,0:0:0:0:
321,314,224975,1,0,0:0:0:0:
256,192,225157,12,0,226066,0:0:0:0:
