osu file format v14

[General]
AudioFilename: audio.mp3
AudioLeadIn: 0
PreviewTime: 55914
Countdown: 0
SampleSet: Normal
StackLeniency: 0.7
Mode: 3
LetterboxInBreaks: 0
SpecialStyle: 0
WidescreenStoryboard: 0

[Editor]
DistanceSpacing: 1
BeatDivisor: 4
GridSize: 4
TimelineZoom: 2.3

[Metadata]
Title:Now Loading!!!!
TitleUnicode:Now Loading!!!!
Artist:fourfolium
ArtistUnicode:fourfolium
Creator:wamster2
Version:Hard
Source:NEW GAME!
Tags:- Ly0572 - wamster2 new game フォーフォリウム ニューゲーム ending ed full size takada yuuki 高田憂希 suzukaze aoba 涼風青葉 Doga Kobo
BeatmapID:1255329
BeatmapSetID:593347

[Difficulty]
HPDrainRate:7.5
CircleSize:4
OverallDifficulty:7.5
ApproachRate:5
SliderMultiplier:1.4
SliderTickRate:1

[Events]
//Background and Video events
0,0,"wallhaven-414256.png",0,0
//Break Periods
//Storyboard Layer 0 (Background)
//Storyboard Layer 1 (Fail)
//Storyboard Layer 2 (Pass)
//Storyboard Layer 3 (Foreground)
//Storyboard Sound Samples

[TimingPoints]
1277,310.880829015544,4,1,1,65,1,0
55992,-100,4,1,1,65,0,1
75888,-100,4,1,1,65,0,0
128116,-100,4,1,1,65,0,1
157960,-100,4,1,1,65,0,0
202727,-100,4,1,1,65,0,1
222624,-100,4,1,1,65,0,0

[HitObjects]
64,192,1121,5,0,0:0:0:0:
192,192,1199,1,0,0:0:0:0:
320,192,1277,1,0,0:0:0:0:
448,192,1277,128,0,2986:0:0:0:0:
64,192,1432,128,0,1587:0:0:0:0:
192,192,1587,128,0,1743:0:0:0:0:
320,192,1743,128,0,1898:0:0:0:0:
64,192,1898,128,0,2209:0:0:0:0:
320,192,2209,128,0,2365:0:0:0:0:
192,192,2365,128,0,2520:0:0:0:0:
64,192,2520,128,0,2675:0:0:0:0:
320,192,2675,128,0,2831:0:0:0:0:
64,192,2831,128,0,2986:0:0:0:0:
320,192,2986,1,0,0:0:0:0:
192,192,3064,1,0,0:0:0:0:
64,192,3142,1,8,0:0:0:0:
448,192,3142,1,8,0:0:0:0:
192,192,3297,1,0,0:0:0:0:
320,192,3297,1,0,0:0:0:0:
448,192,3453,128,0,3764:0:0:0:0:
320,192,3764,1,4,0:0:0:0:
64,192,3764,1,0,0:0:0:0:
192,192,4074,1,0,0:0:0:0:
320,192,4074,1,8,0:0:0:0:
448,192,4385,1,4,0:0:0:0:
320,192,4696,1,0,0:0:0:0:
64,192,4696,1,0,0:0:0:0:
448,192,4852,128,0,5007:0:0:0:0:
192,192,5007,1,0,0:0:0:0:
64,192,5163,128,0,5318:0:0:0:0:
448,192,5318,1,0,0:0:0:0:
320,192,5473,128,0,5784:0:0:0:0:
192,192,5629,1,0,0:0:0:0:
448,192,5784,128,0,6251:0:0:0:0:
64,192,5940,1,8,0:0:0:0:
192,192,6251,1,4,0:0:0:0:
320,192,6561,1,8,0:0:0:0:
448,192,6561,1,0,0:0:0:0:
64,192,6872,1,4,0:0:0:0:
320,192,7183,1,8,0:0:0:0:
192,192,7183,1,0,0:0:0:0:
448,192,7339,128,0,7494:0:0:0:0:
64,192,7494,1,4,0:0:0:0:
192,192,7650,128,0,7805:0:0:0:0:
448,192,7805,1,8,0:0:0:0:
320,192,7960,128,0,8271:0:0:0:0:
192,192,8116,1,4,0:0:0:0:
64,192,8271,128,0,8738:0:0:0:0:
448,192,8427,1,8,0:0:0:0:
448,192,8738,128,2,9359:0:0:0:0:
192,192,8738,1,4,0:0:0:0:
320,192,9049,1,8,0:0:0:0:
64,192,9204,1,0,0:0:0:0:
192,192,9359,128,0,9981:0:0:0:0:
448,192,9670,1,8,0:0:0:0:
320,192,9826,1,0,0:0:0:0:
64,192,9981,128,4,10603:0:0:0:0:
320,192,10292,1,8,0:0:0:0:
192,192,10447,1,0,0:0:0:0:
448,192,10603,128,4,11225:0:0:0:0:
192,192,10914,1,8,0:0:0:0:
320,192,11225,128,8,11536:0:0:0:0:
64,192,11225,1,8,0:0:0:0:
64,192,11691,128,12,12002:0:0:0:0:
448,192,11691,1,12,0:0:0:0:
320,192,12157,128,8,12468:0:0:0:0:
192,192,12157,1,8,0:0:0:0:
448,192,12624,128,8,13712:0:0:0:0:
64,192,12624,1,8,0:0:0:0:
320,192,12935,1,8,0:0:0:0:
192,192,13245,1,8,0:0:0:0:
192,192,13401,1,8,0:0:0:0:
64,192,13712,1,2,0:0:0:0:
192,192,13867,1,0,0:0:0:0:
448,192,14023,1,2,0:0:0:0:
320,192,14178,1,0,0:0:0:0:
64,192,14333,1,2,0:0:0:0:
448,192,14489,1,0,0:0:0:0:
192,192,14644,1,2,0:0:0:0:
320,192,14800,1,0,0:0:0:0:
64,192,14955,1,2,0:0:0:0:
448,192,15111,1,0,0:0:0:0:
320,192,15266,1,2,0:0:0:0:
192,192,15422,1,0,0:0:0:0:
64,192,15577,1,2,0:0:0:0:
192,192,15732,1,0,0:0:0:0:
64,192,15888,1,2,0:0:0:0:
448,192,16043,1,4,0:0:0:0:
320,192,16121,1,4,0:0:0:0:
192,192,16199,1,4,0:0:0:0:
64,192,16354,1,0,0:0:0:0:
448,192,16510,1,2,0:0:0:0:
192,192,16665,1,0,0:0:0:0:
320,192,16821,1,2,0:0:0:0:
448,192,16976,1,0,0:0:0:0:
192,192,17131,1,2,0:0:0:0:
448,192,17287,1,0,0:0:0:0:
64,192,17442,1,2,0:0:0:0:
320,192,17598,1,0,0:0:0:0:
192,192,17753,1,2,0:0:0:0:
448,192,17909,1,0,0:0:0:0:
64,192,18064,1,2,0:0:0:0:
320,192,18220,1,0,0:0:0:0:
448,192,18220,1,4,0:0:0:0:
192,192,18375,1,0,0:0:0:0:
64,192,18530,1,2,0:0:0:0:
192,192,18608,1,2,0:0:0:0:
320,192,18686,1,2,0:0:0:0:
448,192,18841,1,0,0:0:0:0:
192,192,18997,1,2,0:0:0:0:
320,192,19152,1,0,0:0:0:0:
448,192,19308,1,2,0:0:0:0:
64,192,19463,1,0,0:0:0:0:
320,192,19618,1,2,0:0:0:0:
192,192,19774,1,0,0:0:0:0:
448,192,19929,1,2,0:0:0:0:
192,192,20085,1,0,0:0:0:0:
64,192,20240,1,2,0:0:0:0:
320,192,20396,1,0,0:0:0:0:
448,192,20551,1,2,0:0:0:0:
320,192,20707,1,0,0:0:0:0:
64,192,20862,1,0,0:0:0:0:
320,192,21017,1,8,0:0:0:0:
192,192,21095,1,8,0:0:0:0:
320,192,21173,1,8,0:0:0:0:
448,192,21328,1,0,0:0:0:0:
64,192,21484,1,2,0:0:0:0:
192,192,21639,1,0,0:0:0:0:
448,192,21795,1,2,0:0:0:0:
320,192,21950,1,0,0:0:0:0:
448,192,22106,1,2,0:0:0:0:
320,192,22261,1,0,0:0:0:0:
64,192,22261,128,0,22416:0:0:0:0:
448,192,22572,128,0,22727:0:0:0:0:
320,192,22727,128,0,22883:0:0:0:0:
192,192,22883,128,0,23038:0:0:0:0:
64,192,23038,128,0,23194:0:0:0:0:
448,192,23194,1,0,0:0:0:0:
320,192,23349,1,0,0:0:0:0:
192,192,23349,1,0,0:0:0:0:
64,192,23427,1,0,0:0:0:0:
448,192,23504,1,0,0:0:0:0:
320,192,23582,1,0,0:0:0:0:
192,192,23660,1,0,0:0:0:0:
64,192,23660,1,0,0:0:0:0:
448,192,23815,128,0,23971:0:0:0:0:
192,192,23971,128,0,24126:0:0:0:0:
64,192,23971,1,0,0:0:0:0:
320,192,24126,128,0,24282:0:0:0:0:
448,192,24282,128,0,24437:0:0:0:0:
64,192,24437,128,0,24593:0:0:0:0:
320,192,24593,128,0,24748:0:0:0:0:
448,192,24593,1,0,0:0:0:0:
192,192,24748,128,0,25059:0:0:0:0:
448,192,25059,128,0,25370:0:0:0:0:
320,192,25214,1,0,0:0:0:0:
64,192,25370,128,0,25681:0:0:0:0:
320,192,25681,128,0,25836:0:0:0:0:
448,192,25836,128,0,26147:0:0:0:0:
192,192,25836,1,0,0:0:0:0:
192,192,26147,128,0,26302:0:0:0:0:
64,192,26302,128,0,26458:0:0:0:0:
448,192,26458,128,0,26613:0:0:0:0:
192,192,26458,1,0,0:0:0:0:
320,192,26613,128,0,26769:0:0:0:0:
64,192,26769,128,0,26924:0:0:0:0:
448,192,26924,128,0,27080:0:0:0:0:
192,192,27080,128,0,27235:0:0:0:0:
64,192,27080,1,0,0:0:0:0:
320,192,27235,128,0,27546:0:0:0:0:
64,192,27546,128,0,27857:0:0:0:0:
192,192,27701,1,0,0:0:0:0:
448,192,27857,128,0,28168:0:0:0:0:
192,192,28168,128,0,28323:0:0:0:0:
320,192,28323,128,0,28634:0:0:0:0:
64,192,28323,1,0,0:0:0:0:
448,192,28634,1,0,0:0:0:0:
64,192,28945,128,0,29256:0:0:0:0:
320,192,28945,1,0,0:0:0:0:
448,192,29256,1,0,0:0:0:0:
320,192,29567,128,0,29878:0:0:0:0:
192,192,29567,1,0,0:0:0:0:
448,192,29878,128,0,30188:0:0:0:0:
64,192,29878,1,0,0:0:0:0:
192,192,30188,128,0,30499:0:0:0:0:
320,192,30188,1,0,0:0:0:0:
448,192,30499,1,0,0:0:0:0:
448,192,30810,128,0,31121:0:0:0:0:
192,192,30810,1,0,0:0:0:0:
64,192,31121,128,0,31432:0:0:0:0:
320,192,31121,1,0,0:0:0:0:
320,192,31432,128,0,31587:0:0:0:0:
192,192,31432,1,0,0:0:0:0:
448,192,31587,128,0,32054:0:0:0:0:
64,192,31743,1,0,0:0:0:0:
192,192,32054,128,0,32209:0:0:0:0:
320,192,32054,1,0,0:0:0:0:
64,192,32209,128,0,33608:0:0:0:0:
320,192,32365,1,0,0:0:0:0:
448,192,32520,1,0,0:0:0:0:
320,192,32520,1,0,0:0:0:0:
448,192,32675,1,0,0:0:0:0:
192,192,32675,1,0,0:0:0:0:
320,192,32831,1,0,0:0:0:0:
448,192,32909,1,0,0:0:0:0:
192,192,32986,1,0,0:0:0:0:
320,192,33064,1,0,0:0:0:0:
448,192,33142,1,0,0:0:0:0:
192,192,33220,1,0,0:0:0:0:
320,192,33297,1,0,0:0:0:0:
448,192,33375,1,0,0:0:0:0:
192,192,33453,1,0,0:0:0:0:
320,192,33530,1,0,0:0:0:0:
448,192,33608,1,0,0:0:0:0:
192,192,33608,1,0,0:0:0:0:
320,192,33919,1,0,0:0:0:0:
192,192,34230,1,0,0:0:0:0:
64,192,34230,1,0,0:0:0:0:
448,192,34541,1,0,0:0:0:0:
320,192,34696,1,0,0:0:0:0:
64,192,34696,1,0,0:0:0:0:
192,192,34852,1,0,0:0:0:0:
448,192,35007,1,0,0:0:0:0:
64,192,35007,1,0,0:0:0:0:
320,192,35163,1,0,0:0:0:0:
192,192,35473,1,0,0:0:0:0:
448,192,35473,1,0,0:0:0:0:
320,192,35784,1,0,0:0:0:0:
64,192,35940,1,0,0:0:0:0:
192,192,36017,1,0,0:0:0:0:
448,192,36095,1,0,0:0:0:0:
320,192,36095,1,0,0:0:0:0:
64,192,36406,1,0,0:0:0:0:
320,192,36561,1,0,0:0:0:0:
192,192,36717,1,0,0:0:0:0:
448,192,36717,1,0,0:0:0:0:
64,192,36872,1,0,0:0:0:0:
448,192,37028,1,0,0:0:0:0:
192,192,37183,1,0,0:0:0:0:
320,192,37183,1,0,0:0:0:0:
64,192,37339,1,0,0:0:0:0:
448,192,37494,1,0,0:0:0:0:
192,192,37494,1,0,0:0:0:0:
320,192,37650,1,0,0:0:0:0:
64,192,37960,1,0,0:0:0:0:
192,192,37960,1,0,0:0:0:0:
448,192,38271,1,0,0:0:0:0:
192,192,38427,1,0,0:0:0:0:
64,192,38582,1,0,0:0:0:0:
448,192,38582,1,0,0:0:0:0:
320,192,38582,1,0,0:0:0:0:
448,192,38893,1,0,0:0:0:0:
192,192,39049,1,0,0:0:0:0:
320,192,39204,1,0,0:0:0:0:
64,192,39204,1,0,0:0:0:0:
448,192,39515,1,0,0:0:0:0:
64,192,39670,1,0,0:0:0:0:
192,192,39748,1,0,0:0:0:0:
320,192,39826,1,0,0:0:0:0:
448,192,39981,1,0,0:0:0:0:
64,192,39981,1,0,0:0:0:0:
192,192,40137,1,0,0:0:0:0:
320,192,40292,1,0,0:0:0:0:
448,192,40447,1,0,0:0:0:0:
192,192,40447,1,0,0:0:0:0:
64,192,40758,1,0,0:0:0:0:
320,192,40914,1,0,0:0:0:0:
448,192,40914,1,0,0:0:0:0:
192,192,41069,1,0,0:0:0:0:
64,192,41069,1,0,0:0:0:0:
320,192,41380,1,0,0:0:0:0:
448,192,41536,1,0,0:0:0:0:
192,192,41691,1,0,0:0:0:0:
64,192,41691,1,0,0:0:0:0:
448,192,41846,1,0,0:0:0:0:
320,192,42002,1,0,0:0:0:0:
192,192,42002,1,0,0:0:0:0:
64,192,42002,1,0,0:0:0:0:
192,192,42313,1,0,0:0:0:0:
448,192,42468,1,0,0:0:0:0:
320,192,42468,1,0,0:0:0:0:
64,192,42624,1,0,0:0:0:0:
192,192,42779,1,0,0:0:0:0:
448,192,42935,1,0,0:0:0:0:
320,192,42935,1,0,0:0:0:0:
64,192,43090,1,0,0:0:0:0:
448,192,43245,1,0,0:0:0:0:
320,192,43401,1,0,0:0:0:0:
192,192,43556,1,0,0:0:0:0:
64,192,43556,1,0,0:0:0:0:
448,192,43556,1,0,0:0:0:0:
320,192,43867,1,0,0:0:0:0:
192,192,44023,1,0,0:0:0:0:
64,192,44178,1,0,0:0:0:0:
448,192,44178,1,0,0:0:0:0:
320,192,44489,1,0,0:0:0:0:
64,192,44800,1,0,0:0:0:0:
448,192,44955,1,0,0:0:0:0:
192,192,44955,1,0,0:0:0:0:
320,192,45111,1,0,0:0:0:0:
64,192,45111,128,0,45422:0:0:0:0:
320,192,45422,1,0,0:0:0:0:
192,192,45577,1,0,0:0:0:0:
448,192,45732,128,0,46043:0:0:0:0:
320,192,45732,1,0,0:0:0:0:
64,192,46043,1,0,0:0:0:0:
192,192,46199,1,0,0:0:0:0:
320,192,46354,1,0,0:0:0:0:
448,192,46510,1,0,0:0:0:0:
192,192,46665,1,0,0:0:0:0:
64,192,46665,1,0,0:0:0:0:
448,192,46976,1,0,0:0:0:0:
320,192,47131,1,0,0:0:0:0:
192,192,47287,1,0,0:0:0:0:
64,192,47442,1,0,0:0:0:0:
448,192,47442,1,0,0:0:0:0:
320,192,47598,1,0,0:0:0:0:
192,192,47753,1,0,0:0:0:0:
320,192,47909,1,0,0:0:0:0:
64,192,47909,1,0,0:0:0:0:
448,192,48064,1,0,0:0:0:0:
320,192,48142,1,0,0:0:0:0:
192,192,48220,1,0,0:0:0:0:
64,192,48220,1,0,0:0:0:0:
448,192,48530,1,0,0:0:0:0:
320,192,48530,1,0,0:0:0:0:
64,192,48530,1,0,0:0:0:0:
64,192,48841,1,0,0:0:0:0:
448,192,48841,1,0,0:0:0:0:
320,192,49152,1,0,0:0:0:0:
448,192,49308,1,0,0:0:0:0:
192,192,49463,1,0,0:0:0:0:
64,192,49463,1,0,0:0:0:0:
320,192,49774,1,0,0:0:0:0:
448,192,49774,1,0,0:0:0:0:
64,192,49774,1,0,0:0:0:0:
192,192,50085,1,0,0:0:0:0:
320,192,50085,1,0,0:0:0:0:
448,192,50396,1,0,0:0:0:0:
64,192,50551,1,0,0:0:0:0:
192,192,50707,1,0,0:0:0:0:
320,192,50707,1,0,0:0:0:0:
448,192,51017,1,0,0:0:0:0:
192,192,51017,1,0,0:0:0:0:
64,192,51017,1,0,0:0:0:0:
448,192,51328,1,0,0:0:0:0:
192,192,51484,1,0,0:0:0:0:
320,192,51639,1,0,0:0:0:0:
64,192,51795,1,0,0:0:0:0:
448,192,51950,1,0,0:0:0:0:
192,192,52106,1,0,0:0:0:0:
320,192,52261,1,0,0:0:0:0:
64,192,52416,1,0,0:0:0:0:
320,192,52572,1,0,0:0:0:0:
448,192,52727,1,0,0:0:0:0:
192,192,52883,1,0,0:0:0:0:
64,192,53038,1,0,0:0:0:0:
448,192,53194,1,0,0:0:0:0:
320,192,53349,1,0,0:0:0:0:
448,192,53504,1,0,0:0:0:0:
64,192,53660,1,0,0:0:0:0:
320,192,53660,1,0,0:0:0:0:
64,192,53815,1,0,0:0:0:0:
320,192,53815,1,0,0:0:0:0:
192,192,53971,1,0,0:0:0:0:
448,192,54126,1,0,0:0:0:0:
320,192,54126,1,0,0:0:0:0:
448,192,54282,1,0,0:0:0:0:
320,192,54282,1,0,0:0:0:0:
192,192,54437,1,0,0:0:0:0:
64,192,54593,1,0,0:0:0:0:
320,192,54593,1,0,0:0:0:0:
448,192,54593,1,0,0:0:0:0:
64,192,54903,128,0,55059:0:0:0:0:
192,192,55059,128,0,55214:0:0:0:0:
320,192,55214,128,0,55370:0:0:0:0:
448,192,55370,128,0,55992:0:0:0:0:
64,192,55525,1,0,0:0:0:0:
192,192,55603,1,0,0:0:0:0:
320,192,55681,1,0,0:0:0:0:
64,192,55992,1,0,0:0:0:0:
192,192,55992,1,0,0:0:0:0:
448,192,56302,1,0,0:0:0:0:
192,192,56302,1,0,0:0:0:0:
64,192,56458,128,0,56613:0:0:0:0:
320,192,56613,1,0,0:0:0:0:
448,192,56769,128,0,56924:0:0:0:0:
64,192,56924,1,0,0:0:0:0:
192,192,57080,128,0,57235:0:0:0:0:
320,192,57235,1,0,0:0:0:0:
448,192,57390,128,0,57546:0:0:0:0:
192,192,57546,1,0,0:0:0:0:
320,192,57701,128,0,57857:0:0:0:0:
448,192,57857,1,0,0:0:0:0:
64,192,58012,128,0,58168:0:0:0:0:
320,192,58168,1,0,0:0:0:0:
192,192,58323,128,0,58479:0:0:0:0:
64,192,58479,1,0,0:0:0:0:
448,192,58634,128,0,58789:0:0:0:0:
320,192,58789,1,0,0:0:0:0:
64,192,58945,128,0,59100:0:0:0:0:
192,192,59100,1,0,0:0:0:0:
448,192,59256,128,0,59411:0:0:0:0:
320,192,59411,1,0,0:0:0:0:
192,192,59567,128,0,59722:0:0:0:0:
64,192,59722,1,0,0:0:0:0:
448,192,59878,128,0,60033:0:0:0:0:
192,192,60033,1,0,0:0:0:0:
320,192,60188,128,0,60344:0:0:0:0:
448,192,60344,1,0,0:0:0:0:
64,192,60499,128,0,60655:0:0:0:0:
192,192,60655,1,0,0:0:0:0:
448,192,60810,128,0,60966:0:0:0:0:
320,192,60966,1,0,0:0:0:0:
64,192,60966,128,0,61276:0:0:0:0:
192,192,61276,128,0,61432:0:0:0:0:
320,192,61276,1,0,0:0:0:0:
448,192,61432,128,0,61587:0:0:0:0:
320,192,61587,128,0,61743:0:0:0:0:
64,192,61743,128,0,61898:0:0:0:0:
448,192,61898,128,0,62209:0:0:0:0:
192,192,61898,1,0,0:0:0:0:
64,192,62209,128,0,62520:0:0:0:0:
192,192,62209,1,0,0:0:0:0:
320,192,62520,1,0,0:0:0:0:
192,192,62831,1,0,0:0:0:0:
448,192,63142,1,0,0:0:0:0:
64,192,63142,1,0,0:0:0:0:
64,192,63453,128,0,64074:0:0:0:0:
320,192,63453,1,0,0:0:0:0:
448,192,63453,1,0,0:0:0:0:
192,192,63764,1,0,0:0:0:0:
448,192,64074,128,0,64696:0:0:0:0:
320,192,64074,1,0,0:0:0:0:
192,192,64074,1,0,0:0:0:0:
64,192,64385,1,0,0:0:0:0:
192,192,64696,128,0,65318:0:0:0:0:
320,192,64696,1,0,0:0:0:0:
64,192,64852,1,0,0:0:0:0:
448,192,64852,1,0,0:0:0:0:
320,192,65007,1,0,0:0:0:0:
64,192,65163,1,0,0:0:0:0:
448,192,65163,1,0,0:0:0:0:
320,192,65318,128,0,65629:0:0:0:0:
448,192,65318,1,0,0:0:0:0:
192,192,65473,1,0,0:0:0:0:
448,192,65629,128,0,65940:0:0:0:0:
64,192,65629,1,0,0:0:0:0:
64,192,65940,1,0,0:0:0:0:
192,192,65940,1,0,0:0:0:0:
448,192,66251,1,0,0:0:0:0:
320,192,66251,1,0,0:0:0:0:
192,192,66406,1,0,0:0:0:0:
64,192,66561,1,0,0:0:0:0:
448,192,66717,1,0,0:0:0:0:
192,192,66872,1,0,0:0:0:0:
320,192,66872,1,0,0:0:0:0:
448,192,67028,1,0,0:0:0:0:
64,192,67183,1,0,0:0:0:0:
192,192,67339,1,0,0:0:0:0:
448,192,67494,1,0,0:0:0:0:
320,192,67494,1,0,0:0:0:0:
64,192,67650,1,0,0:0:0:0:
320,192,67805,1,0,0:0:0:0:
192,192,67960,1,0,0:0:0:0:
64,192,68116,1,0,0:0:0:0:
448,192,68116,1,0,0:0:0:0:
192,192,68271,1,0,0:0:0:0:
320,192,68427,1,0,0:0:0:0:
448,192,68427,1,0,0:0:0:0:
64,192,68582,1,0,0:0:0:0:
448,192,68738,1,0,0:0:0:0:
192,192,68738,1,0,0:0:0:0:
64,192,68893,1,0,0:0:0:0:
320,192,69049,1,0,0:0:0:0:
448,192,69204,1,0,0:0:0:0:
192,192,69359,1,0,0:0:0:0:
64,192,69359,1,0,0:0:0:0:
320,192,69515,1,0,0:0:0:0:
448,192,69670,1,0,0:0:0:0:
192,192,69826,1,0,0:0:0:0:
448,192,69981,1,0,0:0:0:0:
64,192,69981,1,0,0:0:0:0:
320,192,70137,1,0,0:0:0:0:
192,192,70292,1,0,0:0:0:0:
448,192,70447,1,0,0:0:0:0:
320,192,70603,1,0,0:0:0:0:
64,192,70603,128,0,70914:0:0:0:0:
448,192,70914,128,0,71225:0:0:0:0:
192,192,70914,1,0,0:0:0:0:
320,192,70914,1,0,0:0:0:0:
192,192,71225,128,0,71536:0:0:0:0:
64,192,71225,1,0,0:0:0:0:
320,192,71536,128,0,71846:0:0:0:0:
448,192,71536,1,0,0:0:0:0:
64,192,71846,128,0,72157:0:0:0:0:
192,192,71846,1,0,0:0:0:0:
448,192,72157,128,0,72468:0:0:0:0:
320,192,72157,1,0,0:0:0:0:
192,192,72468,1,0,0:0:0:0:
448,192,72779,128,0,73090:0:0:0:0:
320,192,72779,1,0,0:0:0:0:
64,192,73090,128,0,73401:0:0:0:0:
192,192,73090,1,0,0:0:0:0:
448,192,73401,128,0,73712:0:0:0:0:
320,192,73401,1,0,0:0:0:0:
192,192,73401,1,0,0:0:0:0:
192,192,73712,128,0,74023:0:0:0:0:
64,192,73712,1,0,0:0:0:0:
64,192,74023,128,0,74333:0:0:0:0:
448,192,74023,1,0,0:0:0:0:
320,192,74023,1,0,0:0:0:0:
320,192,74333,128,0,74644:0:0:0:0:
192,192,74333,1,0,0:0:0:0:
448,192,74644,128,0,74955:0:0:0:0:
64,192,74644,1,0,0:0:0:0:
320,192,74800,1,0,0:0:0:0:
192,192,74955,128,0,75266:0:0:0:0:
64,192,74955,1,0,0:0:0:0:
320,192,75111,1,0,0:0:0:0:
448,192,75266,1,0,0:0:0:0:
64,192,75266,128,0,75888:0:0:0:0:
192,192,75422,1,0,0:0:0:0:
320,192,75499,1,0,0:0:0:0:
448,192,75577,128,0,75888:0:0:0:0:
192,192,75577,1,0,0:0:0:0:
320,192,75655,1,0,0:0:0:0:
192,192,75732,1,0,0:0:0:0:
320,192,75810,1,0,0:0:0:0:
192,192,75888,1,0,0:0:0:0:
320,192,76199,1,0,0:0:0:0:
64,192,76199,1,0,0:0:0:0:
448,192,76510,1,0,0:0:0:0:
64,192,76821,1,0,0:0:0:0:
320,192,76821,1,0,0:0:0:0:
448,192,76976,128,0,77131:0:0:0:0:
192,192,77131,1,0,0:0:0:0:
64,192,77287,128,0,77442:0:0:0:0:
448,192,77442,1,0,0:0:0:0:
320,192,77598,128,0,77909:0:0:0:0:
192,192,77753,1,0,0:0:0:0:
448,192,77909,128,0,78375:0:0:0:0:
64,192,78064,1,0,0:0:0:0:
192,192,78375,1,0,0:0:0:0:
448,192,78686,1,0,0:0:0:0:
320,192,78686,1,0,0:0:0:0:
64,192,78997,1,0,0:0:0:0:
192,192,79308,1,0,0:0:0:0:
320,192,79308,1,0,0:0:0:0:
448,192,79463,128,0,79618:0:0:0:0:
64,192,79618,1,0,0:0:0:0:
192,192,79774,128,0,79929:0:0:0:0:
448,192,79929,1,0,0:0:0:0:
320,192,80085,128,0,80396:0:0:0:0:
192,192,80240,1,0,0:0:0:0:
64,192,80396,128,0,80862:0:0:0:0:
448,192,80551,1,0,0:0:0:0:
192,192,80862,1,0,0:0:0:0:
448,192,80862,128,0,81484:0:0:0:0:
320,192,81173,1,0,0:0:0:0:
64,192,81328,1,0,0:0:0:0:
192,192,81484,128,0,82106:0:0:0:0:
448,192,81795,1,0,0:0:0:0:
320,192,81950,1,0,0:0:0:0:
64,192,82106,128,0,82727:0:0:0:0:
448,192,82416,1,0,0:0:0:0:
320,192,82572,1,0,0:0:0:0:
448,192,82727,128,0,83349:0:0:0:0:
192,192,82727,1,0,0:0:0:0:
320,192,82883,1,0,0:0:0:0:
192,192,83038,1,0,0:0:0:0:
64,192,83349,1,0,0:0:0:0:
320,192,83349,128,0,83660:0:0:0:0:
448,192,83815,1,0,0:0:0:0:
64,192,83815,128,0,84126:0:0:0:0:
320,192,84282,1,0,0:0:0:0:
448,192,84437,128,0,85836:0:0:0:0:
64,192,84437,1,0,0:0:0:0:
192,192,85525,1,0,0:0:0:0:
64,192,85836,1,0,0:0:0:0:
320,192,86147,1,0,0:0:0:0:
192,192,86147,1,0,0:0:0:0:
448,192,86458,128,0,86613:0:0:0:0:
64,192,86769,1,0,0:0:0:0:
192,192,86769,1,0,0:0:0:0:
320,192,87080,128,0,87235:0:0:0:0:
448,192,87390,1,0,0:0:0:0:
192,192,87390,1,0,0:0:0:0:
64,192,87701,128,0,87857:0:0:0:0:
448,192,88012,128,0,88168:0:0:0:0:
320,192,88012,1,0,0:0:0:0:
192,192,88168,128,0,88323:0:0:0:0:
320,192,88323,128,0,88479:0:0:0:0:
64,192,88634,1,0,0:0:0:0:
192,192,88634,1,0,0:0:0:0:
448,192,88945,128,0,89100:0:0:0:0:
320,192,89256,1,0,0:0:0:0:
192,192,89256,1,0,0:0:0:0:
192,192,89567,128,0,89722:0:0:0:0:
448,192,89878,1,0,0:0:0:0:
64,192,89878,1,0,0:0:0:0:
320,192,90188,128,0,90810:0:0:0:0:
64,192,90499,1,0,0:0:0:0:
448,192,90499,1,0,0:0:0:0:
192,192,90810,1,0,0:0:0:0:
448,192,91121,128,0,91277:0:0:0:0:
320,192,91121,1,0,0:0:0:0:
64,192,91432,1,0,0:0:0:0:
192,192,91743,128,0,91898:0:0:0:0:
320,192,91743,1,0,0:0:0:0:
448,192,92054,1,0,0:0:0:0:
320,192,92365,128,0,92520:0:0:0:0:
192,192,92365,1,0,0:0:0:0:
448,192,92520,128,0,92675:0:0:0:0:
64,192,92675,128,0,92831:0:0:0:0:
320,192,92831,128,0,92986:0:0:0:0:
192,192,92986,128,0,93142:0:0:0:0:
448,192,93142,128,0,93297:0:0:0:0:
64,192,93297,128,0,93453:0:0:0:0:
320,192,93297,1,0,0:0:0:0:
320,192,93608,1,0,0:0:0:0:
192,192,93608,1,0,0:0:0:0:
448,192,93919,128,0,94385:0:0:0:0:
64,192,93919,1,0,0:0:0:0:
192,192,94230,1,0,0:0:0:0:
320,192,94385,128,0,94541:0:0:0:0:
64,192,94385,1,0,0:0:0:0:
64,192,94696,1,0,0:0:0:0:
192,192,94696,1,0,0:0:0:0:
320,192,94852,1,0,0:0:0:0:
448,192,95007,1,0,0:0:0:0:
192,192,95163,1,0,0:0:0:0:
64,192,95163,1,0,0:0:0:0:
448,192,95318,1,0,0:0:0:0:
320,192,95396,1,0,0:0:0:0:
192,192,95473,1,0,0:0:0:0:
64,192,95473,1,0,0:0:0:0:
448,192,95784,1,0,0:0:0:0:
192,192,95784,1,0,0:0:0:0:
320,192,95784,1,0,0:0:0:0:
64,192,96095,1,0,0:0:0:0:
192,192,96095,1,0,0:0:0:0:
448,192,96406,1,0,0:0:0:0:
320,192,96717,1,0,0:0:0:0:
192,192,96717,1,0,0:0:0:0:
64,192,96872,128,0,97183:0:0:0:0:
448,192,97028,1,0,0:0:0:0:
320,192,97183,128,0,97494:0:0:0:0:
192,192,97339,1,0,0:0:0:0:
448,192,97494,128,0,97805:0:0:0:0:
64,192,97650,1,0,0:0:0:0:
192,192,97960,1,0,0:0:0:0:
320,192,97960,1,0,0:0:0:0:
448,192,98271,1,0,0:0:0:0:
64,192,98582,1,0,0:0:0:0:
320,192,98582,1,0,0:0:0:0:
192,192,98893,1,0,0:0:0:0:
64,192,99204,1,0,0:0:0:0:
320,192,99204,1,0,0:0:0:0:
448,192,99359,128,0,99670:0:0:0:0:
320,192,99515,1,0,0:0:0:0:
64,192,99670,128,0,99981:0:0:0:0:
192,192,99826,1,0,0:0:0:0:
320,192,99981,128,0,100292:0:0:0:0:
448,192,100137,1,0,0:0:0:0:
192,192,100292,128,0,100758:0:0:0:0:
448,192,100447,1,0,0:0:0:0:
64,192,100758,1,0,0:0:0:0:
320,192,100758,1,0,0:0:0:0:
448,192,101069,1,0,0:0:0:0:
192,192,101069,1,0,0:0:0:0:
320,192,101380,1,0,0:0:0:0:
448,192,101691,1,0,0:0:0:0:
192,192,101691,1,0,0:0:0:0:
320,192,101846,128,0,102157:0:0:0:0:
64,192,102002,1,0,0:0:0:0:
448,192,102157,128,0,102468:0:0:0:0:
192,192,102313,1,0,0:0:0:0:
64,192,102468,128,0,102779:0:0:0:0:
320,192,102624,1,0,0:0:0:0:
448,192,102935,1,0,0:0:0:0:
192,192,102935,1,0,0:0:0:0:
320,192,103245,1,0,0:0:0:0:
64,192,103556,1,0,0:0:0:0:
448,192,103556,1,0,0:0:0:0:
192,192,103867,1,0,0:0:0:0:
320,192,104178,1,0,0:0:0:0:
448,192,104178,1,0,0:0:0:0:
320,192,104333,1,0,0:0:0:0:
448,192,104333,1,0,0:0:0:0:
64,192,104489,1,0,0:0:0:0:
192,192,104644,1,0,0:0:0:0:
320,192,104644,1,0,0:0:0:0:
448,192,104800,1,0,0:0:0:0:
64,192,104955,1,0,0:0:0:0:
192,192,105033,1,0,0:0:0:0:
320,192,105111,1,0,0:0:0:0:
448,192,105111,1,0,0:0:0:0:
64,192,105266,1,0,0:0:0:0:
320,192,105422,1,0,0:0:0:0:
448,192,105577,1,0,0:0:0:0:
64,192,105732,1,0,0:0:0:0:
192,192,105732,1,0,0:0:0:0:
320,192,105732,1,0,0:0:0:0:
448,192,106043,1,0,0:0:0:0:
64,192,106043,1,0,0:0:0:0:
192,192,106354,1,0,0:0:0:0:
448,192,106510,1,0,0:0:0:0:
320,192,106510,1,0,0:0:0:0:
64,192,106665,1,0,0:0:0:0:
192,192,106821,1,0,0:0:0:0:
448,192,106976,1,0,0:0:0:0:
320,192,107287,1,0,0:0:0:0:
64,192,107287,1,0,0:0:0:0:
192,192,107442,1,0,0:0:0:0:
448,192,107598,1,0,0:0:0:0:
320,192,107753,1,0,0:0:0:0:
192,192,107909,1,0,0:0:0:0:
64,192,108064,1,0,0:0:0:0:
448,192,108220,1,0,0:0:0:0:
320,192,108220,1,0,0:0:0:0:
64,192,108530,1,0,0:0:0:0:
448,192,108530,1,0,0:0:0:0:
192,192,108686,1,0,0:0:0:0:
320,192,108841,1,0,0:0:0:0:
64,192,108997,1,0,0:0:0:0:
448,192,109152,1,0,0:0:0:0:
192,192,109308,1,0,0:0:0:0:
320,192,109463,1,0,0:0:0:0:
448,192,109774,1,0,0:0:0:0:
192,192,109774,1,0,0:0:0:0:
64,192,110085,1,0,0:0:0:0:
192,192,110240,1,0,0:0:0:0:
448,192,110396,1,0,0:0:0:0:
320,192,110396,1,0,0:0:0:0:
192,192,110551,1,0,0:0:0:0:
64,192,110707,1,0,0:0:0:0:
448,192,110707,1,0,0:0:0:0:
320,192,110707,1,0,0:0:0:0:
320,192,111017,1,0,0:0:0:0:
448,192,111017,1,0,0:0:0:0:
192,192,111328,1,0,0:0:0:0:
64,192,111484,1,0,0:0:0:0:
320,192,111484,1,0,0:0:0:0:
448,192,111639,1,0,0:0:0:0:
192,192,111795,1,0,0:0:0:0:
320,192,111950,1,0,0:0:0:0:
448,192,112261,1,0,0:0:0:0:
192,192,112261,1,0,0:0:0:0:
64,192,112572,1,0,0:0:0:0:
320,192,112727,1,0,0:0:0:0:
192,192,112883,1,0,0:0:0:0:
64,192,113038,1,0,0:0:0:0:
448,192,113194,1,0,0:0:0:0:
320,192,113504,1,0,0:0:0:0:
192,192,113504,1,0,0:0:0:0:
192,192,113815,1,0,0:0:0:0:
448,192,113971,1,0,0:0:0:0:
320,192,113971,1,0,0:0:0:0:
64,192,114126,1,0,0:0:0:0:
192,192,114282,1,0,0:0:0:0:
448,192,114437,1,0,0:0:0:0:
64,192,114748,1,0,0:0:0:0:
192,192,114748,1,0,0:0:0:0:
448,192,114903,1,0,0:0:0:0:
320,192,114981,1,0,0:0:0:0:
192,192,115059,1,0,0:0:0:0:
448,192,115214,1,0,0:0:0:0:
320,192,115370,1,0,0:0:0:0:
192,192,115525,1,0,0:0:0:0:
64,192,115681,1,0,0:0:0:0:
320,192,115681,1,0,0:0:0:0:
448,192,115681,1,0,0:0:0:0:
192,192,115992,1,0,0:0:0:0:
64,192,116302,128,0,116924:0:0:0:0:
448,192,116613,1,0,0:0:0:0:
320,192,116924,128,0,117235:0:0:0:0:
64,192,117235,1,0,0:0:0:0:
192,192,117235,128,0,117546:0:0:0:0:
64,192,117546,128,0,117857:0:0:0:0:
448,192,117857,1,0,0:0:0:0:
320,192,117857,128,0,118168:0:0:0:0:
448,192,118168,128,0,118479:0:0:0:0:
192,192,118479,1,0,0:0:0:0:
64,192,118479,128,0,118634:0:0:0:0:
320,192,118634,128,0,118945:0:0:0:0:
448,192,118945,128,0,119256:0:0:0:0:
192,192,119100,1,0,0:0:0:0:
64,192,119256,128,0,119878:0:0:0:0:
320,192,119411,1,0,0:0:0:0:
192,192,119722,1,0,0:0:0:0:
320,192,119878,1,0,0:0:0:0:
192,192,120033,1,0,0:0:0:0:
448,192,120033,1,0,0:0:0:0:
64,192,120111,1,0,0:0:0:0:
320,192,120188,1,0,0:0:0:0:
192,192,120266,1,0,0:0:0:0:
448,192,120344,1,0,0:0:0:0:
64,192,120344,1,0,0:0:0:0:
320,192,120655,1,0,0:0:0:0:
192,192,120655,1,0,0:0:0:0:
448,192,120655,1,0,0:0:0:0:
192,192,120966,1,0,0:0:0:0:
64,192,120966,1,0,0:0:0:0:
448,192,121276,1,0,0:0:0:0:
320,192,121432,1,0,0:0:0:0:
192,192,121587,1,0,0:0:0:0:
64,192,121587,1,0,0:0:0:0:
448,192,121898,1,0,0:0:0:0:
64,192,121898,1,0,0:0:0:0:
320,192,121898,1,0,0:0:0:0:
192,192,122209,1,0,0:0:0:0:
320,192,122209,1,0,0:0:0:0:
64,192,122520,1,0,0:0:0:0:
448,192,122675,1,0,0:0:0:0:
320,192,122831,1,0,0:0:0:0:
192,192,122831,1,0,0:0:0:0:
448,192,123142,1,0,0:0:0:0:
192,192,123142,1,0,0:0:0:0:
64,192,123142,1,0,0:0:0:0:
320,192,123453,1,0,0:0:0:0:
192,192,123764,1,0,0:0:0:0:
320,192,124074,1,0,0:0:0:0:
64,192,124230,1,0,0:0:0:0:
192,192,124308,1,0,0:0:0:0:
320,192,124385,1,0,0:0:0:0:
448,192,124385,1,0,0:0:0:0:
64,192,124696,1,0,0:0:0:0:
448,192,125007,1,0,0:0:0:0:
64,192,125318,1,0,0:0:0:0:
192,192,125473,1,0,0:0:0:0:
320,192,125473,1,0,0:0:0:0:
448,192,125629,1,0,0:0:0:0:
192,192,125784,1,0,0:0:0:0:
64,192,125784,1,0,0:0:0:0:
320,192,125940,1,0,0:0:0:0:
448,192,125940,1,0,0:0:0:0:
192,192,126095,1,0,0:0:0:0:
320,192,126251,1,0,0:0:0:0:
448,192,126251,1,0,0:0:0:0:
64,192,126406,1,0,0:0:0:0:
192,192,126406,1,0,0:0:0:0:
320,192,126561,1,0,0:0:0:0:
192,192,126717,1,0,0:0:0:0:
64,192,126717,1,0,0:0:0:0:
448,192,127028,1,0,0:0:0:0:
320,192,127028,1,0,0:0:0:0:
64,192,127339,1,0,0:0:0:0:
192,192,127339,1,0,0:0:0:0:
320,192,127494,1,0,0:0:0:0:
448,192,127494,1,0,0:0:0:0:
64,192,127650,1,0,0:0:0:0:
192,192,127727,1,0,0:0:0:0:
320,192,127805,1,0,0:0:0:0:
448,192,127805,1,0,0:0:0:0:
192,192,128116,1,0,0:0:0:0:
64,192,128116,1,0,0:0:0:0:
448,192,128116,1,0,0:0:0:0:
448,192,128427,1,0,0:0:0:0:
192,192,128427,1,0,0:0:0:0:
320,192,128582,128,0,128738:0:0:0:0:
64,192,128738,1,0,0:0:0:0:
448,192,128893,128,0,129049:0:0:0:0:
192,192,129049,1,0,0:0:0:0:
64,192,129204,128,0,129359:0:0:0:0:
448,192,129359,1,0,0:0:0:0:
320,192,129515,128,0,129670:0:0:0:0:
64,192,129670,1,0,0:0:0:0:
192,192,129826,128,0,129981:0:0:0:0:
320,192,129981,1,0,0:0:0:0:
448,192,130137,128,0,130292:0:0:0:0:
192,192,130292,1,0,0:0:0:0:
64,192,130447,128,0,130603:0:0:0:0:
448,192,130603,1,0,0:0:0:0:
320,192,130758,128,0,130914:0:0:0:0:
64,192,130914,1,0,0:0:0:0:
192,192,131069,128,0,131225:0:0:0:0:
320,192,131225,1,0,0:0:0:0:
448,192,131380,128,0,131536:0:0:0:0:
192,192,131536,1,0,0:0:0:0:
64,192,131691,128,0,131846:0:0:0:0:
448,192,131846,1,0,0:0:0:0:
320,192,132002,128,0,132157:0:0:0:0:
64,192,132157,1,0,0:0:0:0:
192,192,132313,128,0,132468:0:0:0:0:
320,192,132468,1,0,0:0:0:0:
448,192,132624,128,0,132779:0:0:0:0:
192,192,132779,1,0,0:0:0:0:
64,192,132935,128,0,133090:0:0:0:0:
192,192,133090,128,0,133401:0:0:0:0:
448,192,133401,128,0,133556:0:0:0:0:
320,192,133401,1,0,0:0:0:0:
64,192,133556,128,0,133712:0:0:0:0:
320,192,133712,128,0,133867:0:0:0:0:
448,192,133867,128,0,134023:0:0:0:0:
192,192,134023,128,0,134333:0:0:0:0:
64,192,134023,1,0,0:0:0:0:
64,192,134333,128,0,134644:0:0:0:0:
448,192,134644,1,0,0:0:0:0:
320,192,134800,1,0,0:0:0:0:
192,192,134955,1,0,0:0:0:0:
64,192,135266,1,0,0:0:0:0:
320,192,135266,1,0,0:0:0:0:
64,192,135577,128,0,136199:0:0:0:0:
448,192,135577,1,0,0:0:0:0:
192,192,135577,1,0,0:0:0:0:
448,192,135888,1,0,0:0:0:0:
448,192,136199,128,0,136821:0:0:0:0:
192,192,136199,1,0,0:0:0:0:
320,192,136199,1,0,0:0:0:0:
320,192,136510,1,0,0:0:0:0:
64,192,136665,1,0,0:0:0:0:
320,192,136743,1,0,0:0:0:0:
192,192,136821,128,0,137442:0:0:0:0:
64,192,136821,1,0,0:0:0:0:
320,192,136976,1,0,0:0:0:0:
448,192,137131,1,0,0:0:0:0:
64,192,137287,1,0,0:0:0:0:
320,192,137442,128,0,137753:0:0:0:0:
448,192,137442,1,0,0:0:0:0:
64,192,137598,1,0,0:0:0:0:
448,192,137753,128,0,138064:0:0:0:0:
192,192,137753,1,0,0:0:0:0:
64,192,138064,1,0,0:0:0:0:
320,192,138064,1,0,0:0:0:0:
448,192,138375,1,0,0:0:0:0:
192,192,138375,1,0,0:0:0:0:
320,192,138530,1,0,0:0:0:0:
64,192,138686,1,0,0:0:0:0:
448,192,138841,1,0,0:0:0:0:
320,192,138997,1,0,0:0:0:0:
192,192,138997,1,0,0:0:0:0:
64,192,139152,1,0,0:0:0:0:
448,192,139308,1,0,0:0:0:0:
192,192,139463,1,0,0:0:0:0:
320,192,139618,1,0,0:0:0:0:
448,192,139618,1,0,0:0:0:0:
64,192,139774,1,0,0:0:0:0:
448,192,139929,1,0,0:0:0:0:
192,192,140085,1,0,0:0:0:0:
320,192,140240,1,0,0:0:0:0:
64,192,140240,1,0,0:0:0:0:
448,192,140396,1,0,0:0:0:0:
192,192,140551,1,0,0:0:0:0:
448,192,140707,1,0,0:0:0:0:
320,192,140862,1,0,0:0:0:0:
64,192,140862,1,0,0:0:0:0:
192,192,141017,1,0,0:0:0:0:
448,192,141173,1,0,0:0:0:0:
320,192,141328,1,0,0:0:0:0:
192,192,141484,1,0,0:0:0:0:
64,192,141484,1,0,0:0:0:0:
448,192,141639,1,0,0:0:0:0:
320,192,141795,1,0,0:0:0:0:
64,192,141950,1,0,0:0:0:0:
192,192,142106,1,0,0:0:0:0:
448,192,142106,1,0,0:0:0:0:
320,192,142261,1,0,0:0:0:0:
64,192,142261,1,0,0:0:0:0:
192,192,142416,1,0,0:0:0:0:
448,192,142572,1,0,0:0:0:0:
64,192,142727,128,0,143038:0:0:0:0:
320,192,142727,1,0,0:0:0:0:
448,192,143038,128,0,143349:0:0:0:0:
192,192,143038,1,0,0:0:0:0:
320,192,143349,128,0,143660:0:0:0:0:
64,192,143349,1,0,0:0:0:0:
192,192,143660,128,0,143971:0:0:0:0:
448,192,143660,1,0,0:0:0:0:
448,192,143971,128,0,144282:0:0:0:0:
320,192,143971,1,0,0:0:0:0:
64,192,144282,128,0,144593:0:0:0:0:
192,192,144282,1,0,0:0:0:0:
320,192,144593,1,0,0:0:0:0:
320,192,144903,128,0,145214:0:0:0:0:
448,192,144903,1,0,0:0:0:0:
64,192,145214,128,0,145525:0:0:0:0:
192,192,145214,1,0,0:0:0:0:
448,192,145525,128,0,145836:0:0:0:0:
320,192,145525,1,0,0:0:0:0:
192,192,145525,1,0,0:0:0:0:
192,192,145836,128,0,146147:0:0:0:0:
64,192,145836,1,0,0:0:0:0:
320,192,146147,128,0,146458:0:0:0:0:
448,192,146147,1,0,0:0:0:0:
64,192,146147,1,0,0:0:0:0:
64,192,146458,128,0,146769:0:0:0:0:
192,192,146458,1,0,0:0:0:0:
448,192,146769,1,0,0:0:0:0:
320,192,146924,1,0,0:0:0:0:
192,192,146924,1,0,0:0:0:0:
320,192,147080,1,0,0:0:0:0:
64,192,147080,1,0,0:0:0:0:
64,192,147235,1,0,0:0:0:0:
448,192,147235,1,0,0:0:0:0:
320,192,147390,1,0,0:0:0:0:
192,192,147468,1,0,0:0:0:0:
448,192,147546,1,0,0:0:0:0:
320,192,147624,1,0,0:0:0:0:
64,192,147701,1,0,0:0:0:0:
192,192,147779,1,0,0:0:0:0:
320,192,147857,1,0,0:0:0:0:
448,192,147935,1,0,0:0:0:0:
192,192,148012,1,0,0:0:0:0:
64,192,148012,1,0,0:0:0:0:
448,192,148323,1,0,0:0:0:0:
320,192,148323,1,0,0:0:0:0:
64,192,148479,128,0,148634:0:0:0:0:
192,192,148634,1,0,0:0:0:0:
448,192,148789,128,0,148945:0:0:0:0:
64,192,148945,1,0,0:0:0:0:
320,192,149100,128,0,149256:0:0:0:0:
448,192,149256,1,0,0:0:0:0:
192,192,149411,128,0,149567:0:0:0:0:
320,192,149567,1,0,0:0:0:0:
448,192,149722,128,0,149878:0:0:0:0:
192,192,149878,1,0,0:0:0:0:
64,192,150033,128,0,150188:0:0:0:0:
448,192,150188,1,0,0:0:0:0:
320,192,150344,128,0,150499:0:0:0:0:
64,192,150499,1,0,0:0:0:0:
448,192,150655,128,0,150810:0:0:0:0:
192,192,150810,1,0,0:0:0:0:
64,192,150966,128,0,151121:0:0:0:0:
448,192,151121,1,0,0:0:0:0:
320,192,151277,128,0,151432:0:0:0:0:
64,192,151432,1,0,0:0:0:0:
192,192,151587,128,0,151743:0:0:0:0:
320,192,151743,1,0,0:0:0:0:
448,192,151898,128,0,152054:0:0:0:0:
192,192,152054,1,0,0:0:0:0:
64,192,152209,128,0,152365:0:0:0:0:
448,192,152365,1,0,0:0:0:0:
320,192,152520,128,0,152675:0:0:0:0:
192,192,152675,1,0,0:0:0:0:
448,192,152831,128,0,152986:0:0:0:0:
64,192,152986,1,0,0:0:0:0:
192,192,152986,1,0,0:0:0:0:
320,192,153142,1,0,0:0:0:0:
192,192,153297,1,0,0:0:0:0:
448,192,153453,1,0,0:0:0:0:
320,192,153608,1,0,0:0:0:0:
192,192,153764,1,0,0:0:0:0:
448,192,153919,1,0,0:0:0:0:
64,192,154074,1,0,0:0:0:0:
192,192,154230,1,0,0:0:0:0:
448,192,154385,1,0,0:0:0:0:
320,192,154541,1,0,0:0:0:0:
192,192,154696,1,0,0:0:0:0:
448,192,154852,1,0,0:0:0:0:
64,192,155007,1,0,0:0:0:0:
320,192,155163,1,0,0:0:0:0:
192,192,155318,1,0,0:0:0:0:
320,192,155473,1,0,0:0:0:0:
192,192,155784,1,0,0:0:0:0:
64,192,155784,1,0,0:0:0:0:
448,192,155784,1,0,0:0:0:0:
320,192,155940,1,0,0:0:0:0:
320,192,156095,1,0,0:0:0:0:
192,192,156406,1,0,0:0:0:0:
64,192,156406,1,0,0:0:0:0:
448,192,156406,1,0,0:0:0:0:
320,192,156561,1,0,0:0:0:0:
448,192,156872,128,0,157960:0:0:0:0:
64,192,156872,1,0,0:0:0:0:
320,192,156872,1,0,0:0:0:0:
192,192,157028,1,0,0:0:0:0:
320,192,157183,1,0,0:0:0:0:
64,192,157183,1,0,0:0:0:0:
192,192,157339,1,0,0:0:0:0:
64,192,157494,1,0,0:0:0:0:
320,192,157494,1,0,0:0:0:0:
192,192,157572,1,0,0:0:0:0:
320,192,157650,1,0,0:0:0:0:
192,192,157727,1,0,0:0:0:0:
64,192,157805,1,0,0:0:0:0:
320,192,157883,1,0,0:0:0:0:
64,192,157960,128,0,158427:0:0:0:0:
192,192,157960,1,0,0:0:0:0:
192,192,158116,1,0,0:0:0:0:
320,192,158271,1,0,0:0:0:0:
448,192,158582,1,0,0:0:0:0:
192,192,158582,1,0,0:0:0:0:
320,192,158893,1,0,0:0:0:0:
64,192,158893,1,0,0:0:0:0:
448,192,159049,128,0,159670:0:0:0:0:
192,192,159049,1,0,0:0:0:0:
64,192,159049,1,0,0:0:0:0:
320,192,159359,1,0,0:0:0:0:
64,192,159515,1,0,0:0:0:0:
192,192,159515,1,0,0:0:0:0:
320,192,159826,1,0,0:0:0:0:
192,192,159826,1,0,0:0:0:0:
448,192,159981,1,0,0:0:0:0:
320,192,160137,1,0,0:0:0:0:
64,192,160137,1,0,0:0:0:0:
192,192,160447,128,0,161069:0:0:0:0:
448,192,160447,1,0,0:0:0:0:
320,192,160447,1,0,0:0:0:0:
64,192,160603,1,0,0:0:0:0:
320,192,160758,1,0,0:0:0:0:
448,192,161069,1,0,0:0:0:0:
320,192,161225,1,0,0:0:0:0:
192,192,161380,1,0,0:0:0:0:
64,192,161380,1,0,0:0:0:0:
448,192,161536,128,0,162157:0:0:0:0:
320,192,161536,1,0,0:0:0:0:
192,192,161536,1,0,0:0:0:0:
64,192,161846,1,0,0:0:0:0:
320,192,162002,1,0,0:0:0:0:
192,192,162002,1,0,0:0:0:0:
192,192,162313,1,0,0:0:0:0:
320,192,162313,1,0,0:0:0:0:
448,192,162468,1,0,0:0:0:0:
320,192,162546,1,0,0:0:0:0:
64,192,162624,1,0,0:0:0:0:
192,192,162624,1,0,0:0:0:0:
64,192,162935,128,0,163556:0:0:0:0:
448,192,162935,1,0,0:0:0:0:
320,192,162935,1,0,0:0:0:0:
192,192,163090,1,0,0:0:0:0:
320,192,163245,1,0,0:0:0:0:
448,192,163245,1,0,0:0:0:0:
192,192,163556,1,0,0:0:0:0:
448,192,163712,1,0,0:0:0:0:
192,192,163867,1,0,0:0:0:0:
64,192,163867,1,0,0:0:0:0:
320,192,164023,128,0,164644:0:0:0:0:
448,192,164023,1,0,0:0:0:0:
64,192,164023,1,0,0:0:0:0:
192,192,164333,1,0,0:0:0:0:
64,192,164489,1,0,0:0:0:0:
448,192,164489,1,0,0:0:0:0:
192,192,164800,1,0,0:0:0:0:
64,192,164800,1,0,0:0:0:0:
448,192,164955,1,0,0:0:0:0:
320,192,165111,1,0,0:0:0:0:
192,192,165111,1,0,0:0:0:0:
64,192,165422,128,0,166043:0:0:0:0:
448,192,165422,1,0,0:0:0:0:
320,192,165422,1,0,0:0:0:0:
192,192,165577,1,0,0:0:0:0:
448,192,165732,1,0,0:0:0:0:
320,192,165732,1,0,0:0:0:0:
192,192,166043,1,0,0:0:0:0:
320,192,166199,1,0,0:0:0:0:
192,192,166354,1,0,0:0:0:0:
64,192,166354,1,0,0:0:0:0:
448,192,166510,128,0,167131:0:0:0:0:
320,192,166510,1,0,0:0:0:0:
64,192,166510,1,0,0:0:0:0:
192,192,166821,1,0,0:0:0:0:
64,192,166976,1,0,0:0:0:0:
320,192,166976,1,0,0:0:0:0:
192,192,167131,1,0,0:0:0:0:
448,192,167287,1,0,0:0:0:0:
320,192,167365,1,0,0:0:0:0:
192,192,167442,1,0,0:0:0:0:
64,192,167520,1,0,0:0:0:0:
192,192,167598,1,0,0:0:0:0:
320,192,167675,1,0,0:0:0:0:
448,192,167753,1,0,0:0:0:0:
64,192,167831,1,0,0:0:0:0:
192,192,167909,1,0,0:0:0:0:
320,192,167909,1,0,0:0:0:0:
192,192,168220,1,0,0:0:0:0:
64,192,168220,1,0,0:0:0:0:
448,192,168530,1,0,0:0:0:0:
320,192,168530,1,0,0:0:0:0:
192,192,168686,1,0,0:0:0:0:
64,192,168841,1,0,0:0:0:0:
320,192,168841,1,0,0:0:0:0:
448,192,168997,1,0,0:0:0:0:
192,192,169152,1,0,0:0:0:0:
64,192,169152,1,0,0:0:0:0:
320,192,169463,1,0,0:0:0:0:
448,192,169463,1,0,0:0:0:0:
192,192,169774,1,0,0:0:0:0:
320,192,169774,1,0,0:0:0:0:
64,192,169929,1,0,0:0:0:0:
448,192,170085,1,0,0:0:0:0:
192,192,170085,1,0,0:0:0:0:
320,192,170240,1,0,0:0:0:0:
192,192,170396,1,0,0:0:0:0:
448,192,170396,1,0,0:0:0:0:
64,192,170707,1,0,0:0:0:0:
448,192,170707,1,0,0:0:0:0:
320,192,171017,1,0,0:0:0:0:
192,192,171017,1,0,0:0:0:0:
448,192,171173,1,0,0:0:0:0:
192,192,171328,1,0,0:0:0:0:
64,192,171328,1,0,0:0:0:0:
320,192,171484,1,0,0:0:0:0:
448,192,171639,1,0,0:0:0:0:
64,192,171639,1,0,0:0:0:0:
192,192,171950,1,0,0:0:0:0:
320,192,171950,1,0,0:0:0:0:
448,192,172261,1,0,0:0:0:0:
64,192,172261,1,0,0:0:0:0:
192,192,172416,1,0,0:0:0:0:
320,192,172572,1,0,0:0:0:0:
448,192,172572,1,0,0:0:0:0:
64,192,172572,1,0,0:0:0:0:
192,192,172727,1,0,0:0:0:0:
320,192,172883,1,0,0:0:0:0:
448,192,172883,1,0,0:0:0:0:
64,192,172883,1,0,0:0:0:0:
320,192,173194,1,0,0:0:0:0:
448,192,173194,1,0,0:0:0:0:
64,192,173504,1,0,0:0:0:0:
192,192,173815,1,0,0:0:0:0:
448,192,173815,1,0,0:0:0:0:
320,192,174126,1,0,0:0:0:0:
64,192,174126,1,0,0:0:0:0:
448,192,174126,1,0,0:0:0:0:
448,192,174437,1,0,0:0:0:0:
192,192,174437,1,0,0:0:0:0:
320,192,174748,1,0,0:0:0:0:
64,192,175059,1,0,0:0:0:0:
448,192,175059,1,0,0:0:0:0:
192,192,175370,1,0,0:0:0:0:
320,192,175370,1,0,0:0:0:0:
64,192,175370,128,0,176613:0:0:0:0:
320,192,176458,1,0,0:0:0:0:
192,192,176536,1,0,0:0:0:0:
448,192,176613,128,0,177857:0:0:0:0:
320,192,176613,1,0,0:0:0:0:
64,192,177857,1,0,0:0:0:0:
192,192,177857,1,0,0:0:0:0:
320,192,178012,1,0,0:0:0:0:
448,192,178012,1,0,0:0:0:0:
448,192,178323,1,0,0:0:0:0:
320,192,178323,1,0,0:0:0:0:
192,192,178479,1,0,0:0:0:0:
64,192,178479,1,0,0:0:0:0:
448,192,178789,1,0,0:0:0:0:
320,192,178789,1,0,0:0:0:0:
192,192,178945,1,0,0:0:0:0:
64,192,178945,1,0,0:0:0:0:
320,192,179256,1,0,0:0:0:0:
192,192,179256,1,0,0:0:0:0:
448,192,179411,1,0,0:0:0:0:
64,192,179411,1,0,0:0:0:0:
192,192,179722,1,0,0:0:0:0:
320,192,179722,1,0,0:0:0:0:
448,192,179878,1,0,0:0:0:0:
64,192,179878,1,0,0:0:0:0:
192,192,180188,1,0,0:0:0:0:
320,192,180188,1,0,0:0:0:0:
448,192,180188,1,0,0:0:0:0:
64,192,180499,1,0,0:0:0:0:
192,192,180499,1,0,0:0:0:0:
320,192,180655,1,0,0:0:0:0:
448,192,180655,1,0,0:0:0:0:
192,192,180810,1,0,0:0:0:0:
64,192,180810,1,0,0:0:0:0:
320,192,180966,1,0,0:0:0:0:
448,192,180966,1,0,0:0:0:0:
192,192,181121,1,0,0:0:0:0:
64,192,181121,1,0,0:0:0:0:
320,192,181432,1,0,0:0:0:0:
64,192,181432,1,0,0:0:0:0:
448,192,181432,128,0,182831:0:0:0:0:
192,192,182675,1,0,0:0:0:0:
320,192,182753,1,0,0:0:0:0:
64,192,182831,128,0,183142:0:0:0:0:
192,192,182831,1,0,0:0:0:0:
192,192,183142,128,0,183453:0:0:0:0:
448,192,183453,128,0,183764:0:0:0:0:
320,192,183764,128,0,184074:0:0:0:0:
64,192,184074,128,0,184385:0:0:0:0:
192,192,184385,128,0,184696:0:0:0:0:
448,192,184696,128,0,185007:0:0:0:0:
64,192,185007,128,0,185163:0:0:0:0:
320,192,185318,128,0,185629:0:0:0:0:
192,192,185629,128,0,185940:0:0:0:0:
448,192,185940,128,0,186251:0:0:0:0:
64,192,186251,128,0,186561:0:0:0:0:
320,192,186561,128,0,186872:0:0:0:0:
448,192,186872,128,0,187183:0:0:0:0:
192,192,187183,128,0,187494:0:0:0:0:
64,192,187494,128,0,187650:0:0:0:0:
448,192,187805,128,0,188116:0:0:0:0:
320,192,188116,128,0,188427:0:0:0:0:
192,192,188427,128,0,188738:0:0:0:0:
448,192,188738,128,0,189049:0:0:0:0:
64,192,189049,128,0,189359:0:0:0:0:
320,192,189359,128,0,189670:0:0:0:0:
192,192,189670,128,0,189981:0:0:0:0:
448,192,189981,128,0,190137:0:0:0:0:
320,192,190292,128,0,190603:0:0:0:0:
192,192,190603,128,0,190914:0:0:0:0:
448,192,190914,128,0,191225:0:0:0:0:
64,192,191225,128,0,191536:0:0:0:0:
320,192,191536,128,0,191846:0:0:0:0:
448,192,191846,1,0,0:0:0:0:
64,192,192002,1,0,0:0:0:0:
192,192,192080,1,0,0:0:0:0:
320,192,192157,1,0,0:0:0:0:
448,192,192157,1,0,0:0:0:0:
64,192,192313,1,0,0:0:0:0:
448,192,192468,1,0,0:0:0:0:
320,192,192624,1,0,0:0:0:0:
192,192,192779,1,0,0:0:0:0:
64,192,192779,1,0,0:0:0:0:
448,192,192779,1,0,0:0:0:0:
320,192,193090,1,0,0:0:0:0:
192,192,193401,1,0,0:0:0:0:
448,192,193401,1,0,0:0:0:0:
64,192,193712,1,0,0:0:0:0:
448,192,193867,1,0,0:0:0:0:
320,192,193945,1,0,0:0:0:0:
192,192,194023,1,0,0:0:0:0:
64,192,194023,1,0,0:0:0:0:
448,192,194178,1,0,0:0:0:0:
192,192,194333,1,0,0:0:0:0:
320,192,194644,1,0,0:0:0:0:
448,192,194644,1,0,0:0:0:0:
64,192,194955,1,0,0:0:0:0:
448,192,195111,1,0,0:0:0:0:
320,192,195111,1,0,0:0:0:0:
192,192,195266,1,0,0:0:0:0:
320,192,195577,1,0,0:0:0:0:
448,192,195888,1,0,0:0:0:0:
64,192,195888,1,0,0:0:0:0:
192,192,196199,1,0,0:0:0:0:
64,192,196354,1,0,0:0:0:0:
192,192,196432,1,0,0:0:0:0:
320,192,196510,1,0,0:0:0:0:
448,192,196510,1,0,0:0:0:0:
448,192,196665,1,0,0:0:0:0:
320,192,196821,1,0,0:0:0:0:
192,192,197131,1,0,0:0:0:0:
64,192,197131,1,0,0:0:0:0:
320,192,197442,128,0,197753:0:0:0:0:
64,192,197598,1,0,0:0:0:0:
448,192,197753,128,0,198064:0:0:0:0:
192,192,197753,1,0,0:0:0:0:
64,192,198064,128,0,198220:0:0:0:0:
320,192,198220,128,0,198375:0:0:0:0:
192,192,198375,128,0,198686:0:0:0:0:
448,192,198375,1,0,0:0:0:0:
448,192,198686,128,0,198997:0:0:0:0:
64,192,198997,128,0,199308:0:0:0:0:
320,192,198997,1,0,0:0:0:0:
320,192,199618,128,0,199929:0:0:0:0:
192,192,199618,1,0,0:0:0:0:
448,192,199929,128,0,200240:0:0:0:0:
64,192,200240,128,0,200551:0:0:0:0:
192,192,200240,1,0,0:0:0:0:
192,192,200551,128,0,200862:0:0:0:0:
320,192,200551,1,0,0:0:0:0:
448,192,200862,128,0,201173:0:0:0:0:
64,192,200862,1,0,0:0:0:0:
320,192,201173,128,0,201484:0:0:0:0:
192,192,201173,1,0,0:0:0:0:
64,192,201484,128,0,201795:0:0:0:0:
192,192,201484,1,0,0:0:0:0:
448,192,201639,1,0,0:0:0:0:
192,192,201795,128,0,202106:0:0:0:0:
320,192,202106,128,0,202416:0:0:0:0:
448,192,202106,1,0,0:0:0:0:
64,192,202261,1,0,0:0:0:0:
192,192,202727,1,0,0:0:0:0:
64,192,202727,1,0,0:0:0:0:
448,192,202727,1,0,0:0:0:0:
448,192,203038,1,0,0:0:0:0:
320,192,203038,1,0,0:0:0:0:
64,192,203194,128,0,203349:0:0:0:0:
320,192,203349,1,0,0:0:0:0:
448,192,203504,128,0,203660:0:0:0:0:
64,192,203660,1,0,0:0:0:0:
192,192,203815,128,0,203971:0:0:0:0:
320,192,203971,1,0,0:0:0:0:
448,192,204126,128,0,204282:0:0:0:0:
192,192,204282,1,0,0:0:0:0:
320,192,204437,128,0,204593:0:0:0:0:
448,192,204593,1,0,0:0:0:0:
64,192,204748,128,0,204903:0:0:0:0:
320,192,204903,1,0,0:0:0:0:
192,192,205059,128,0,205214:0:0:0:0:
64,192,205214,1,0,0:0:0:0:
448,192,205370,128,0,205525:0:0:0:0:
320,192,205525,1,0,0:0:0:0:
64,192,205681,128,0,205836:0:0:0:0:
192,192,205836,1,0,0:0:0:0:
448,192,205992,128,0,206147:0:0:0:0:
320,192,206147,1,0,0:0:0:0:
192,192,206302,128,0,206458:0:0:0:0:
64,192,206458,1,0,0:0:0:0:
448,192,206613,128,0,206769:0:0:0:0:
192,192,206769,1,0,0:0:0:0:
320,192,206924,128,0,207080:0:0:0:0:
448,192,207080,1,0,0:0:0:0:
64,192,207235,128,0,207390:0:0:0:0:
192,192,207390,1,0,0:0:0:0:
448,192,207546,128,0,207701:0:0:0:0:
64,192,207701,128,0,208012:0:0:0:0:
320,192,207701,1,0,0:0:0:0:
192,192,208012,128,0,208168:0:0:0:0:
320,192,208012,1,0,0:0:0:0:
448,192,208168,128,0,208323:0:0:0:0:
320,192,208323,128,0,208479:0:0:0:0:
64,192,208479,128,0,208634:0:0:0:0:
448,192,208634,128,0,208945:0:0:0:0:
192,192,208634,1,0,0:0:0:0:
64,192,208945,128,0,209256:0:0:0:0:
320,192,209256,1,0,0:0:0:0:
192,192,209567,1,0,0:0:0:0:
448,192,209878,1,0,0:0:0:0:
448,192,210188,1,0,0:0:0:0:
320,192,210188,1,0,0:0:0:0:
64,192,210188,128,0,210810:0:0:0:0:
192,192,210499,1,0,0:0:0:0:
192,192,210810,1,0,0:0:0:0:
320,192,210810,1,0,0:0:0:0:
448,192,210810,128,0,211432:0:0:0:0:
192,192,211121,1,0,0:0:0:0:
320,192,211432,1,0,0:0:0:0:
192,192,211432,128,0,212054:0:0:0:0:
64,192,211587,1,0,0:0:0:0:
320,192,211743,1,0,0:0:0:0:
448,192,211898,1,0,0:0:0:0:
320,192,212054,128,0,212365:0:0:0:0:
64,192,212054,1,0,0:0:0:0:
192,192,212209,1,0,0:0:0:0:
64,192,212365,1,0,0:0:0:0:
448,192,212365,128,0,212675:0:0:0:0:
64,192,212675,1,0,0:0:0:0:
320,192,212986,1,0,0:0:0:0:
448,192,212986,1,0,0:0:0:0:
192,192,213142,1,0,0:0:0:0:
64,192,213297,1,0,0:0:0:0:
448,192,213453,1,0,0:0:0:0:
320,192,213608,1,0,0:0:0:0:
192,192,213608,1,0,0:0:0:0:
448,192,213764,1,0,0:0:0:0:
64,192,213919,1,0,0:0:0:0:
192,192,214074,1,0,0:0:0:0:
320,192,214230,1,0,0:0:0:0:
448,192,214230,1,0,0:0:0:0:
64,192,214385,1,0,0:0:0:0:
320,192,214541,1,0,0:0:0:0:
192,192,214696,1,0,0:0:0:0:
448,192,214852,1,0,0:0:0:0:
64,192,214852,1,0,0:0:0:0:
192,192,215007,1,0,0:0:0:0:
320,192,215163,1,0,0:0:0:0:
448,192,215163,1,0,0:0:0:0:
64,192,215318,1,0,0:0:0:0:
192,192,215473,1,0,0:0:0:0:
448,192,215473,1,0,0:0:0:0:
64,192,215629,1,0,0:0:0:0:
320,192,215784,1,0,0:0:0:0:
448,192,215940,1,0,0:0:0:0:
64,192,216095,1,0,0:0:0:0:
192,192,216095,1,0,0:0:0:0:
320,192,216251,1,0,0:0:0:0:
448,192,216406,1,0,0:0:0:0:
192,192,216561,1,0,0:0:0:0:
64,192,216717,1,0,0:0:0:0:
448,192,216717,1,0,0:0:0:0:
320,192,216872,1,0,0:0:0:0:
192,192,217028,1,0,0:0:0:0:
448,192,217183,1,0,0:0:0:0:
64,192,217339,128,0,217650:0:0:0:0:
320,192,217339,1,0,0:0:0:0:
192,192,217650,1,0,0:0:0:0:
448,192,217650,128,0,217960:0:0:0:0:
320,192,217650,1,0,0:0:0:0:
320,192,217960,1,0,0:0:0:0:
192,192,217960,128,0,218271:0:0:0:0:
448,192,218271,1,0,0:0:0:0:
320,192,218271,128,0,218582:0:0:0:0:
192,192,218582,1,0,0:0:0:0:
64,192,218582,128,0,218893:0:0:0:0:
320,192,218893,1,0,0:0:0:0:
448,192,218893,128,0,219204:0:0:0:0:
192,192,218893,1,0,0:0:0:0:
192,192,219204,1,0,0:0:0:0:
320,192,219515,1,0,0:0:0:0:
448,192,219515,128,0,219826:0:0:0:0:
192,192,219826,1,0,0:0:0:0:
64,192,219826,128,0,220137:0:0:0:0:
320,192,220137,1,0,0:0:0:0:
448,192,220137,128,0,220447:0:0:0:0:
192,192,220137,1,0,0:0:0:0:
64,192,220447,1,0,0:0:0:0:
192,192,220447,128,0,220758:0:0:0:0:
448,192,220758,1,0,0:0:0:0:
64,192,220758,128,0,221069:0:0:0:0:
320,192,220758,1,0,0:0:0:0:
192,192,221069,1,0,0:0:0:0:
320,192,221069,128,0,221380:0:0:0:0:
64,192,221380,1,0,0:0:0:0:
448,192,221380,128,0,221691:0:0:0:0:
192,192,221536,1,0,0:0:0:0:
320,192,221691,1,0,0:0:0:0:
192,192,221691,128,0,222002:0:0:0:0:
448,192,221846,1,0,0:0:0:0:
64,192,222002,128,0,222624:0:0:0:0:
320,192,222002,1,0,0:0:0:0:
448,192,222157,1,0,0:0:0:0:
320,192,222235,1,0,0:0:0:0:
192,192,222313,1,0,0:0:0:0:
320,192,222390,1,0,0:0:0:0:
448,192,222468,1,0,0:0:0:0:
320,192,222546,1,0,0:0:0:0:
192,192,222624,128,0,225111:0:0:0:0:
448,192,222624,1,0,0:0:0:0:
448,192,222935,1,0,0:0:0:0:
64,192,222935,1,0,0:0:0:0:
320,192,223245,1,0,0:0:0:0:
448,192,223556,1,0,0:0:0:0:
320,192,223556,1,0,0:0:0:0:
64,192,223867,1,0,0:0:0:0:
448,192,224178,1,0,0:0:0:0:
320,192,224178,1,0,0:0:0:0:
448,192,224489,1,0,0:0:0:0:
64,192,224800,1,0,0:0:0:0:
320,192,224800,1,0,0:0:0:0:
448,192,225111,1,0,0:0:0:0:
64,192,225422,1,0,0:0:0:0:
320,192,225422,1,0,0:0:0:0:
192,192,225732,1,0,0:0:0:0:
448,192,226043,1,0,0:0:0:0:
320,192,226043,1,0,0:0:0:0:
64,192,226354,1,0,0:0:0:0:
192,192,226665,1,0,0:0:0:0:
320,192,226665,1,0,0:0:0:0:
448,192,226976,128,0,227598:0:0:0:0:
64,192,226976,1,0,0:0:0:0:
320,192,227287,1,0,0:0:0:0:
192,192,227287,1,0,0:0:0:0:
64,192,227598,128,0,229774:0:0:0:0:
192,192,227598,1,0,0:0:0:0:
448,192,227909,1,0,0:0:0:0:
320,192,227909,1,0,0:0:0:0:
192,192,228220,1,0,0:0:0:0:
448,192,228530,1,0,0:0:0:0:
192,192,228530,1,0,0:0:0:0:
320,192,228841,1,0,0:0:0:0:
448,192,229152,1,0,0:0:0:0:
192,192,229152,1,0,0:0:0:0:
320,192,229463,1,0,0:0:0:0:
448,192,229774,1,0,0:0:0:0:
192,192,229929,1,0,0:0:0:0:
320,192,230007,1,0,0:0:0:0:
448,192,230085,1,0,0:0:0:0:
64,192,230085,1,0,0:0:0:0:
320,192,230396,1,0,0:0:0:0:
192,192,230551,1,0,0:0:0:0:
64,192,230629,1,0,0:0:0:0:
192,192,230707,1,0,0:0:0:0:
320,192,230862,1,0,0:0:0:0:
192,192,231017,1,0,0:0:0:0:
320,192,231173,1,0,0:0:0:0:
448,192,231251,1,0,0:0:0:0:
320,192,231328,1,0,0:0:0:0:
192,192,231484,1,0,0:0:0:0:
64,192,231639,1,0,0:0:0:0:
448,192,231795,1,0,0:0:0:0:
320,192,231872,1,0,0:0:0:0:
192,192,231950,1,0,0:0:0:0:
448,192,232106,1,0,0:0:0:0:
64,192,232261,1,0,0:0:0:0:
192,192,232339,1,0,0:0:0:0:
320,192,232416,1,0,0:0:0:0:
448,192,232494,1,0,0:0:0:0:
64,192,232572,128,0,233660:0:0:0:0:
192,192,232572,1,0,0:0:0:0:
448,192,232727,1,0,0:0:0:0:
320,192,232883,1,0,0:0:0:0:
192,192,233038,1,0,0:0:0:0:
448,192,233194,1,0,0:0:0:0:
192,192,233349,1,0,0:0:0:0:
320,192,233504,1,0,0:0:0:0:
448,192,233660,128,0,233815:0:0:0:0:
192,192,233660,1,0,0:0:0:0:
320,192,233815,128,0,234903:0:0:0:0:
192,192,233971,1,0,0:0:0:0:
448,192,234126,1,0,0:0:0:0:
64,192,234282,1,0,0:0:0:0:
192,192,234437,1,0,0:0:0:0:
448,192,234593,1,0,0:0:0:0:
64,192,234748,1,0,0:0:0:0:
64,192,234903,128,0,235059:0:0:0:0:
192,192,234903,1,0,0:0:0:0:
448,192,235059,128,0,236458:0:0:0:0:
192,192,235214,1,0,0:0:0:0:
64,192,235370,1,0,0:0:0:0:
320,192,235525,1,0,0:0:0:0:
64,192,235681,1,0,0:0:0:0:
192,192,235836,1,0,0:0:0:0:
64,192,235992,1,0,0:0:0:0:
320,192,236147,1,0,0:0:0:0:
192,192,236302,1,0,0:0:0:0:
64,192,236458,128,0,236769:0:0:0:0:
192,192,236613,1,0,0:0:0:0:
320,192,236769,128,0,237080:0:0:0:0:
192,192,236924,1,0,0:0:0:0:
448,192,237080,128,0,237390:0:0:0:0:
64,192,237235,1,0,0:0:0:0:
192,192,237390,128,0,237546:0:0:0:0:
64,192,237546,128,0,238168:0:0:0:0:
320,192,237546,1,0,0:0:0:0:
448,192,237701,1,0,0:0:0:0:
192,192,237857,1,0,0:0:0:0:
448,192,238012,1,0,0:0:0:0:
320,192,238168,128,0,238789:0:0:0:0:
192,192,238323,1,0,0:0:0:0:
64,192,238479,1,0,0:0:0:0:
192,192,238634,1,0,0:0:0:0:
448,192,238789,128,0,239100:0:0:0:0:
192,192,238945,1,0,0:0:0:0:
64,192,239100,128,0,240033:0:0:0:0:
448,192,239256,1,0,0:0:0:0:
192,192,239411,1,0,0:0:0:0:
320,192,239567,1,0,0:0:0:0:
448,192,239722,1,0,0:0:0:0:
192,192,239722,1,0,0:0:0:0:
192,192,240033,128,0,240344:0:0:0:0:
320,192,240033,1,0,0:0:0:0:
448,192,240499,128,0,240810:0:0:0:0:
320,192,240499,1,0,0:0:0:0:
64,192,240966,128,0,241276:0:0:0:0:
192,192,240966,1,0,0:0:0:0:
320,192,241432,128,0,242520:0:0:0:0:
448,192,241432,1,0,0:0:0:0:
64,192,241743,1,0,0:0:0:0:
192,192,241743,1,0,0:0:0:0:
448,192,241898,1,0,0:0:0:0:
192,192,242054,1,0,0:0:0:0:
64,192,242054,1,0,0:0:0:0:
192,192,242209,1,0,0:0:0:0:
64,192,242209,1,0,0:0:0:0:
64,192,242520,128,0,246872:0:0:0:0:
192,192,242520,1,0,0:0:0:0:
448,192,242520,1,0,0:0:0:0:
192,192,246717,1,0,0:0:0:0:
320,192,246795,1,0,0:0:0:0:
192,192,246872,1,0,0:0:0:0:
448,192,246872,1,0,0:0:0:0:
192,192,247028,1,0,0:0:0:0:
64,192,247028,1,0,0:0:0:0:
320,192,247183,1,0,0:0:0:0:
448,192,247183,1,0,0:0:0:0:
192,192,247339,1,0,0:0:0:0:
64,192,247339,1,0,0:0:0:0:
