osu file format v14

[General]
AudioFilename: audio.mp3
AudioLeadIn: 0
PreviewTime: 55241
Countdown: 1
SampleSet: Soft
StackLeniency: 0.7
Mode: 0
LetterboxInBreaks: 0
WidescreenStoryboard: 0

[Editor]
DistanceSpacing: 2.5
BeatDivisor: 4
GridSize: 4
TimelineZoom: 1

[Metadata]
Title:Now Loading!!!!
TitleUnicode:Now Loading!!!!
Artist:fourfolium
ArtistUnicode:fourfolium
Creator:corninho
Version:Loading!!!!!
Source:New Game!
Tags:suzukaze aoba ending ed fourfolium ニューゲーム フォーフォリウム
BeatmapID:1518983
BeatmapSetID:719284

[Difficulty]
HPDrainRate:7
CircleSize:4
OverallDifficulty:8
ApproachRate:9.3
SliderMultiplier:1.4
SliderTickRate:1

[Events]
//Background and Video events
0,0,"new-game-577e045d1a612.jpg",0,0
//Break Periods
//Storyboard Layer 0 (Background)
//Storyboard Layer 1 (Fail)
//Storyboard Layer 2 (Pass)
//Storyboard Layer 3 (Foreground)
//Storyboard Sound Samples

[TimingPoints]
526,310.880829015544,4,2,0,30,1,0
55241,-100,4,2,0,20,0,1
75137,-100,4,2,0,20,0,0

[HitObjects]
113,205,526,6,0,L|97:296,1,70
239,291,836,2,0,L|255:216,1,70
204,90,1147,2,2,P|243:62|342:55,1,140
402,132,1614,1,0,0:0:0:0:
396,271,1769,1,0,0:0:0:0:
256,268,1924,1,0,0:0:0:0:
249,127,2080,2,0,P|237:85|205:46,1,70
87,101,2391,2,6,P|104:130|113:164,1,70
117,305,2702,5,0,0:0:0:0:
147,322,2779,1,4,0:0:0:0:
178,336,2857,1,0,0:0:0:0:
211,346,2935,1,4,0:0:0:0:
246,347,3013,2,0,P|283:340|317:309,1,70
363,192,3323,5,0,0:0:0:0:
196,156,3479,1,0,0:0:0:0:
348,88,3634,1,0,0:0:0:0:
180,64,3790,1,0,0:0:0:0:
340,20,3945,1,0,0:0:0:0:
265,83,4101,6,2,P|313:53|340:43,1,70
402,205,4412,2,0,P|370:220|341:240,1,70
176,295,4722,2,0,L|112:334,1,70
76,160,5033,2,2,P|141:186|206:241,1,140
315,303,5500,6,0,P|346:330|374:362,1,70
482,275,5810,1,0,0:0:0:0:
384,129,5966,1,0,0:0:0:0:
252,243,6121,1,0,0:0:0:0:
99,156,6277,1,0,0:0:0:0:
268,114,6432,1,0,0:0:0:0:
105,47,6588,6,2,P|70:59|28:77,1,70
41,212,6899,2,0,L|128:206,1,70
239,89,7209,2,0,P|267:58|297:32,1,70
365,197,7520,2,2,P|346:238|266:292,1,140
109,216,7987,6,0,L|121:358,1,140
261,361,8453,1,0,0:0:0:0:
398,337,8608,2,0,B|409:292|409:292|425:267|497:251,1,140
417,131,9075,1,0,0:0:0:0:
287,183,9230,2,2,B|276:138|276:138|260:113|188:97,1,140
83,185,9696,5,0,0:0:0:0:
83,185,9774,1,0,0:0:0:0:
83,185,9852,1,0,0:0:0:0:
167,296,10007,1,0,0:0:0:0:
304,266,10163,2,0,B|334:247|328:231|343:252|345:222|390:242,1,70
359,94,10474,5,0,0:0:0:0:
440,286,10629,1,0,0:0:0:0:
440,286,10785,1,8,0:0:0:0:
264,171,10940,5,0,0:0:0:0:
470,205,11095,1,0,0:0:0:0:
470,205,11251,1,8,0:0:0:0:
267,258,11406,5,0,0:0:0:0:
434,129,11562,1,0,0:0:0:0:
434,129,11717,1,8,0:0:0:0:
316,304,11873,5,0,0:0:0:0:
373,102,12028,1,0,0:0:0:0:
229,256,12184,1,8,0:0:0:0:
115,80,12339,6,0,B|79:97|57:86|39:127,1,70
98,239,12650,1,0,0:0:0:0:
192,341,12805,1,0,0:0:0:0:
330,319,12961,6,0,B|331:284|354:256|339:223,1,70
233,106,13272,2,0,B|244:112|221:140|220:175,1,70
102,247,13582,2,0,B|102:213|125:185|115:180,1,70
143,42,13893,1,0,0:0:0:0:
283,42,14049,2,0,B|319:37|353:60|375:47,1,70
380,188,14360,2,0,B|380:197|346:174|310:179,1,70
354,324,14671,2,0,B|355:334|321:311|285:316,1,70
151,280,14981,2,0,B|184:275|218:298|218:288,1,70
174,155,15292,5,4,0:0:0:0:
174,155,15370,1,4,0:0:0:0:
174,155,15448,2,4,B|174:127|163:103|157:83,1,70
72,198,15759,1,0,0:0:0:0:
120,328,15914,2,0,B|159:357|177:300|260:351,1,140
359,255,16380,1,0,0:0:0:0:
298,128,16536,2,0,B|221:80|203:137|153:110,2,140
402,143,17313,1,0,0:0:0:0:
439,241,17469,1,0,0:0:0:0:
224,271,17624,1,0,0:0:0:0:
439,241,17779,5,4,0:0:0:0:
439,241,17857,1,4,0:0:0:0:
439,241,17935,2,4,B|430:268|437:283|421:308,1,70
285,195,18246,2,0,B|268:160|270:143|264:133|262:123,1,70
88,140,18557,2,0,B|88:144|94:154|92:171|109:206,1,70
251,308,18867,1,0,0:0:0:0:
77,334,19023,2,0,B|45:316|43:293|25:286|25:268,1,70
177,188,19334,2,0,B|172:190|190:197|192:220|224:238,1,70
301,81,19645,2,0,B|266:70|255:52|236:45|203:53|166:84,1,140
65,217,20111,1,0,0:0:0:0:
191,337,20266,5,4,0:0:0:0:
191,337,20344,1,4,0:0:0:0:
191,337,20422,2,4,B|232:351|259:344|276:337,1,70
364,248,20733,1,0,0:0:0:0:
433,127,20888,2,0,B|440:90|415:62|479:66|474:38|491:3,1,140
360,62,21355,1,0,0:0:0:0:
221,81,21510,2,0,B|197:98|190:119|170:135|168:144,1,70
62,217,21821,5,0,0:0:0:0:
196,328,21976,1,0,0:0:0:0:
111,173,22132,1,0,0:0:0:0:
133,346,22287,1,0,0:0:0:0:
171,174,22443,1,0,0:0:0:0:
268,318,22598,1,0,0:0:0:0:
301,306,22676,1,0,0:0:0:0:
325,281,22753,1,0,0:0:0:0:
335,247,22831,1,0,0:0:0:0:
337,211,22909,2,0,P|339:171|332:138,1,70
204,84,23220,6,0,B|175:107|175:122|155:137,1,70
21,96,23531,2,0,B|39:82|39:67|68:44,1,70
205,16,23842,1,0,0:0:0:0:
341,46,23997,2,0,B|340:67|345:77|324:98|312:120,1,70
228,218,24308,2,0,B|229:239|224:249|245:270|251:282,1,70
387,314,24619,2,0,B|403:302|370:253|441:245|465:232|457:192,1,140
380,83,25085,1,0,0:0:0:0:
241,107,25241,6,0,B|247:138|223:151|152:159|185:208|171:219,1,140
111,346,25707,1,0,0:0:0:0:
244,304,25862,2,0,B|260:286|257:253|306:262|323:237|318:191,1,140
256,66,26329,1,0,0:0:0:0:
116,68,26484,2,0,B|120:111|103:136|54:127|57:160|41:178,2,140
256,79,27261,5,0,0:0:0:0:
380,144,27417,1,0,0:0:0:0:
282,257,27572,1,0,0:0:0:0:
434,343,27728,1,0,0:0:0:0:
466,207,27883,2,0,B|467:165|453:136|477:62,2,140
325,202,28660,1,0,0:0:0:0:
227,100,28816,6,0,P|194:120|168:153,1,70
270,245,29127,2,0,P|246:270|216:288,1,70
80,258,29437,2,0,B|95:216|42:164|79:102,1,140
190,45,29904,1,0,0:0:0:0:
194,184,30059,2,0,B|182:200|188:228|166:253,1,70
284,329,30370,2,0,B|330:311|339:302|361:323|360:328|390:317|433:308,1,140
424,170,30836,2,0,B|394:176|364:187|365:182|343:161|334:170|288:188,1,140
190,228,31303,1,0,0:0:0:0:
221,91,31458,2,0,B|250:69|273:68|290:60,1,70
421,94,31769,5,0,0:0:0:0:
324,279,31924,1,0,0:0:0:0:
135,172,32080,1,4,0:0:0:0:
135,172,32158,1,4,0:0:0:0:
135,172,32235,1,4,0:0:0:0:
331,95,32391,1,4,0:0:0:0:
331,95,32469,1,4,0:0:0:0:
331,95,32546,1,4,0:0:0:0:
252,290,32702,1,4,0:0:0:0:
252,290,32779,1,4,0:0:0:0:
252,290,32857,2,0,B|223:320|190:326|158:290|113:311,1,140
95,169,33323,5,0,0:0:0:0:
199,77,33479,2,0,B|237:95|272:31|305:154|408:57,1,210
440,199,34101,2,0,B|414:195|401:186|369:184,1,70
369,324,34412,2,0,B|339:322|326:313|300:309,1,70
161,318,34722,2,0,B|197:336|219:332|237:338,1,70
248,185,35033,2,0,B|239:189|217:185|181:203,1,70
40,197,35344,6,0,B|12:236|79:258|10:275|1:304|30:339,1,140
105,215,35810,2,0,P|114:164|119:141,1,70
223,53,36121,2,0,P|234:94|241:130,1,70
206,257,36432,2,0,B|240:337|283:291|283:291|269:231,1,140
265,119,36899,2,0,P|279:166|283:192,1,70
386,200,37209,5,0,0:0:0:0:
465,356,37365,1,0,0:0:0:0:
297,305,37520,1,0,0:0:0:0:
466,257,37676,1,0,0:0:0:0:
491,119,37831,2,4,B|471:88|462:75|427:66,1,70
318,137,38142,2,4,B|354:172|354:172|399:167|419:229,1,140
483,348,38608,1,0,0:0:0:0:
342,342,38764,2,0,B|323:284|278:289|278:289|252:204|228:378|201:215|112:246,1,280
198,51,39696,6,0,P|175:89|166:117,1,70
223,202,40007,2,0,P|241:231|254:264,1,70
357,284,40318,2,4,B|392:274|425:288|425:288|428:335|484:340|484:340|489:353,2,140
254,258,41095,2,4,L|217:325,1,70
84,288,41406,5,0,0:0:0:0:
152,128,41562,1,0,0:0:0:0:
232,284,41717,1,0,0:0:0:0:
92,180,41873,1,0,0:0:0:0:
240,92,42028,1,0,0:0:0:0:
304,256,42184,1,0,0:0:0:0:
376,96,42339,1,0,0:0:0:0:
483,107,42494,2,0,P|487:147|479:192,1,70
344,156,42805,6,0,B|297:167|274:115|197:123,1,140
69,116,43272,1,0,0:0:0:0:
70,255,43427,2,0,B|109:291|101:345|169:318|187:339,1,140
316,311,43893,1,0,0:0:0:0:
382,187,44049,6,0,P|353:157|341:118,1,70
210,177,44360,2,0,P|223:208|249:232,1,70
108,239,44671,2,0,P|82:214|68:183,1,70
189,112,44981,2,0,P|214:87|228:56,1,70
368,56,45292,6,0,B|350:122|430:131|441:198,1,140
438,313,45759,2,4,B|435:271|355:262|373:196,2,140
308,368,46536,1,0,0:0:0:0:
240,206,46691,1,0,0:0:0:0:
240,206,46847,2,0,L|155:168,1,70
13,244,47158,1,0,0:0:0:0:
116,103,47313,1,0,0:0:0:0:
116,103,47391,1,0,0:0:0:0:
116,103,47469,2,0,P|161:82|190:76,1,70
319,95,47779,5,0,0:0:0:0:
205,228,47935,1,0,0:0:0:0:
370,138,48090,1,4,0:0:0:0:
256,272,48246,1,0,0:0:0:0:
422,182,48401,1,0,0:0:0:0:
309,316,48557,1,4,0:0:0:0:
473,223,48712,1,0,0:0:0:0:
364,360,48867,1,0,0:0:0:0:
422,182,49023,2,0,L|416:224,1,35
337,217,49178,5,0,0:0:0:0:
479,318,49334,1,0,0:0:0:0:
383,172,49489,1,4,0:0:0:0:
416,344,49645,1,0,0:0:0:0:
323,196,49800,1,4,0:0:0:0:
343,370,49956,1,0,0:0:0:0:
260,216,50111,1,4,0:0:0:0:
274,378,50266,5,0,0:0:0:0:
192,222,50422,1,0,0:0:0:0:
270,27,50577,1,4,0:0:0:0:
374,209,50733,1,0,0:0:0:0:
218,68,50888,1,0,0:0:0:0:
157,269,51044,1,4,0:0:0:0:
30,102,51199,1,0,0:0:0:0:
217,198,51355,1,0,0:0:0:0:
426,207,51510,5,4,0:0:0:0:
306,379,51665,1,0,0:0:0:0:
305,168,51821,1,4,0:0:0:0:
149,308,51976,1,0,0:0:0:0:
151,97,52132,1,0,0:0:0:0:
292,251,52287,1,4,0:0:0:0:
81,265,52443,1,0,0:0:0:0:
234,122,52598,1,0,0:0:0:0:
271,327,52753,1,4,0:0:0:0:
410,169,52909,5,0,0:0:0:0:
410,169,53064,2,0,L|328:155,1,70
135,205,53375,1,0,0:0:0:0:
135,205,53531,2,0,P|155:166|172:138,1,70
57,57,53842,6,0,L|25:140,1,70
44,261,54152,1,0,0:0:0:0:
213,308,54308,1,0,0:0:0:0:
44,261,54463,1,0,0:0:0:0:
213,308,54619,1,0,0:0:0:0:
44,261,54774,5,0,0:0:0:0:
51,219,54852,1,0,0:0:0:0:
63,178,54930,2,0,P|83:138|101:115,1,70
224,55,55241,6,0,L|277:122,1,70
372,201,55551,1,0,0:0:0:0:
372,201,55707,1,0,0:0:0:0:
212,272,55862,1,0,0:0:0:0:
212,272,56018,1,0,0:0:0:0:
371,342,56173,2,0,P|405:347|448:344,1,70
501,274,56484,1,0,0:0:0:0:
364,115,56639,1,0,0:0:0:0:
364,115,56795,1,0,0:0:0:0:
158,153,56950,6,0,B|142:205|112:213|62:201|51:256,1,140
246,334,57417,2,0,L|274:262,1,70
166,85,57728,2,0,L|137:157,1,70
67,346,58038,1,0,0:0:0:0:
67,346,58194,1,0,0:0:0:0:
203,186,58349,1,0,0:0:0:0:
203,186,58505,1,0,0:0:0:0:
351,37,58660,2,0,P|387:30|433:43,1,70
461,177,58971,1,0,0:0:0:0:
299,312,59127,1,0,0:0:0:0:
412,135,59282,1,0,0:0:0:0:
251,258,59437,6,0,B|235:310|205:318|155:306|144:361,1,140
64,158,59904,2,0,L|57:249,1,70
253,167,60215,2,0,L|250:240,1,70
417,351,60525,1,0,0:0:0:0:
417,351,60681,1,0,0:0:0:0:
446,150,60836,1,0,0:0:0:0:
446,150,60992,1,0,0:0:0:0:
255,80,61147,2,0,B|224:40|194:58|165:98|119:56,2,140
352,120,61924,5,0,0:0:0:0:
406,209,62080,1,0,0:0:0:0:
351,298,62235,1,0,0:0:0:0:
246,285,62391,2,2,L|252:371,1,70
91,280,62702,2,2,L|89:357,1,70
24,186,63013,1,0,0:0:0:0:
113,131,63168,1,0,0:0:0:0:
213,100,63323,2,0,L|214:178,1,70
273,297,63634,2,0,L|270:217,1,70
272,191,63867,5,0,0:0:0:0:
282,157,63945,1,0,0:0:0:0:
407,93,64101,2,0,L|404:148,1,35
457,198,64256,2,0,P|470:238|463:284,1,70
317,355,64567,1,2,0:0:0:0:
182,194,64722,1,0,0:0:0:0:
317,355,64878,1,2,0:0:0:0:
413,169,65033,1,0,0:0:0:0:
317,355,65189,6,0,L|246:372,1,70
121,311,65500,1,0,0:0:0:0:
240,238,65655,1,0,0:0:0:0:
339,162,65810,2,0,L|374:92,1,70
239,48,66121,2,0,L|204:124,1,70
112,212,66432,1,0,0:0:0:0:
32,368,66588,1,0,0:0:0:0:
206,374,66743,1,0,0:0:0:0:
112,212,66899,6,0,B|95:173|125:140|122:102|94:62,1,140
237,38,67365,1,0,0:0:0:0:
237,38,67520,1,0,0:0:0:0:
374,146,67676,1,0,0:0:0:0:
374,146,67831,1,0,0:0:0:0:
297,303,67987,2,0,P|239:283|218:269,1,70
63,228,68298,2,0,P|94:212|128:203,1,70
247,132,68608,1,0,0:0:0:0:
334,190,68764,1,0,0:0:0:0:
184,336,68919,5,0,0:0:0:0:
96,144,69075,1,0,0:0:0:0:
181,334,69230,1,0,0:0:0:0:
93,142,69386,6,0,B|79:90|103:53|145:14,1,140
278,44,69852,2,0,L|279:135,1,70
351,234,70163,2,0,L|350:159,1,70
360,59,70474,1,0,0:0:0:0:
462,37,70629,1,0,0:0:0:0:
498,135,70785,2,0,P|509:170|508:219,1,70
424,313,71095,2,0,P|425:278|436:244,1,70
319,323,71406,2,0,B|284:334|243:308|243:308|178:329,1,140
131,50,72028,6,0,L|201:75,1,70
267,195,72339,2,0,L|188:167,1,70
63,141,72650,1,0,0:0:0:0:
63,141,72805,1,0,0:0:0:0:
87,314,72961,1,0,0:0:0:0:
87,314,73116,1,0,0:0:0:0:
227,316,73272,6,0,L|250:247,1,70
371,182,73582,2,0,L|354:262,1,70
279,132,73893,1,0,0:0:0:0:
79,201,74049,1,0,0:0:0:0:
228,347,74204,1,0,0:0:0:0:
179,142,74360,1,0,0:0:0:0:
342,272,74515,5,0,0:0:0:0:
362,243,74593,1,0,0:0:0:0:
380,213,74671,1,0,0:0:0:0:
392,180,74748,1,0,0:0:0:0:
399,145,74826,1,0,0:0:0:0:
395,110,74904,1,0,0:0:0:0:
373,83,74981,1,0,0:0:0:0:
348,57,75059,1,0,0:0:0:0:
315,42,75137,2,0,P|274:31|215:26,1,70
198,78,75448,5,0,0:0:0:0:
106,183,75603,1,0,0:0:0:0:
247,120,75759,1,0,0:0:0:0:
156,225,75914,1,0,0:0:0:0:
297,163,76070,1,0,0:0:0:0:
200,263,76225,6,0,P|200:306|211:359,1,70
323,334,76536,2,0,P|327:299|327:265,1,70
325,89,76847,2,0,P|327:142|324:170,1,70
185,148,77158,2,0,B|182:113|211:70|211:70|259:37,1,140
396,58,77624,6,0,P|422:102|430:146,1,70
397,257,77935,2,0,P|416:285|428:318,1,70
287,323,78246,1,0,0:0:0:0:
147,314,78401,2,0,L|145:223,1,70
158,139,78712,5,0,0:0:0:0:
367,138,78867,1,0,0:0:0:0:
174,78,79023,1,0,0:0:0:0:
345,198,79178,1,0,0:0:0:0:
216,30,79334,1,0,0:0:0:0:
288,226,79489,1,0,0:0:0:0:
277,15,79645,1,0,0:0:0:0:
222,217,79800,2,0,P|212:255|208:309,1,70
77,233,80111,6,0,B|72:267|1:269|0:344,1,140
140,350,80577,1,0,0:0:0:0:
279,332,80733,2,0,B|278:258|206:257|202:222,1,140
210,82,81199,1,0,0:0:0:0:
350,88,81355,2,0,B|417:88|412:158|472:159,1,140
466,299,81821,1,0,0:0:0:0:
341,236,81976,2,0,L|337:158,1,70
227,253,82287,2,0,L|230:350,1,70
216,183,82598,5,0,0:0:0:0:
42,65,82753,1,0,0:0:0:0:
42,65,82909,1,0,0:0:0:0:
242,126,83064,5,0,0:0:0:0:
31,131,83220,1,0,0:0:0:0:
31,131,83375,1,0,0:0:0:0:
230,63,83531,5,0,0:0:0:0:
62,188,83686,1,0,0:0:0:0:
62,188,83842,1,0,0:0:0:0:
185,19,83997,5,0,0:0:0:0:
119,217,84152,1,0,0:0:0:0:
119,217,84308,1,0,0:0:0:0:
119,217,84463,2,0,L|178:275,1,70
291,197,84774,2,0,L|240:147,1,70
256,192,85085,12,0,86639,0:0:0:0:
336,149,86795,5,0,0:0:0:0:
336,149,86873,1,0,0:0:0:0:
336,149,86950,1,0,0:0:0:0:
195,305,87106,1,0,0:0:0:0:
129,106,87261,1,0,0:0:0:0:
336,149,87417,1,0,0:0:0:0:
