osu file format v14

[General]
AudioFilename: audio.mp3
AudioLeadIn: 0
PreviewTime: 55241
Countdown: 0
SampleSet: Normal
StackLeniency: 0.7
Mode: 0
LetterboxInBreaks: 0
WidescreenStoryboard: 1

[Editor]
DistanceSpacing: 2
BeatDivisor: 4
GridSize: 4
TimelineZoom: 1

[Metadata]
Title:Now Loading!!!!
TitleUnicode:Now Loading!!!!
Artist:fourfolium
ArtistUnicode:fourfolium
Creator:corninho
Version:Insane!!!!
Source:New Game!
Tags:suzukaze aoba ending ed fourfolium ニューゲーム フォーフォリウム
BeatmapID:1523030
BeatmapSetID:719284

[Difficulty]
HPDrainRate:6
CircleSize:3.8
OverallDifficulty:7
ApproachRate:9
SliderMultiplier:1.4
SliderTickRate:1

[Events]
//Background and Video events
0,0,"new-game-577e045d1a612.jpg",0,0
//Break Periods
//Storyboard Layer 0 (Background)
//Storyboard Layer 1 (Fail)
//Storyboard Layer 2 (Pass)
//Storyboard Layer 3 (Foreground)
//Storyboard Sound Samples

[TimingPoints]
526,310.880829015544,4,1,0,20,1,0
55241,-100,4,1,0,20,0,1
75137,-100,4,1,0,20,0,0

[HitObjects]
88,140,526,6,0,P|124:116|160:88,1,70
188,196,836,2,0,P|152:224|120:248,1,70
180,332,1147,2,0,B|228:344|272:284|272:284|312:324,1,140
384,248,1614,2,0,P|420:188|436:180,2,70
356,148,2080,2,0,B|308:160|284:132|284:132|264:120,1,70
289,137,2313,1,0,0:0:0:0:
289,137,2391,1,0,0:0:0:0:
208,72,2546,1,0,0:0:0:0:
108,104,2702,6,0,L|104:64,1,35
4,148,2857,2,0,L|16:184,1,35
112,188,3013,2,0,P|104:224|116:288,1,70
220,328,3323,1,0,0:0:0:0:
336,264,3479,2,0,L|336:184,1,70
344,60,3790,1,0,0:0:0:0:
460,160,3945,1,0,0:0:0:0:
468,316,4101,6,0,L|416:364,1,70
308,252,4412,2,0,L|360:204,1,70
412,120,4722,2,0,P|440:84|452:48,1,70
352,48,5033,2,0,B|316:40|304:116|248:104|244:80|204:92,1,140
128,96,5500,2,0,L|104:24,1,70
40,100,5810,1,0,0:0:0:0:
56,196,5966,1,0,0:0:0:0:
64,292,6121,1,0,0:0:0:0:
144,352,6277,2,0,L|224:372,1,70
292,312,6588,5,0,0:0:0:0:
292,172,6743,1,0,0:0:0:0:
236,300,6899,1,0,0:0:0:0:
316,144,7054,1,0,0:0:0:0:
420,76,7209,2,0,L|484:120,1,70
448,224,7520,2,0,B|470:253|406:296|441:341|464:335|463:354,1,140
352,328,7987,6,0,L|284:280,1,70
184,308,8298,2,0,L|240:360,1,70
124,344,8608,2,0,B|112:288|40:264|56:208,1,140
152,168,9075,1,0,0:0:0:0:
256,124,9230,2,0,B|285:151|336:94|392:105,1,140
484,44,9696,1,0,0:0:0:0:
372,20,9852,2,0,B|308:60|264:12|228:20,1,140
124,36,10318,1,0,0:0:0:0:
64,160,10473,6,0,L|32:232,1,70
4,332,10784,1,0,0:0:0:0:
116,352,10940,2,0,L|140:268,1,70
176,180,11250,1,0,0:0:0:0:
284,208,11406,2,0,L|268:288,1,70
236,384,11717,1,0,0:0:0:0:
348,372,11873,2,0,L|368:288,1,70
376,192,12184,5,0,0:0:0:0:
304,72,12339,1,0,0:0:0:0:
304,72,12494,1,0,0:0:0:0:
472,80,12650,1,0,0:0:0:0:
472,80,12805,1,0,0:0:0:0:
464,212,12961,6,0,P|468:252|456:296,1,70
332,316,13272,2,0,P|327:350|333:384,1,70
252,372,13582,2,0,P|244:324|244:284,1,70
236,168,13893,1,0,0:0:0:0:
132,248,14049,2,0,L|124:328,1,70
8,308,14360,2,0,L|0:224,1,70
80,132,14671,2,0,B|100:108|160:112|196:44,1,140
191,51,15137,1,0,0:0:0:0:
324,52,15293,5,0,0:0:0:0:
356,68,15371,1,0,0:0:0:0:
380,96,15448,2,0,B|376:148|432:156|464:200|456:240,1,140
372,276,15914,2,0,B|312:252|348:184|296:144,1,140
236,80,16380,1,0,0:0:0:0:
176,168,16536,2,0,B|180:214|104:230|125:292,2,140
200,64,17313,2,0,P|224:32|248:0,1,70
140,32,17624,1,0,0:0:0:0:
56,96,17779,5,0,0:0:0:0:
44,128,17857,1,0,0:0:0:0:
40,164,17935,2,0,P|40:224|44:256,1,70
144,276,18246,2,0,L|148:360,1,70
288,336,18557,2,0,L|288:256,1,70
300,128,18867,1,0,0:0:0:0:
436,156,19023,2,0,L|444:252,1,70
372,104,19334,2,0,L|364:24,1,70
316,168,19645,2,0,L|328:316,1,140
456,380,20111,1,0,0:0:0:0:
320,360,20266,5,0,0:0:0:0:
288,340,20344,1,0,0:0:0:0:
256,324,20422,2,0,L|168:292,1,70
124,284,20733,1,0,0:0:0:0:
284,264,20888,2,0,B|256:224|184:248|148:212,1,140
16,196,21355,1,0,0:0:0:0:
16,196,21510,1,0,0:0:0:0:
200,40,21821,6,0,L|196:112,1,70
304,228,22132,2,0,L|304:136,1,70
308,40,22443,1,0,0:0:0:0:
420,76,22598,1,0,0:0:0:0:
432,108,22676,1,0,0:0:0:0:
440,140,22753,2,0,P|456:188|464:240,1,70
240,296,23220,6,0,L|232:216,1,70
120,192,23531,2,0,L|112:272,1,70
116,380,23842,1,0,0:0:0:0:
232,348,23997,2,0,L|232:248,1,70
308,188,24308,2,0,L|308:280,1,70
388,344,24619,2,0,B|388:292|460:272|448:196,1,140
364,136,25085,1,0,0:0:0:0:
256,84,25241,6,0,B|296:116|284:144|264:160|196:192|232:208|252:224,1,140
208,320,25707,1,0,0:0:0:0:
112,104,25862,2,0,B|79:129|91:157|111:173|179:205|143:221|145:215,1,140
208,320,26329,1,0,0:0:0:0:
328,328,26484,2,0,B|368:312|412:372|472:356,2,140
248,240,27261,1,0,0:0:0:0:
172,120,27417,1,0,0:0:0:0:
180,260,27572,1,0,0:0:0:0:
228,56,27728,1,0,0:0:0:0:
132,244,27883,2,0,B|128:312|80:316|80:316|52:368,2,140
216,240,28660,5,0,0:0:0:0:
300,236,28816,1,0,0:0:0:0:
380,216,28971,1,0,0:0:0:0:
440,160,29127,2,0,B|459:123|459:123|507:119|511:51,2,140
364,112,29904,1,0,0:0:0:0:
264,48,30059,2,0,L|260:136,1,70
184,208,30370,2,0,B|200:168|152:120|192:60,1,140
68,56,30836,2,0,B|67:93|67:93|24:136|84:188|64:212,1,140
124,296,31303,1,0,0:0:0:0:
240,272,31458,2,0,P|272:248|308:228,1,70
392,160,31769,5,0,0:0:0:0:
416,136,31847,1,0,0:0:0:0:
436,108,31924,2,0,P|468:64|480:40,1,70
444,36,32158,1,0,0:0:0:0:
408,40,32235,2,0,L|344:72,1,70
312,56,32469,1,0,0:0:0:0:
276,52,32546,2,0,L|192:32,1,70
176,52,32779,1,0,0:0:0:0:
144,68,32857,2,0,B|92:68|20:112|80:172|80:172|96:220|76:236,1,210
176,252,33479,6,0,B|216:256|196:332|296:264|328:296|368:340,1,210
412,248,34101,2,0,L|420:328,1,70
480,240,34412,2,0,L|472:144,1,70
404,104,34722,2,0,L|408:180,1,70
332,112,35033,2,0,L|328:32,1,70
260,112,35344,6,0,B|252:152|172:168|236:248|248:260,1,140
328,240,35810,2,0,B|336:280|416:296|352:376|340:388,1,140
260,344,36277,1,0,0:0:0:0:
188,276,36432,2,0,L|196:192,1,70
108,256,36743,2,0,L|100:336,1,70
196,348,37054,1,0,0:0:0:0:
348,332,37209,1,0,0:0:0:0:
200,284,37365,1,0,0:0:0:0:
368,348,37520,1,0,0:0:0:0:
196,228,37676,1,0,0:0:0:0:
396,292,37831,6,0,L|464:320,1,70
492,180,38142,2,0,L|280:128,1,210
152,160,38764,2,0,B|120:168|80:184|96:292|188:320,1,210
344,324,39696,6,0,L|344:236,1,70
248,184,40007,2,0,L|244:280,1,70
176,352,40318,2,0,B|132:320|72:372|24:344,2,140
296,340,41095,1,0,0:0:0:0:
400,284,41251,2,0,L|424:144,1,140
320,84,41717,2,0,L|288:172,1,70
180,180,42028,2,0,L|140:100,1,70
32,148,42339,1,0,0:0:0:0:
72,228,42494,1,0,0:0:0:0:
148,280,42650,1,0,0:0:0:0:
252,264,42805,2,0,B|300:232|324:184|424:132,1,210
352,56,43427,6,0,B|258:104|234:152|186:184,1,210
68,216,44049,2,0,L|64:136,1,70
136,204,44360,2,0,L|136:296,1,70
220,312,44671,2,0,L|216:240,1,70
292,296,44981,2,0,L|292:368,1,70
384,376,45292,6,0,B|392:320|468:324|456:284|456:240,1,140
428,176,45759,2,0,L|432:80,1,70
308,176,46070,2,0,L|312:88,1,70
188,36,46380,2,0,B|192:92|104:112|128:188,2,140
188,36,47158,1,0,0:0:0:0:
188,36,47313,1,0,0:0:0:0:
256,160,47469,1,0,0:0:0:0:
256,160,47624,1,0,0:0:0:0:
136,232,47779,6,0,L|92:156,1,70
48,300,48090,2,0,L|100:356,1,70
236,340,48401,2,0,L|192:276,1,70
336,264,48712,2,0,L|384:324,1,70
328,188,49023,6,0,L|268:144,1,70
132,168,49334,2,0,L|204:216,1,70
140,76,49645,2,0,L|72:52,1,70
44,188,49956,2,0,L|48:268,1,70
152,348,50266,5,0,0:0:0:0:
152,348,50422,1,0,0:0:0:0:
248,244,50577,1,0,0:0:0:0:
248,244,50733,1,0,0:0:0:0:
392,344,50888,1,0,0:0:0:0:
392,344,51044,1,0,0:0:0:0:
484,196,51199,1,0,0:0:0:0:
484,196,51355,1,0,0:0:0:0:
332,108,51510,5,0,0:0:0:0:
320,284,51665,1,0,0:0:0:0:
372,88,51821,1,0,0:0:0:0:
284,240,51976,1,0,0:0:0:0:
332,40,52132,1,0,0:0:0:0:
240,188,52287,1,0,0:0:0:0:
376,36,52443,1,0,0:0:0:0:
240,144,52598,1,0,0:0:0:0:
412,36,52753,1,0,0:0:0:0:
488,196,52909,6,0,L|456:268,1,70
284,276,53220,1,0,0:0:0:0:
284,276,53375,1,0,0:0:0:0:
284,276,53531,2,0,L|244:200,1,70
132,144,53842,2,0,B|136:156|124:188|128:236,1,70
140,352,54152,1,0,0:0:0:0:
188,220,54308,1,0,0:0:0:0:
200,360,54463,1,0,0:0:0:0:
256,232,54619,2,0,L|304:156,1,70
293,172,54852,1,0,0:0:0:0:
293,172,54930,1,0,0:0:0:0:
412,100,55085,1,0,0:0:0:0:
468,228,55241,6,0,L|464:304,1,70
384,376,55551,2,0,L|384:296,1,70
368,200,55862,1,0,0:0:0:0:
308,112,56018,1,0,0:0:0:0:
216,164,56173,2,0,L|168:232,1,70
164,116,56484,1,0,0:0:0:0:
76,60,56639,1,0,0:0:0:0:
36,156,56795,1,0,0:0:0:0:
36,156,56950,6,0,B|20:212|72:236|28:304,1,140
140,316,57417,2,0,L|136:224,1,70
228,300,57728,2,0,L|224:376,1,70
324,336,58038,1,0,0:0:0:0:
320,232,58194,1,0,0:0:0:0:
416,332,58349,1,0,0:0:0:0:
408,228,58505,1,0,0:0:0:0:
404,124,58660,2,0,L|348:60,1,70
252,56,58971,6,0,L|300:128,2,70
156,12,59437,2,0,B|112:16|144:76|44:84,1,140
96,176,59904,1,0,0:0:0:0:
96,176,60059,1,0,0:0:0:0:
228,228,60215,1,0,0:0:0:0:
228,228,60370,1,0,0:0:0:0:
344,152,60525,2,0,L|344:68,1,70
464,156,60836,2,0,L|464:236,1,70
344,300,61147,6,0,B|288:336|248:312|248:312|200:340,2,140
476,248,61924,2,0,L|476:160,1,70
388,68,62235,2,0,L|388:160,2,70
248,60,62702,2,0,L|244:136,1,70
248,272,63013,1,0,0:0:0:0:
384,304,63168,1,0,0:0:0:0:
416,316,63246,1,0,0:0:0:0:
452,320,63323,2,0,L|504:272,1,70
504,168,63634,1,0,0:0:0:0:
452,76,63790,2,0,L|448:40,1,35
424,8,63945,2,0,P|368:12|340:20,1,70
264,68,64256,5,0,0:0:0:0:
180,132,64412,1,0,0:0:0:0:
320,152,64567,1,0,0:0:0:0:
240,220,64722,1,0,0:0:0:0:
308,300,64878,2,0,L|256:352,1,70
148,304,65189,6,0,P|132:264|132:224,1,70
116,120,65500,1,0,0:0:0:0:
116,120,65655,1,0,0:0:0:0:
248,80,65810,1,0,0:0:0:0:
248,80,65966,1,0,0:0:0:0:
308,204,66121,2,0,L|308:128,1,70
204,228,66432,6,0,L|204:304,1,70
204,380,66743,1,0,0:0:0:0:
320,300,66899,2,0,B|348:248|344:216|328:160,1,140
252,48,67365,6,0,L|248:132,1,70
164,232,67676,2,0,L|172:144,1,70
188,24,67987,5,0,0:0:0:0:
188,24,68142,1,0,0:0:0:0:
328,44,68298,1,0,0:0:0:0:
328,44,68453,1,0,0:0:0:0:
396,164,68608,6,0,L|412:240,1,70
388,372,68919,1,0,0:0:0:0:
332,244,69075,1,0,0:0:0:0:
308,380,69230,1,0,0:0:0:0:
252,252,69386,6,0,B|260:208|328:204|332:124,1,140
228,44,69852,2,0,L|220:124,1,70
348,56,70163,2,0,L|352:-28,1,70
460,76,70474,2,0,L|456:156,1,70
428,284,70785,5,0,0:0:0:0:
428,284,70940,1,0,0:0:0:0:
288,272,71095,1,0,0:0:0:0:
288,272,71251,1,0,0:0:0:0:
180,184,71406,2,0,P|152:128|160:48,1,140
84,324,72028,6,0,L|168:356,1,70
216,224,72339,2,0,L|140:184,1,70
176,52,72650,2,0,L|256:72,1,70
380,108,72961,1,0,0:0:0:0:
216,172,73116,1,0,0:0:0:0:
392,176,73272,1,0,0:0:0:0:
272,248,73427,1,0,0:0:0:0:
412,252,73582,2,0,L|440:320,1,70
336,220,73893,6,0,L|304:128,1,70
192,84,74204,2,0,L|220:168,1,70
288,268,74515,1,0,0:0:0:0:
300,300,74593,1,0,0:0:0:0:
292,336,74671,1,0,0:0:0:0:
268,364,74748,2,0,L|228:372,3,35
184,320,75137,6,0,L|156:240,1,70
220,128,75448,2,0,L|256:212,1,70
312,316,75759,1,0,0:0:0:0:
448,352,75914,1,0,0:0:0:0:
500,220,76070,1,0,0:0:0:0:
440,92,76225,6,0,L|392:28,1,70
316,152,76536,2,0,L|376:220,1,70
224,180,76847,2,0,L|160:108,1,70
104,248,77158,2,0,L|156:308,1,70
252,328,77469,1,0,0:0:0:0:
212,232,77624,6,0,L|132:176,1,70
96,104,77935,1,0,0:0:0:0:
96,104,78090,1,0,0:0:0:0:
60,204,78246,1,0,0:0:0:0:
60,204,78401,1,0,0:0:0:0:
108,300,78557,1,0,0:0:0:0:
212,300,78712,6,0,L|212:224,1,70
304,280,79023,2,0,L|304:360,1,70
388,288,79334,2,0,L|384:208,1,70
344,120,79645,1,0,0:0:0:0:
248,156,79800,2,0,L|248:72,1,70
144,88,80111,6,0,B|156:140|76:184|120:236,1,140
192,288,80577,1,0,0:0:0:0:
272,216,80733,2,0,B|238:180|318:136|306:84,1,140
396,36,81199,1,0,0:0:0:0:
464,116,81355,2,0,B|460:160|436:160|512:232|472:256,1,140
404,324,81821,1,0,0:0:0:0:
320,260,81976,2,0,B|353:241|277:169|301:169|305:125,1,140
304,24,82443,1,0,0:0:0:0:
212,72,82598,6,0,L|140:120,1,70
132,212,82909,1,0,0:0:0:0:
232,184,83064,2,0,L|304:148,1,70
388,104,83375,1,0,0:0:0:0:
368,208,83531,6,0,L|324:276,1,70
256,340,83842,1,0,0:0:0:0:
176,272,83997,2,0,L|136:208,1,70
136,108,84308,1,0,0:0:0:0:
240,128,84463,2,0,L|248:48,1,70
328,124,84774,2,0,L|320:204,1,70
256,192,85085,12,0,86639,0:0:0:0:
336,128,86795,6,0,L|356:96,2,35
264,204,87106,1,0,0:0:0:0:
100,140,87261,1,0,0:0:0:0:
108,316,87417,1,0,0:0:0:0:
