osu file format v14

[General]
AudioFilename: audio.mp3
AudioLeadIn: 0
PreviewTime: 55241
Countdown: 0
SampleSet: Soft
StackLeniency: 0.7
Mode: 0
LetterboxInBreaks: 0
WidescreenStoryboard: 1

[Editor]
DistanceSpacing: 1.4
BeatDivisor: 1
GridSize: 4
TimelineZoom: 1

[Metadata]
Title:Now Loading!!!!
TitleUnicode:Now Loading!!!!
Artist:fourfolium
ArtistUnicode:fourfolium
Creator:corninho
Version:Normal!!
Source:New Game!
Tags:suzukaze aoba ending ed fourfolium ニューゲーム フォーフォリウム
BeatmapID:1560344
BeatmapSetID:719284

[Difficulty]
HPDrainRate:2
CircleSize:2
OverallDifficulty:3
ApproachRate:4
SliderMultiplier:0.7
SliderTickRate:1

[Events]
//Background and Video events
0,0,"new-game-577e045d1a612.jpg",0,0
//Break Periods
//Storyboard Layer 0 (Background)
//Storyboard Layer 1 (Fail)
//Storyboard Layer 2 (Pass)
//Storyboard Layer 3 (Foreground)
//Storyboard Sound Samples

[TimingPoints]
526,310.880829015544,4,2,0,20,1,0
55241,-100,4,2,0,20,0,1
75137,-100,4,2,0,20,0,0

[HitObjects]
256,192,526,12,0,2391,0:0:0:0:
280,116,3013,6,0,P|256:216|264:240,1,70
352,192,3634,2,0,P|392:96|416:80,1,70
460,140,4256,2,0,P|480:248|484:264,2,70
368,100,5189,1,0,0:0:0:0:
268,104,5500,6,0,P|188:40|160:32,1,70
176,140,6121,2,0,P|256:208|272:232,1,70
180,272,6743,2,0,P|100:336|92:332,2,70
232,184,7676,1,0,0:0:0:0:
320,232,7987,6,0,P|392:304|492:336,1,140
492,236,9230,6,0,P|416:160|312:128,1,210
256,192,10474,12,0,12650,0:0:0:0:
156,248,12961,6,0,P|172:136|180:128,1,70
236,88,13582,1,0,0:0:0:0:
312,152,13893,1,0,0:0:0:0:
328,252,14204,2,0,P|308:356|300:368,1,70
232,284,14826,2,0,P|228:176|232:160,1,70
152,116,15448,5,0,0:0:0:0:
88,196,15759,1,0,0:0:0:0:
108,296,16070,2,0,P|192:360|220:368,1,70
244,276,16691,2,0,P|277:312|322:334,2,70
208,184,17624,6,0,L|248:84,1,70
312,164,18246,2,0,L|356:68,1,70
444,32,18867,1,0,0:0:0:0:
456,132,19178,1,0,0:0:0:0:
404,220,19489,6,0,L|328:300,1,70
288,204,20111,2,0,L|364:128,1,70
276,80,20733,1,0,0:0:0:0:
184,116,21044,1,0,0:0:0:0:
120,192,21355,1,0,0:0:0:0:
312,164,23220,6,0,P|312:280|316:296,1,70
400,224,23842,2,0,P|436:124|436:100,1,70
356,68,24463,2,0,P|292:28|252:24,1,70
192,88,25085,1,0,0:0:0:0:
152,180,25396,1,0,0:0:0:0:
240,228,25707,6,0,P|312:160|328:156,1,70
336,260,26329,2,0,P|280:324|232:344,1,70
176,300,26950,1,0,0:0:0:0:
120,216,27261,1,0,0:0:0:0:
196,148,27572,2,0,L|208:40,1,70
304,80,28194,6,0,P|312:188|272:280,1,210
80,280,29437,6,0,P|104:164|152:92,1,140
248,80,30370,6,0,P|272:192|264:276,1,140
176,328,31303,1,0,0:0:0:0:
268,364,31614,1,0,0:0:0:0:
344,300,31924,2,0,P|384:196|384:184,1,70
284,200,32546,2,0,L|340:108,1,70
144,52,33479,6,0,P|128:172|144:240,2,140
244,52,35033,1,0,0:0:0:0:
316,120,35344,2,0,P|368:208|376:232,1,70
284,264,35966,2,0,P|220:176|216:156,1,70
200,88,36588,5,0,0:0:0:0:
100,104,36899,1,0,0:0:0:0:
84,204,37209,2,0,P|128:304|192:336,2,140
104,108,38764,1,0,0:0:0:0:
200,84,39075,1,0,0:0:0:0:
280,144,39386,1,0,0:0:0:0:
328,232,39696,6,0,P|388:228|460:200,1,70
464,312,40318,2,0,P|368:356|292:336,2,140
472,212,41873,1,0,0:0:0:0:
424,124,42184,1,0,0:0:0:0:
328,92,42494,1,0,0:0:0:0:
240,140,42805,6,0,P|200:188|184:248,1,70
292,236,43427,2,0,L|348:144,1,70
340,52,44049,1,0,0:0:0:0:
240,40,44360,1,0,0:0:0:0:
192,88,44671,6,0,P|164:172|176:212,1,70
144,248,45292,2,0,P|232:316|244:320,1,70
288,320,45914,1,0,0:0:0:0:
368,264,46225,1,0,0:0:0:0:
332,172,46536,2,0,P|232:96|192:32,1,140
388,68,47779,6,0,P|392:184|368:272,1,140
176,284,49023,6,0,P|176:176|196:104,1,140
376,188,50266,6,0,P|320:296|280:312,1,140
52,332,51510,6,0,P|28:216|28:184,1,140
256,192,52132,12,0,54930,0:0:0:0:
324,148,55241,6,0,P|344:248|312:332,1,100
244,252,55862,2,0,P|192:344|176:356,1,100
108,296,56484,1,0,0:0:0:0:
60,208,56795,1,0,0:0:0:0:
88,112,57106,1,0,0:0:0:0:
184,84,57417,6,0,P|296:56|316:60,1,100
332,140,58038,2,0,P|440:136|464:144,1,100
476,224,58660,1,0,0:0:0:0:
444,320,58971,1,0,0:0:0:0:
344,320,59282,1,0,0:0:0:0:
260,264,59593,6,0,P|232:160|224:140,1,100
156,104,60215,2,0,P|112:204|124:304,1,200
212,332,61147,1,0,0:0:0:0:
312,324,61458,1,0,0:0:0:0:
364,236,61769,6,0,P|420:140|424:128,1,100
328,100,62391,2,0,P|260:184|256:204,1,100
220,264,63013,1,0,0:0:0:0:
148,332,63323,1,0,0:0:0:0:
48,312,63634,1,0,0:0:0:0:
32,212,63945,6,0,P|12:104|20:80,1,100
104,80,64567,2,0,P|192:28|208:24,1,100
280,72,65189,1,0,0:0:0:0:
356,136,65500,1,0,0:0:0:0:
368,236,65810,1,0,0:0:0:0:
304,312,66121,6,0,P|208:356|192:356,1,100
120,332,66743,2,0,P|32:264|24:252,1,100
52,176,67365,1,0,0:0:0:0:
120,100,67676,1,0,0:0:0:0:
216,132,67987,6,0,P|304:196|312:208,1,100
324,284,68608,2,0,P|416:344|432:360,1,100
500,292,69230,1,0,0:0:0:0:
476,196,69541,1,0,0:0:0:0:
396,132,69852,1,0,0:0:0:0:
296,144,70163,6,0,P|208:212|152:284,1,200
56,264,71095,1,0,0:0:0:0:
96,172,71406,2,0,P|184:92|272:72,1,200
356,96,72339,1,0,0:0:0:0:
352,196,72650,6,0,P|312:308|244:364,1,200
176,292,73582,2,0,L|128:192,1,100
180,116,74204,1,0,0:0:0:0:
280,104,74515,2,0,P|368:184|416:272,1,200
332,320,75448,6,0,P|236:364|208:364,1,100
144,352,76070,2,0,P|40:340|32:336,1,100
44,244,76691,1,0,0:0:0:0:
68,148,77002,1,0,0:0:0:0:
128,68,77313,1,0,0:0:0:0:
228,80,77624,6,0,P|320:136|336:152,1,100
256,212,78246,2,0,P|344:272|352:284,1,100
404,344,78867,1,0,0:0:0:0:
496,304,79178,1,0,0:0:0:0:
496,204,79489,1,0,0:0:0:0:
432,128,79800,1,0,0:0:0:0:
332,128,80111,6,0,P|208:164|120:224,1,200
304,324,81355,2,0,P|404:276|464:208,1,200
256,192,82598,12,0,85085,0:0:0:0:
