osu file format v14

[General]
AudioFilename: audio.mp3
AudioLeadIn: 0
PreviewTime:56106
Countdown: 0
SampleSet: Soft
StackLeniency: 0.7
Mode: 2
LetterboxInBreaks: 0
WidescreenStoryboard: 1

[Editor]
DistanceSpacing: 1
BeatDivisor: 2
GridSize: 16
TimelineZoom: 1

[Metadata]
Title:Now Loading!!!! (TV Size)
TitleUnicode:Now Loading!!!! (TV Size)
Artist:fourfolium
ArtistUnicode:fourfolium
Creator:Greaper
Version:Cup
Source:NEW GAME!
Tags:Secre chickenbible Usaha Nana Abe Takekii Hanasaka Yui フォーフォリウム ニューゲーム ending ed takada yuuki 高田憂希 suzukaze aoba 涼風青葉 yamaguchi megumi 山口愛 takimoto hifumi 滝本ひふみ toda 戸田めぐみ shinoda hazime 篠田はじめ ayumi takeo 竹尾歩美 iizima yun 飯島ゆん japanese pop jpop j-pop anime
BeatmapID:3207518
BeatmapSetID:1570783

[Difficulty]
HPDrainRate:2
CircleSize:2.5
OverallDifficulty:6
ApproachRate:6
SliderMultiplier:1.2
SliderTickRate:1

[Events]
//Background and Video events
0,0,"bg.jpg",0,0
//Break Periods
//Storyboard Layer 0 (Background)
//Storyboard Layer 1 (Fail)
//Storyboard Layer 2 (Pass)
//Storyboard Layer 3 (Foreground)
//Storyboard Layer 4 (Overlay)
//Storyboard Sound Samples

[TimingPoints]
537,310.880829015544,4,2,11,60,1,0
3334,-100,4,2,11,60,0,0
3490,-100,4,2,11,60,0,0
4267,-100,4,2,11,75,0,0
14215,-100,4,2,11,50,0,0
24163,-100,4,2,11,60,0,0
49034,-100,4,2,11,70,0,0
56029,-100,4,2,11,65,0,0
56184,-100,4,2,11,65,0,0
56495,-90.9090909090909,4,2,11,80,0,1
76391,-100,4,2,11,70,0,0
83853,-100,4,2,11,80,0,0
88049,-100,4,2,11,70,0,0
88205,-100,4,2,11,85,0,0

[Colours]
Combo1 : 179,230,132
Combo2 : 231,131,216
Combo3 : 131,133,231
Combo4 : 231,131,131

[HitObjects]
256,192,1780,12,2,3334,2:0:0:0:
356,154,3645,6,0,L|356:79,1,60,8|4,2:0|2:0,0:0:0:0:
174,104,4267,6,0,L|171:226,1,120,4|8,2:0|2:0,0:0:0:0:
291,210,4889,2,0,L|294:281,1,60,8|2,2:3|2:3,0:0:0:0:
166,289,5355,6,0,L|28:302,1,120,2|2,2:3|2:3,0:0:0:0:
164,278,5977,2,0,P|184:228|149:147,1,120,2|2,2:3|2:3,0:0:0:0:
106,150,6443,1,8,2:0:0:0:
247,107,6754,6,0,L|372:104,1,120,8|8,2:3|2:0,0:0:0:0:
485,153,7376,2,0,L|491:223,1,60,8|2,2:3|2:3,0:0:0:0:
363,246,7842,6,0,L|238:258,1,120,2|2,2:3|2:3,0:0:0:0:
359,190,8464,2,0,L|491:179,1,120,2|2,2:3|2:3,0:0:0:0:
479,97,8930,1,8,2:0:0:0:
342,67,9241,6,0,P|297:116|357:200,1,180,4|2,2:0|2:3,0:0:0:0:
412,202,9863,1,8,2:3:0:0:
291,255,10174,1,8,2:0:0:0:
172,252,10485,6,0,P|139:225|189:106,1,180,8|2,2:3|2:3,0:0:0:0:
232,106,11106,1,8,2:3:0:0:
356,84,11417,1,10,2:0:0:0:
226,51,11728,6,0,L|37:44,2,180,4|4|4,2:0|2:0|2:0,0:0:0:0:
411,104,13127,2,0,P|340:138|413:303,1,300,4|8,2:0|2:3,0:0:0:0:
259,326,14215,5,4,2:0:0:0:
139,328,14526,2,0,L|133:201,1,120,8|8,2:3|2:3,0:0:0:0:
254,201,15148,1,8,2:3:0:0:
313,195,15303,6,0,P|328:130|312:77,1,120
189,50,15925,2,0,P|154:116|232:161,1,180,0|8,0:0|2:3,0:0:0:0:
293,205,16547,5,8,2:0:0:0:
459,253,17013,2,0,L|463:322,1,60,8|0,2:3|0:0,0:0:0:0:
286,283,17635,1,8,2:3:0:0:
281,345,17790,6,0,L|422:356,2,120
159,298,18723,2,0,L|157:224,1,60,4|8,2:0|2:3,0:0:0:0:
284,224,19189,6,0,P|313:159|279:119,1,120,8|8,2:3|2:3,0:0:0:0:
169,121,19811,2,0,L|310:103,1,120,8|8,2:3|2:3,0:0:0:0:
349,94,20277,6,0,L|502:72,2,120
169,165,21366,1,8,2:3:0:0:
105,183,21521,6,0,P|55:225|128:309,1,180,8|8,2:0|2:3,0:0:0:0:
165,317,22143,1,0,0:0:0:0:
353,327,22609,1,8,2:3:0:0:
287,316,22764,6,0,P|269:251|283:189,1,120,2|0,2:3|0:0,0:0:0:0:
399,184,23386,1,0,0:0:0:0:
279,137,23697,2,0,L|278:57,1,60,8|8,2:0|2:0,0:0:0:0:
341,66,24008,1,8,2:0:0:0:
409,42,24163,6,0,L|276:32,1,120,4|8,2:0|2:0,0:0:0:0:
163,67,24785,2,0,L|157:194,1,120,8|8,2:3|2:0,0:0:0:0:
223,192,25252,6,0,L|348:201,2,120
45,224,26340,1,8,2:0:0:0:
108,238,26495,6,0,P|157:196|90:96,1,180,0|8,0:0|2:0,0:0:0:0:
57,87,27117,1,0,0:0:0:0:
244,62,27583,1,8,2:0:0:0:
306,66,27739,6,0,L|311:201,1,120
183,206,28360,1,0,0:0:0:0:
312,247,28671,2,0,L|319:310,2,60,0|8|2,0:0|2:0|2:3,0:0:0:0:
243,264,29138,6,0,L|97:261,2,120,8|8|8,2:3|2:0|2:3,0:0:0:0:
359,259,30070,1,8,2:0:0:0:
231,190,30381,6,0,L|106:186,2,120,8|8|8,2:3|2:0|2:3,0:0:0:0:
355,204,31314,1,8,2:0:0:0:
496,176,31625,6,0,P|493:101|422:71,1,120,8|8,2:3|2:0,0:0:0:0:
400,69,32091,1,0,0:0:0:0:
213,68,32557,1,8,2:0:0:0:
274,99,32713,6,0,P|302:157|271:220,1,120,2|4,2:3|2:0,0:0:0:0:
225,227,33179,1,4,2:0:0:0:
103,242,33490,2,0,L|96:102,1,120,8|8,2:3|2:3,0:0:0:0:
224,109,34112,6,0,L|368:100,1,120,4|0,2:0|0:0,0:0:0:0:
225,182,34733,2,0,L|217:321,1,120,8|0,2:0|0:0,0:0:0:0:
357,307,35355,6,0,P|391:249|351:207,1,120,8|8,2:3|2:3,0:0:0:0:
249,187,35977,2,0,L|123:176,1,120,8|0,2:0|0:0,0:0:0:0:
259,131,36599,6,0,L|408:135,1,120,8|0,2:3|0:0,0:0:0:0:
381,61,37065,1,8,2:3:0:0:
253,37,37376,1,0,0:0:0:0:
122,73,37687,6,0,L|326:87,1,180,8|8,2:0|2:3,0:0:0:0:
427,156,38464,2,0,L|435:291,1,120,8|0,2:0|0:0,0:0:0:0:
374,286,38930,1,0,0:0:0:0:
303,306,39086,6,0,L|453:321,1,120,4|0,2:0|0:0,0:0:0:0:
428,369,39552,1,8,2:3:0:0:
370,379,39707,1,8,2:0:0:0:
245,344,40018,6,0,P|190:284|246:209,1,180,0|8,0:0|2:0,0:0:0:0:
296,201,40640,1,8,2:3:0:0:
416,169,40951,1,8,2:0:0:0:
296,124,41262,2,0,L|206:120,1,60,0|8,0:0|2:0,0:0:0:0:
172,115,41573,5,8,2:3:0:0:
55,168,41884,2,0,P|37:246|66:291,1,120,8|8,2:0|2:0,0:0:0:0:
186,284,42505,6,0,L|37:304,1,120,4|0,2:0|0:0,0:0:0:0:
186,214,43127,1,8,2:3:0:0:
186,214,43438,2,0,L|57:204,1,120,8|8,2:0|2:3,0:0:0:0:
198,165,44060,6,0,L|335:166,1,120,4|0,2:0|0:0,0:0:0:0:
431,159,44682,2,0,P|455:88|432:50,1,120,8|0,2:0|0:0,0:0:0:0:
310,57,45303,6,0,L|308:187,1,120,8|2,2:3|2:0,0:0:0:0:
434,195,45925,2,0,L|309:202,1,120,8|2,2:0|2:0,0:0:0:0:
191,259,46547,6,0,P|236:197|175:112,1,180,8|8,2:3|2:3,0:0:0:0:
66,112,47324,1,0,0:0:0:0:
189,83,47635,6,0,L|397:70,1,180,8|8,2:0|2:3,0:0:0:0:
250,172,48412,2,0,L|248:295,1,120,8|4,2:0|2:0,0:0:0:0:
374,299,49034,6,0,L|502:300,1,120,4|8,2:0|2:0,0:0:0:0:
378,229,49656,2,0,L|374:103,1,120,8|8,2:3|2:0,0:0:0:0:
253,101,50277,6,0,L|127:97,1,120,4|8,2:0|2:0,0:0:0:0:
16,144,50899,2,0,L|18:275,1,120,8|8,2:3|2:0,0:0:0:0:
153,309,51521,6,0,B|398:295|398:295|403:169,1,360,4|8,2:0|2:3,0:0:0:0:
260,194,52764,6,0,L|121:173,1,120,8|8,2:3|2:3,0:0:0:0:
276,94,53386,2,0,L|397:103,1,120,8|8,2:0|2:0,0:0:0:0:
396,173,53853,1,8,2:0:0:0:
257,223,54163,6,0,L|252:290,1,60,12|12,2:0|2:0,0:0:0:0:
380,317,54630,2,0,L|318:325,1,60,12|12,2:0|2:0,0:0:0:0:
197,337,55096,1,12,2:0:0:0:
197,337,56184,1,8,2:3:0:0:
345,264,56495,6,0,P|371:197|334:151,1,132,4|8,2:0|2:0,0:0:0:0:
207,153,57117,2,0,L|201:290,1,132,8|8,2:3|2:0,0:0:0:0:
336,290,57739,5,8,2:3:0:0:
470,259,58049,2,0,L|466:170,1,66,8|2,2:0|2:3,0:0:0:0:
255,178,58671,1,8,2:0:0:0:
404,171,58982,6,0,P|425:108|385:44,1,132,8|8,2:3|2:0,0:0:0:0:
259,48,59604,2,0,L|125:41,1,132,8|8,2:3|2:0,0:0:0:0:
275,129,60226,5,8,2:3:0:0:
137,159,60537,2,0,L|133:231,1,66,8|2,2:0|2:3,0:0:0:0:
321,245,61158,1,8,2:0:0:0:
174,311,61469,6,0,L|35:321,1,132,8|8,2:3|2:0,0:0:0:0:
173,259,62091,2,0,P|196:185|169:112,1,132,8|8,2:3|2:0,0:0:0:0:
43,111,62713,6,0,L|315:88,1,264,8|8,2:3|2:3,0:0:0:0:
321,200,63645,1,8,2:0:0:0:
175,187,63956,6,0,P|150:261|189:318,1,132,4|8,2:0|2:0,0:0:0:0:
324,308,64578,2,0,L|457:318,1,132,4|8,2:0|2:0,0:0:0:0:
306,232,65200,6,0,L|301:156,1,66,8|4,2:3|2:0,0:0:0:0:
437,148,65666,2,0,L|437:72,1,66,4|8,2:0|2:3,0:0:0:0:
314,74,66132,1,8,2:0:0:0:
158,65,66443,6,0,P|120:121|161:181,1,132,4|8,2:0|2:0,0:0:0:0:
282,202,67065,2,0,L|142:231,1,132,8|8,2:3|2:0,0:0:0:0:
20,241,67687,6,0,P|42:329|112:332,1,132,8|8,2:3|2:0,0:0:0:0:
137,340,68153,1,2,2:3:0:0:
335,313,68619,2,0,L|337:235,1,66,8|2,2:0|2:3,0:0:0:0:
263,233,68930,6,0,L|119:215,1,132,8|8,2:3|2:0,0:0:0:0:
129,145,69397,1,2,2:3:0:0:
194,135,69552,1,8,2:3:0:0:
326,128,69863,1,8,2:0:0:0:
469,129,70174,6,0,P|494:205|454:256,1,132,8|8,2:3|2:0,0:0:0:0:
402,260,70640,1,2,2:3:0:0:
207,289,71106,1,8,2:0:0:0:
350,319,71417,6,0,P|369:255|347:187,1,132,4|8,2:0|2:0,0:0:0:0:
225,185,72039,1,8,2:3:0:0:
347,147,72350,1,8,2:0:0:0:
202,136,72661,6,0,L|63:132,1,132,8|8,2:3|2:0,0:0:0:0:
197,83,73283,1,8,2:3:0:0:
72,75,73593,1,8,2:0:0:0:
229,81,73904,6,0,P|251:154|215:208,1,132,4|8,2:0|2:0,0:0:0:0:
78,208,74526,2,0,L|224:214,1,132,4|8,2:0|2:0,0:0:0:0:
340,225,75148,6,0,L|368:148,2,66,8|4|8,2:3|2:0|2:3,0:0:0:0:
204,261,75770,2,0,P|165:192|209:72,1,198,8|8,2:0|2:0,0:0:0:0:
258,76,76391,6,0,L|403:62,1,120,4|8,2:0|2:0,0:0:0:0:
257,165,77013,2,0,L|253:242,1,60,8|2,2:3|2:3,0:0:0:0:
372,236,77480,6,0,L|493:242,1,120,2|2,2:3|2:3,0:0:0:0:
373,340,78101,2,0,P|315:279|376:233,1,180,2|8,2:3|2:0,0:0:0:0:
241,187,78878,6,0,L|102:176,1,120,8|8,2:3|2:0,0:0:0:0:
247,129,79500,2,0,L|258:54,1,60,8|2,2:3|2:3,0:0:0:0:
135,53,79967,6,0,L|13:48,2,120,2|2|2,2:3|2:3|2:3,0:0:0:0:
259,119,80899,2,0,L|266:195,1,60,2|8,2:3|2:0,0:0:0:0:
143,224,81366,6,0,L|341:236,1,180,4|2,2:0|2:3,0:0:0:0:
261,283,81987,2,0,P|229:237|257:173,1,120,8|8,2:3|2:0,0:0:0:0:
382,176,82609,6,0,P|410:129|342:35,1,180,8|2,2:3|2:3,0:0:0:0:
284,32,83231,1,8,2:3:0:0:
420,236,83542,2,0,L|425:314,1,60,4|8,2:0|2:3,0:0:0:0:
353,309,83853,6,0,L|158:320,2,180,4|4|4,2:0|2:0|2:0,0:0:0:0:
142,271,85252,2,0,P|90:226|159:138,1,180,4|8,2:0|2:3,0:0:0:0:
254,123,86029,1,12,2:0:0:0:
120,70,86340,5,4,2:0:0:0:
256,192,86650,12,0,87894,0:0:0:0:
336,192,88205,6,0,P|351:130|339:74,1,120,8|8,2:0|2:0,0:0:0:0:
272,73,88671,1,12,2:0:0:0:
