osu file format v14

[General]
AudioFilename: now loading!!!!.mp3
AudioLeadIn: 0
PreviewTime: 54917
Countdown: 1
SampleSet: Normal
StackLeniency: 0.7
Mode: 0
LetterboxInBreaks: 0
WidescreenStoryboard: 1

[Editor]
DistanceSpacing: 0.8
BeatDivisor: 4
GridSize: 8
TimelineZoom: 2.499999

[Metadata]
Title:Now Loading!!!!
TitleUnicode:Now Loading!!!!
Artist:fourfolium
ArtistUnicode:fourfolium
Creator:LITEON
Version:Easy
Source:NEW GAME!
Tags:ニューゲーム! Ending fourfolium takeda yuuki 高田憂希 suzukaze aoba 涼風青葉 yamaguchi megumi 山口愛 takimoto hifumi 滝本ひふみ toda megumi 戸田めぐみ shinoda hajime 篠田はじめ ayumi takeo 竹尾歩美 iijima yun 飯島ゆん
BeatmapID:1039565
BeatmapSetID:487611

[Difficulty]
HPDrainRate:2
CircleSize:2.5
OverallDifficulty:3
ApproachRate:3
SliderMultiplier:1.4
SliderTickRate:1

[Events]
//Background and Video events
0,0,"BG.jpg",0,0
Video,0,"Ending.avi"
//Break Periods
//Storyboard Layer 0 (Background)
//Storyboard Layer 1 (Fail)
//Storyboard Layer 2 (Pass)
//Storyboard Layer 3 (Foreground)
//Storyboard Sound Samples

[TimingPoints]
3000,310.880829015544,4,1,0,100,1,0
3000,-125,4,1,1,70,0,0
13259,-125,4,1,1,65,0,0
22896,-125,4,1,1,70,0,0
33466,-166.666666666667,4,1,1,60,0,0
42792,-125,4,1,1,70,0,0
50253,-125,4,1,1,80,0,0
55228,-166.666666666667,4,1,1,90,0,1
63932,-125,4,1,1,80,0,0
65176,-125,4,1,1,80,0,1
75124,-125,4,1,1,85,0,0
86626,-125,4,1,1,5,0,0
86937,-125,4,1,1,95,0,0

[Colours]
Combo1 : 255,200,32
Combo2 : 128,0,128
Combo3 : 168,84,0
Combo4 : 121,121,255

[HitObjects]
256,192,513,12,0,2533,0:0:0:0:
120,96,3000,6,0,P|216:112|328:176,1,224,2|0,0:0|0:0,0:0:0:0:
325,173,4243,2,2,P|181:165|96:192,1,224
72,104,5487,1,4,0:0:0:0:
184,144,6108,1,4,0:0:0:0:
264,232,6730,2,0,P|208:240|24:224,1,224,2|0,0:0|0:0,0:0:0:0:
32,152,7974,6,8,P|152:144|264:160,1,224
242,237,9217,2,8,P|145:223|16:224,1,224
256,192,10461,12,0,12948,0:0:0:0:
408,120,13259,5,0,0:0:0:0:
408,120,13569,2,0,P|416:176|336:328,1,224
224,296,14813,1,0,0:0:0:0:
200,192,15435,1,0,0:0:0:0:
264,120,16056,1,8,0:0:0:0:
352,80,16678,2,0,B|352:192|272:208|264:288,1,224
139,281,17922,6,0,B|64:164|216:112,1,224
372,281,19165,2,0,B|447:164|288:112,1,224
312,216,20409,5,8,0:0:0:0:
240,272,21031,1,12,0:0:0:0:
136,224,21652,2,0,B|312:80,1,224
368,168,22896,5,0,0:0:0:0:
432,256,23518,2,0,L|499:157,1,112
424,96,24139,1,8,0:0:0:0:
344,152,24761,1,8,0:0:0:0:
296,248,25383,6,0,L|408:248,2,112
216,248,26316,1,0,0:0:0:0:
216,160,26626,2,0,L|448:160,1,224
369,239,27870,6,0,P|316:254|280:296,1,112
160,216,28803,1,2,0:0:0:0:
160,216,29114,2,0,P|216:216|256:168,1,112
252,177,30046,1,6,0:0:0:0:
256,192,30357,12,0,32844,0:0:0:0:
200,104,33466,5,12,0:0:0:0:
144,176,34088,2,0,P|200:184|312:160,1,167.999994873047
360,224,35331,2,0,P|352:264|376:320,2,83.9999974365235
392,128,36264,2,0,L|296:96,1,83.9999974365235
240,160,37196,5,8,0:0:0:0:
160,208,37818,2,0,B|64:352|32:112,1,251.999992309571
176,136,39683,5,8,0:0:0:0:
176,208,40305,2,0,B|264:232|344:200|352:192,1,167.999994873047
344,200,41238,1,0,0:0:0:0:
328,272,42170,1,0,0:0:0:0:
232,160,42792,5,12,0:0:0:0:
240,248,43414,2,0,B|312:240|344:208|376:224|368:136|344:104,1,224
345,106,44658,1,8,0:0:0:0:
232,104,45279,2,0,L|48:232,1,224
280,168,46523,2,0,L|96:296,1,224
328,288,47766,6,0,L|400:64,1,224
240,304,49010,2,0,L|264:80,1,224
184,88,50253,1,0,0:0:0:0:
136,144,50875,1,4,0:0:0:0:
128,216,51497,1,8,0:0:0:0:
168,280,52119,1,4,0:0:0:0:
256,192,52740,12,0,54917,0:0:0:0:
128,128,55228,6,0,P|208:120|272:176,1,167.999994873047
344,216,56471,1,2,0:0:0:0:
352,288,57093,2,0,L|264:320,1,83.9999974365235
208,128,57715,5,4,0:0:0:0:
208,128,58336,2,0,P|144:176|144:184,1,83.9999974365235
280,112,58958,2,0,L|312:280,1,167.999994873047
192,200,60202,5,4,0:0:0:0:
200,200,60823,1,4,0:0:0:0:
288,256,61445,2,0,B|376:176|368:144|368:144|352:120|352:112,1,167.999994873047
240,128,62689,5,4,0:0:0:0:
240,128,63310,1,4,0:0:0:0:
240,128,63932,2,8,B|120:120|88:168|64:248,1,224
176,272,65176,5,0,0:0:0:0:
280,272,65797,1,0,0:0:0:0:
376,256,66419,2,0,P|336:200|264:48,1,224
208,136,67663,5,2,3:0:0:0:
144,184,68285,1,4,0:0:0:0:
152,272,68906,1,2,3:0:0:0:
224,328,69528,1,12,0:0:0:0:
232,184,70150,6,0,B|304:192|352:192|352:192|424:224|456:256,1,224
306,282,71393,2,0,B|288:288|224:272|184:256|184:256|160:248|104:200,1,224
128,128,72637,1,4,0:0:0:0:
208,128,73259,1,4,0:0:0:0:
288,136,73880,2,0,B|328:232|152:272,1,224
176,112,75124,6,0,P|312:152|328:240,1,224
216,208,76367,1,4,0:0:0:0:
216,208,76989,1,10,2:0:0:0:
304,136,77611,2,0,P|310:240|224:328,1,224
184,264,78854,1,0,0:0:0:0:
72,255,79476,2,0,L|204:265,1,112
184,144,80098,6,0,P|264:152|352:256,1,224
184,144,81341,2,0,P|246:194|263:329,1,224
256,192,82585,12,0,86626,0:0:0:0:
160,152,86937,6,0,L|160:224,3,56
