osu file format v14

[General]
AudioFilename: audio.mp3
AudioLeadIn: 0
PreviewTime: 54930
Countdown: 0
SampleSet: Normal
StackLeniency: 0.7
Mode: 3
LetterboxInBreaks: 0
SpecialStyle: 0
WidescreenStoryboard: 0

[Editor]
Bookmarks: 12961,22909
DistanceSpacing: 1
BeatDivisor: 4
GridSize: 32
TimelineZoom: 2.999999

[Metadata]
Title:Now Loading!!!!
TitleUnicode:Now Loading!!!!
Artist:fourfolium
ArtistUnicode:fourfolium
Creator:JztCallMeRon
Version:Blue's Insane
Source:NEW GAME!
Tags:-BlueFire- dudehacker フォーフォリウム ニューゲーム ending ed tv size takada yuuki 高田憂希 suzukaze aoba 涼風青葉 yamaguchi megumi 山口愛 takimoto hifumi 滝本ひふみ toda megumi 戸田めぐみ shinoda hajime 篠田はじめ ayumi takeo 竹尾歩美 iijima yun 飯島ゆん
BeatmapID:1104762
BeatmapSetID:520082

[Difficulty]
HPDrainRate:8
CircleSize:7
OverallDifficulty:7.5
ApproachRate:5
SliderMultiplier:1.4
SliderTickRate:1

[Events]
//Background and Video events
Video,0,"newgame_ed.avi"
0,0,"715203.png",0,0
//Break Periods
//Storyboard Layer 0 (Background)
//Storyboard Layer 1 (Fail)
//Storyboard Layer 2 (Pass)
//Storyboard Layer 3 (Foreground)
//Storyboard Sound Samples
Sample,35655,0,"bitter hat.wav",60
Sample,36588,0,"bitter hat.wav",60
Sample,38142,0,"bitter hat.wav",60
Sample,39386,0,"bitter hat.wav",60
Sample,40007,0,"bitter hat.wav",60
Sample,43116,0,"bitter hat.wav",60
Sample,74515,0,"cymbal clap.wav",60
Sample,74671,0,"normal-hitclap.wav",60
Sample,74826,0,"normal-hitclap.wav",60
Sample,74981,0,"normal-hitclap.wav",60

[TimingPoints]
526,310.88083,4,1,1,50,1,0
3013,-100,4,1,1,60,0,0
55241,-100,4,1,1,50,0,1
75137,-100,4,1,1,60,0,0

[HitObjects]
36,192,2235,5,2,0:0:0:50:
475,192,2235,1,0,0:0:0:0:
329,192,2313,1,2,0:0:0:50:
182,192,2313,1,0,0:0:0:0:
109,192,2391,1,4,0:0:0:50:
402,192,2391,1,0,0:0:0:0:
256,192,2391,128,0,2546:0:0:0:0:
329,192,2546,1,4,0:0:0:50:
475,192,2546,1,0,0:0:0:60:cymbal clap.wav
36,192,2546,128,0,2702:0:0:0:0:
182,192,2702,128,0,2857:0:0:0:0:
402,192,2702,1,0,0:0:0:0:
329,192,2857,128,0,2935:0:0:0:0:
402,192,2935,128,0,3013:0:0:0:0:
36,192,3013,1,2,0:0:0:60:
475,192,3013,128,0,3168:0:0:0:60:normal-hitfinish.wav
182,192,3013,1,0,0:0:0:0:
109,192,3168,128,0,3323:0:0:0:60:bitter hat.wav
256,192,3168,1,0,0:0:0:0:
402,192,3323,128,8,3479:0:0:0:60:
36,192,3323,1,0,0:0:0:0:
329,192,3323,1,0,0:0:0:0:
475,192,3323,1,0,0:0:0:0:
256,192,3479,128,0,3634:0:0:0:60:bitter hat.wav
182,192,3479,1,0,0:0:0:0:
109,192,3634,128,2,3790:0:0:0:60:
36,192,3634,1,0,0:0:0:0:
475,192,3634,1,0,0:0:0:0:
329,192,3790,128,0,3945:0:0:0:60:bitter hat.wav
256,192,3790,1,0,0:0:0:0:
475,192,3945,1,8,0:0:0:60:
402,192,3945,1,0,0:0:0:0:
182,192,3945,1,0,0:0:0:0:
36,192,4101,128,0,4256:0:0:0:60:bitter hat.wav
256,192,4101,1,0,0:0:0:0:
109,192,4256,1,2,0:0:0:60:
402,192,4256,1,0,0:0:0:0:
182,192,4412,128,0,4567:0:0:0:60:bitter hat.wav
329,192,4412,1,0,0:0:0:0:
256,192,4567,1,8,0:0:0:60:
475,192,4567,1,0,0:0:0:0:
36,192,4567,1,0,0:0:0:0:
329,192,4722,128,0,5033:0:0:0:60:bitter hat.wav
402,192,4722,1,0,0:0:0:0:
36,192,4878,1,2,0:0:0:60:
109,192,4878,1,0,0:0:0:0:
182,192,5033,128,0,5189:0:0:0:60:bitter hat.wav
256,192,5033,1,0,0:0:0:0:
402,192,5189,1,8,0:0:0:60:
475,192,5189,1,0,0:0:0:0:
109,192,5189,1,0,0:0:0:0:
329,192,5344,128,0,5500:0:0:0:60:bitter hat.wav
256,192,5344,1,0,0:0:0:0:
109,192,5500,1,2,0:0:0:60:
36,192,5500,128,0,5655:0:0:0:0:
402,192,5500,1,0,0:0:0:0:
256,192,5655,128,0,5810:0:0:0:60:bitter hat.wav
329,192,5655,1,0,0:0:0:0:
475,192,5810,128,8,5966:0:0:0:60:
402,192,5810,1,0,0:0:0:0:
182,192,5810,1,0,0:0:0:0:
109,192,5810,1,0,0:0:0:0:
329,192,5966,128,0,6121:0:0:0:60:bitter hat.wav
256,192,5966,1,0,0:0:0:0:
182,192,6121,128,2,6277:0:0:0:60:
109,192,6121,1,0,0:0:0:0:
402,192,6121,1,0,0:0:0:0:
36,192,6277,128,0,6432:0:0:0:60:bitter hat.wav
256,192,6277,1,0,0:0:0:0:
475,192,6432,1,8,0:0:0:60:
329,192,6432,1,0,0:0:0:0:
109,192,6432,1,0,0:0:0:0:
402,192,6588,128,0,6743:0:0:0:60:bitter hat.wav
182,192,6588,1,0,0:0:0:0:
329,192,6743,1,2,0:0:0:60:
36,192,6743,1,0,0:0:0:0:
256,192,6899,128,0,7054:0:0:0:60:bitter hat.wav
109,192,6899,1,0,0:0:0:0:
182,192,7054,1,8,0:0:0:60:
402,192,7054,1,0,0:0:0:0:
475,192,7054,1,0,0:0:0:0:
36,192,7209,128,0,7520:0:0:0:60:bitter hat.wav
329,192,7209,1,0,0:0:0:0:
182,192,7365,1,2,0:0:0:60:
475,192,7365,1,0,0:0:0:0:
329,192,7520,128,0,7676:0:0:0:60:bitter hat.wav
256,192,7520,1,0,0:0:0:0:
182,192,7676,128,8,7831:0:0:0:60:
402,192,7676,1,0,0:0:0:0:
475,192,7676,1,0,0:0:0:0:
109,192,7676,1,0,0:0:0:0:
36,192,7831,128,0,7987:0:0:0:60:bitter hat.wav
256,192,7831,1,0,0:0:0:0:
182,192,7987,1,2,0:0:0:60:
109,192,7987,1,0,0:0:0:60:cymbal whistle.wav
475,192,7987,128,0,8142:0:0:0:0:
402,192,7987,1,0,0:0:0:0:
329,192,8142,128,0,8298:0:0:0:60:bitter hat.wav
182,192,8142,1,0,0:0:0:0:
36,192,8298,1,8,0:0:0:60:
109,192,8298,1,0,0:0:0:0:
256,192,8298,1,0,0:0:0:0:
402,192,8453,128,0,8608:0:0:0:60:bitter hat.wav
475,192,8453,1,0,0:0:0:0:
109,192,8608,128,2,8764:0:0:0:60:
36,192,8608,1,0,0:0:0:0:
256,192,8608,1,0,0:0:0:0:
402,192,8764,128,0,8919:0:0:0:60:bitter hat.wav
256,192,8764,1,0,0:0:0:0:
475,192,8919,1,8,0:0:0:60:
182,192,8919,1,0,0:0:0:0:
36,192,8919,1,0,0:0:0:0:
329,192,9075,128,0,9230:0:0:0:60:bitter hat.wav
256,192,9075,1,0,0:0:0:0:
182,192,9230,128,2,9386:0:0:0:60:
475,192,9230,1,0,0:0:0:0:
109,192,9230,1,0,0:0:0:0:
329,192,9386,128,0,9541:0:0:0:60:bitter hat.wav
475,192,9386,1,0,0:0:0:0:
109,192,9541,1,8,0:0:0:60:
36,192,9541,1,0,0:0:0:0:
256,192,9541,1,0,0:0:0:0:
475,192,9696,128,0,9852:0:0:0:60:bitter hat.wav
402,192,9696,1,0,0:0:0:0:
36,192,9852,128,2,10007:0:0:0:60:
329,192,9852,1,0,0:0:0:0:
182,192,9852,1,0,0:0:0:0:
475,192,10007,128,0,10163:0:0:0:60:bitter hat.wav
329,192,10007,1,0,0:0:0:0:
36,192,10163,1,8,0:0:0:60:
109,192,10163,1,0,0:0:0:0:
402,192,10163,1,0,0:0:0:0:
256,192,10318,1,0,0:0:0:60:bitter hat.wav
329,192,10318,1,0,0:0:0:0:
402,192,10474,128,4,10629:0:0:0:60:
109,192,10474,1,0,0:0:0:0:
475,192,10474,1,0,0:0:0:0:
36,192,10474,1,0,0:0:0:0:
109,192,10629,128,4,10785:0:0:0:60:
329,192,10629,1,0,0:0:0:0:
256,192,10785,1,0,0:0:0:0:
475,192,10785,1,0,0:0:0:0:
182,192,10940,128,4,11095:0:0:0:60:
36,192,10940,1,0,0:0:0:0:
329,192,10940,1,0,0:0:0:0:
402,192,10940,1,0,0:0:0:0:
329,192,11095,128,4,11251:0:0:0:60:
475,192,11095,1,0,0:0:0:0:
109,192,11251,1,0,0:0:0:0:
256,192,11251,1,0,0:0:0:0:
475,192,11406,128,8,11562:0:0:0:60:
36,192,11406,1,0,0:0:0:0:
329,192,11406,1,0,0:0:0:0:
402,192,11406,1,0,0:0:0:0:
36,192,11562,128,8,11717:0:0:0:60:
256,192,11562,1,0,0:0:0:0:
109,192,11717,1,0,0:0:0:0:
402,192,11717,1,0,0:0:0:0:
256,192,11873,128,8,12961:0:0:0:60:
182,192,11873,1,0,0:0:0:0:
36,192,11873,1,0,0:0:0:0:
475,192,11873,1,0,0:0:0:0:
329,192,12028,1,10,0:0:0:60:normal-hitwhistle.wav
402,192,12028,1,0,0:0:0:0:
475,192,12184,1,8,0:0:0:60:
109,192,12184,1,0,0:0:0:0:
36,192,12184,1,0,0:0:0:0:
182,192,12339,1,0,0:0:0:0:
329,192,12339,1,0,0:0:0:0:
36,192,12494,1,8,0:0:0:60:
402,192,12494,1,0,0:0:0:0:
475,192,12494,1,0,0:0:0:0:
109,192,12650,1,8,0:0:0:60:
402,192,12650,1,0,0:0:0:0:
182,192,12650,1,0,0:0:0:0:
109,192,12805,128,0,12961:0:0:0:0:
475,192,12961,128,2,15448:0:0:0:60:
402,192,12961,1,0,0:0:0:60:cymbal clap.wav
36,192,12961,1,0,0:0:0:0:
182,192,13116,1,0,0:0:0:0:
402,192,13272,1,2,0:0:0:60:
36,192,13427,1,0,0:0:0:0:
402,192,13582,1,2,0:0:0:60:
182,192,13738,1,0,0:0:0:0:
402,192,13893,1,2,0:0:0:60:
36,192,14049,1,0,0:0:0:0:
402,192,14204,1,2,0:0:0:60:
182,192,14360,1,0,0:0:0:0:
402,192,14515,1,2,0:0:0:60:
36,192,14671,1,0,0:0:0:0:
402,192,14826,1,2,0:0:0:60:
182,192,14981,1,0,0:0:0:0:
329,192,15137,128,2,15448:0:0:0:60:
109,192,15137,1,0,0:0:0:0:
256,192,15292,1,2,0:0:0:60:
182,192,15370,1,2,0:0:0:60:
109,192,15448,1,2,0:0:0:60:
36,192,15448,1,0,0:0:0:0:
402,192,15603,1,0,0:0:0:0:
109,192,15759,1,2,0:0:0:60:
329,192,15914,1,0,0:0:0:0:
109,192,16070,1,2,0:0:0:60:
402,192,16225,1,0,0:0:0:0:
109,192,16380,1,2,0:0:0:60:
329,192,16536,1,0,0:0:0:0:
182,192,16691,1,2,0:0:0:60:
402,192,16847,1,0,0:0:0:0:
109,192,17002,1,2,0:0:0:60:
402,192,17158,1,0,0:0:0:0:
182,192,17313,1,2,0:0:0:60:
36,192,17469,1,2,0:0:0:60:
475,192,17469,1,0,0:0:0:60:cymbal clap.wav
256,192,17469,1,0,0:0:0:60:normal-hitclap.wav
329,192,17624,1,2,0:0:0:60:normal-hitwhistle.wav
182,192,17624,1,0,0:0:0:0:
402,192,17779,1,2,0:0:0:60:
256,192,17857,1,2,0:0:0:60:
109,192,17935,1,2,0:0:0:60:
329,192,18090,1,0,0:0:0:0:
109,192,18246,1,2,0:0:0:60:
402,192,18401,1,0,0:0:0:0:
109,192,18557,1,2,0:0:0:60:
329,192,18712,1,0,0:0:0:0:
109,192,18867,1,2,0:0:0:60:
402,192,19023,1,0,0:0:0:0:
182,192,19178,1,2,0:0:0:60:
329,192,19334,1,0,0:0:0:0:
109,192,19489,1,2,0:0:0:60:
329,192,19645,1,2,0:0:0:0:
182,192,19800,1,2,0:0:0:60:
329,192,19956,1,0,0:0:0:0:
109,192,20111,1,2,0:0:0:60:
36,192,20266,1,2,0:0:0:60:
475,192,20266,1,0,0:0:0:0:
182,192,20344,1,2,0:0:0:60:
256,192,20344,1,0,0:0:0:0:
329,192,20422,1,2,0:0:0:60:
402,192,20422,1,0,0:0:0:0:
109,192,20577,1,0,0:0:0:0:
329,192,20733,1,2,0:0:0:60:
475,192,20733,1,0,0:0:0:0:
36,192,20888,1,0,0:0:0:0:
402,192,21044,1,2,0:0:0:60:
475,192,21044,1,0,0:0:0:0:
182,192,21044,128,0,21199:0:0:0:0:
329,192,21199,128,0,21355:0:0:0:0:
109,192,21199,1,0,0:0:0:0:
182,192,21355,128,2,21510:0:0:0:60:
402,192,21355,1,0,0:0:0:0:
475,192,21355,1,0,0:0:0:0:
109,192,21510,1,0,0:0:0:60:cymbal clap.wav
36,192,21510,1,0,0:0:0:0:
256,192,21510,1,0,0:0:0:0:
475,192,21821,128,0,21976:0:0:0:0:
256,192,21976,128,0,22132:0:0:0:0:
109,192,22132,128,0,22287:0:0:0:0:
402,192,22287,128,0,22443:0:0:0:0:
182,192,22443,128,2,22598:0:0:0:60:
256,192,22443,1,0,0:0:0:60:LR_Tom Hit X.wav
329,192,22443,1,0,0:0:0:0:
402,192,22598,1,8,0:0:0:60:
36,192,22598,128,0,22753:0:0:0:60:LR_Tom Hit Z.wav
256,192,22676,1,0,0:0:0:0:
329,192,22753,128,4,22909:0:0:0:60:
109,192,22753,1,0,0:0:0:60:LR_Tom Hit Y.wav
256,192,22909,1,2,0:0:0:60:
475,192,22909,1,0,0:0:0:60:cymbal whistle.wav
36,192,22909,1,0,0:0:0:0:
182,192,23064,1,0,0:0:0:0:
402,192,23220,1,8,0:0:0:60:
475,192,23220,1,0,0:0:0:0:
109,192,23220,1,0,0:0:0:0:
256,192,23375,1,0,0:0:0:0:
36,192,23531,1,2,0:0:0:60:
329,192,23531,1,0,0:0:0:0:
182,192,23686,1,0,0:0:0:0:
475,192,23842,1,8,0:0:0:60:
109,192,23842,1,0,0:0:0:0:
36,192,23842,1,0,0:0:0:0:
256,192,23997,1,0,0:0:0:0:
475,192,24152,1,2,0:0:0:60:
182,192,24152,1,0,0:0:0:0:
329,192,24308,1,0,0:0:0:0:
36,192,24463,1,8,0:0:0:60:
256,192,24463,1,0,0:0:0:0:
402,192,24463,1,0,0:0:0:0:
182,192,24619,1,0,0:0:0:0:
475,192,24774,1,2,0:0:0:60:
109,192,24774,1,0,0:0:0:0:
329,192,24930,1,0,0:0:0:0:
36,192,25085,1,8,0:0:0:60:
402,192,25085,1,0,0:0:0:0:
475,192,25085,1,0,0:0:0:0:
182,192,25241,1,0,0:0:0:0:
256,192,25396,1,2,0:0:0:60:
475,192,25396,1,0,0:0:0:0:
109,192,25551,1,0,0:0:0:0:
329,192,25707,1,8,0:0:0:60:
36,192,25707,1,0,0:0:0:0:
182,192,25707,1,0,0:0:0:0:
475,192,25862,1,0,0:0:0:0:
256,192,26018,1,2,0:0:0:60:
402,192,26018,1,0,0:0:0:0:
109,192,26173,1,0,0:0:0:0:
36,192,26329,1,8,0:0:0:60:
475,192,26329,1,0,0:0:0:0:
402,192,26329,1,0,0:0:0:0:
182,192,26484,1,0,0:0:0:0:
256,192,26639,1,2,0:0:0:60:
402,192,26639,1,0,0:0:0:0:
182,192,26795,1,0,0:0:0:0:
36,192,26950,1,8,0:0:0:60:
475,192,26950,1,0,0:0:0:0:
109,192,26950,128,0,27106:0:0:0:0:
402,192,26950,1,0,0:0:0:0:
256,192,27106,128,0,27261:0:0:0:0:
329,192,27106,1,0,0:0:0:0:
475,192,27261,128,2,27417:0:0:0:60:
402,192,27261,1,0,0:0:0:0:
109,192,27261,1,0,0:0:0:0:
329,192,27417,128,0,27572:0:0:0:0:
182,192,27417,1,0,0:0:0:0:
36,192,27572,128,8,27728:0:0:0:60:
256,192,27572,1,0,0:0:0:0:
402,192,27572,1,0,0:0:0:0:
109,192,27572,1,0,0:0:0:0:
182,192,27728,128,0,27883:0:0:0:60:cymbal light.wav
329,192,27728,1,0,0:0:0:0:
402,192,27883,128,2,30059:0:0:0:60:
475,192,27883,1,0,0:0:0:0:
36,192,27883,1,0,0:0:0:0:
182,192,28038,1,0,0:0:0:0:
256,192,28194,1,8,0:0:0:60:
329,192,28194,1,0,0:0:0:0:
475,192,28194,1,0,0:0:0:0:
182,192,28349,1,0,0:0:0:0:
109,192,28505,1,2,0:0:0:60:
36,192,28505,1,0,0:0:0:0:
256,192,28660,1,0,0:0:0:0:
475,192,28816,1,8,0:0:0:60:
329,192,28816,1,0,0:0:0:0:
109,192,28816,1,0,0:0:0:0:
182,192,28971,1,0,0:0:0:0:
475,192,29127,1,2,0:0:0:60:
36,192,29127,1,0,0:0:0:0:
109,192,29282,1,0,0:0:0:0:
329,192,29437,1,8,0:0:0:60:
182,192,29437,1,0,0:0:0:0:
256,192,29437,1,0,0:0:0:0:
109,192,29593,1,0,0:0:0:0:
36,192,29748,1,2,0:0:0:60:
475,192,29748,1,0,0:0:0:0:
329,192,29904,1,0,0:0:0:0:
256,192,30059,128,8,30370:0:0:0:60:
182,192,30059,1,0,0:0:0:0:
109,192,30059,1,0,0:0:0:0:
36,192,30059,1,0,0:0:0:0:
329,192,30215,1,0,0:0:0:0:
109,192,30370,128,2,31614:0:0:0:60:
475,192,30370,1,0,0:0:0:0:
402,192,30370,1,0,0:0:0:0:
256,192,30526,1,0,0:0:0:0:
402,192,30681,1,8,0:0:0:60:
329,192,30681,1,0,0:0:0:0:
36,192,30681,1,0,0:0:0:0:
182,192,30836,1,0,0:0:0:0:
475,192,30992,1,2,0:0:0:60:
402,192,30992,1,0,0:0:0:0:
256,192,31147,1,0,0:0:0:0:
329,192,31303,1,8,0:0:0:60:
36,192,31303,1,0,0:0:0:0:
182,192,31303,1,0,0:0:0:0:
402,192,31458,1,0,0:0:0:60:cymbal light.wav
256,192,31458,1,0,0:0:0:0:
475,192,31614,128,2,32857:0:0:0:60:
329,192,31614,1,0,0:0:0:0:
109,192,31769,1,8,0:0:0:60:
36,192,31769,1,0,0:0:0:0:
256,192,31769,1,0,0:0:0:0:
109,192,31924,1,8,0:0:0:60:
182,192,31924,1,0,0:0:0:0:
329,192,31924,1,0,0:0:0:0:
256,192,32080,1,2,0:0:0:60:
402,192,32080,1,0,0:0:0:0:
36,192,32158,1,2,0:0:0:60:
182,192,32235,1,2,0:0:0:60:
329,192,32313,1,2,0:0:0:60:
109,192,32391,1,2,0:0:0:60:
402,192,32469,1,2,0:0:0:60:
256,192,32546,1,2,0:0:0:60:
36,192,32624,1,2,0:0:0:60:
182,192,32702,1,2,0:0:0:60:
402,192,32779,1,0,0:0:0:0:
256,192,32857,1,0,0:0:0:60:cymbal clap.wav
109,192,32857,1,0,0:0:0:0:
36,192,32857,128,0,33790:0:0:0:0:
256,192,33168,1,0,0:0:0:60:bitter hat.wav
329,192,33323,1,2,0:0:0:60:
182,192,33323,1,0,0:0:0:0:
109,192,33479,1,8,0:0:0:60:
256,192,33479,1,0,0:0:0:60:bitter hat.wav
402,192,33479,1,0,0:0:0:0:
329,192,33790,1,0,0:0:0:60:bitter hat.wav
36,192,33945,128,2,34101:0:0:0:60:
475,192,33945,1,0,0:0:0:0:
109,192,33945,1,0,0:0:0:0:
256,192,33945,1,0,0:0:0:0:
329,192,34101,1,2,0:0:0:60:
182,192,34101,1,0,0:0:0:0:
36,192,34256,128,2,34412:0:0:0:60:
475,192,34256,1,0,0:0:0:0:
256,192,34256,1,0,0:0:0:0:
109,192,34256,1,0,0:0:0:0:
329,192,34412,1,2,0:0:0:60:
402,192,34412,1,0,0:0:0:60:bitter hat.wav
182,192,34567,1,2,0:0:0:60:
36,192,34722,128,8,35344:0:0:0:60:
329,192,34722,1,0,0:0:0:0:
475,192,34722,1,0,0:0:0:0:
109,192,34722,1,0,0:0:0:0:
256,192,35033,1,0,0:0:0:60:bitter hat.wav
475,192,35344,128,2,36277:0:0:0:60:
329,192,35344,1,0,0:0:0:0:
109,192,35344,1,0,0:0:0:0:
256,192,35655,1,2,0:0:0:60:
109,192,35810,1,0,0:0:0:0:
36,192,35966,1,8,0:0:0:60:
182,192,35966,1,0,0:0:0:0:
329,192,35966,1,0,0:0:0:0:
256,192,36277,1,0,0:0:0:60:bitter hat.wav
475,192,36432,128,0,36588:0:0:0:60:normal-hitclap.wav
329,192,36432,1,0,0:0:0:0:
36,192,36432,1,0,0:0:0:0:
109,192,36432,1,0,0:0:0:0:
182,192,36588,1,2,0:0:0:60:
475,192,36743,128,0,36899:0:0:0:60:normal-hitclap.wav
329,192,36743,1,0,0:0:0:0:
256,192,36743,1,0,0:0:0:0:
36,192,36743,1,0,0:0:0:0:
182,192,36899,1,2,0:0:0:60:
402,192,36899,1,0,0:0:0:60:bitter hat.wav
329,192,37054,1,0,0:0:0:0:
475,192,37209,128,8,37831:0:0:0:60:
256,192,37209,1,0,0:0:0:0:
109,192,37209,1,0,0:0:0:0:
36,192,37209,1,0,0:0:0:0:
329,192,37520,1,0,0:0:0:60:bitter hat.wav
109,192,37831,128,2,38764:0:0:0:60:
182,192,37831,1,0,0:0:0:60:cymbal whistle.wav
36,192,37831,1,0,0:0:0:0:
402,192,37831,1,0,0:0:0:0:
256,192,38142,1,2,0:0:0:60:
402,192,38298,1,0,0:0:0:0:
329,192,38453,1,8,0:0:0:60:
36,192,38453,1,0,0:0:0:0:
475,192,38453,1,0,0:0:0:0:
256,192,38764,1,0,0:0:0:60:bitter hat.wav
109,192,38919,128,8,39075:0:0:0:60:
402,192,38919,1,0,0:0:0:0:
256,192,39075,1,2,0:0:0:60:
475,192,39075,1,0,0:0:0:0:
109,192,39230,128,8,39386:0:0:0:60:
329,192,39230,1,0,0:0:0:0:
182,192,39230,1,0,0:0:0:0:
402,192,39230,1,0,0:0:0:0:
256,192,39386,1,2,0:0:0:60:
182,192,39541,1,0,0:0:0:0:
109,192,39696,128,8,40318:0:0:0:60:
36,192,39696,1,0,0:0:0:0:
329,192,39696,1,0,0:0:0:0:
475,192,39696,1,0,0:0:0:0:
329,192,40007,1,2,0:0:0:60:
475,192,40163,1,8,0:0:0:60:
256,192,40163,1,0,0:0:0:0:
402,192,40163,1,0,0:0:0:0:
182,192,40318,1,0,0:0:0:60:cymbal whistle.wav
36,192,40318,1,0,0:0:0:0:
329,192,40318,128,0,40785:0:0:0:0:
109,192,40629,1,4,0:0:0:60:
182,192,40785,128,4,40940:0:0:0:60:
475,192,40785,1,0,0:0:0:0:
329,192,40940,128,4,41095:0:0:0:60:
36,192,40940,1,0,0:0:0:0:
109,192,40940,1,0,0:0:0:0:
402,192,40940,1,0,0:0:0:0:
182,192,41095,128,4,41251:0:0:0:60:
475,192,41095,1,0,0:0:0:0:
256,192,41095,1,0,0:0:0:0:
329,192,41251,128,4,41562:0:0:0:60:
109,192,41251,1,0,0:0:0:60:cymbal light.wav
36,192,41251,1,0,0:0:0:0:
402,192,41251,1,0,0:0:0:0:
475,192,41562,128,0,41873:0:0:0:60:bitter hat.wav
182,192,41717,1,2,0:0:0:60:
402,192,41717,1,0,0:0:0:0:
329,192,41873,1,2,0:0:0:60:
109,192,41873,1,0,0:0:0:0:
36,192,41873,128,0,42184:0:0:0:0:
256,192,42028,1,2,0:0:0:60:
475,192,42028,1,0,0:0:0:0:
402,192,42184,1,2,0:0:0:60:
182,192,42184,1,0,0:0:0:0:
109,192,42184,128,0,42494:0:0:0:0:
256,192,42339,1,2,0:0:0:60:
36,192,42339,1,0,0:0:0:0:
402,192,42494,128,0,42805:0:0:0:60:LR_Tom Hit Z.wav
182,192,42494,1,0,0:0:0:0:
475,192,42494,1,0,0:0:0:0:
329,192,42650,1,0,0:0:0:60:LR_Tom Hit Y.wav
36,192,42650,1,0,0:0:0:0:
109,192,42805,1,2,0:0:0:60:
475,192,42805,1,0,0:0:0:60:LR_Tom Hit X.wav
182,192,42805,128,0,43427:0:0:0:60:cymbal clap.wav
256,192,42805,1,0,0:0:0:0:
256,192,43116,1,2,0:0:0:60:
329,192,43272,1,2,0:0:0:60:
36,192,43272,1,0,0:0:0:0:
109,192,43427,1,8,0:0:0:60:
256,192,43427,1,0,0:0:0:0:
402,192,43427,1,0,0:0:0:0:
475,192,43427,128,0,43582:0:0:0:0:
329,192,43582,128,0,43738:0:0:0:0:
36,192,43738,128,0,43893:0:0:0:60:bitter hat.wav
256,192,43738,1,0,0:0:0:0:
182,192,43893,128,0,44049:0:0:0:0:
329,192,44049,1,2,0:0:0:60:
109,192,44049,1,0,0:0:0:0:
475,192,44204,128,8,44360:0:0:0:60:
402,192,44204,1,0,0:0:0:0:
36,192,44204,1,0,0:0:0:0:
256,192,44204,1,0,0:0:0:0:
109,192,44360,128,0,44515:0:0:0:60:bitter hat.wav
329,192,44360,1,0,0:0:0:0:
182,192,44360,1,0,0:0:0:0:
402,192,44515,128,0,44671:0:0:0:0:
256,192,44671,1,2,0:0:0:60:
36,192,44671,1,8,0:0:0:60:
182,192,44671,128,0,44981:0:0:0:0:
475,192,44671,1,0,0:0:0:0:
109,192,44826,1,0,0:0:0:0:
402,192,44826,1,0,0:0:0:0:
256,192,44981,1,0,0:0:0:60:bitter hat.wav
329,192,44981,128,0,45292:0:0:0:0:
182,192,45292,1,2,0:0:0:60:
36,192,45292,1,0,0:0:0:0:
256,192,45292,128,0,45914:0:0:0:0:
329,192,45448,1,0,0:0:0:0:
475,192,45603,1,0,0:0:0:60:bitter hat.wav
109,192,45759,1,0,0:0:0:0:
329,192,45759,1,0,0:0:0:0:
36,192,45914,1,8,0:0:0:60:
402,192,45914,1,2,0:0:0:60:
182,192,45914,1,0,0:0:0:0:
475,192,45914,128,0,46070:0:0:0:0:
36,192,46070,128,0,46225:0:0:0:0:
256,192,46225,128,0,46536:0:0:0:60:bitter hat.wav
109,192,46225,1,0,0:0:0:0:
402,192,46536,1,2,0:0:0:60:
182,192,46536,1,0,0:0:0:0:
256,192,46691,128,8,46847:0:0:0:60:
109,192,46691,1,0,0:0:0:0:
36,192,46691,1,0,0:0:0:0:
475,192,46691,1,0,0:0:0:0:
329,192,46847,1,0,0:0:0:60:bitter hat.wav
109,192,47002,128,2,47158:0:0:0:60:
182,192,47002,1,0,0:0:0:0:
402,192,47002,1,0,0:0:0:0:
475,192,47158,128,2,47779:0:0:0:60:
329,192,47158,1,8,0:0:0:60:
256,192,47158,1,0,0:0:0:0:
36,192,47158,1,0,0:0:0:0:
36,192,47313,1,2,0:0:0:60:
109,192,47391,1,0,0:0:0:0:
256,192,47469,128,4,47779:0:0:0:60:
182,192,47469,1,0,0:0:0:60:cymbal light.wav
329,192,47469,1,0,0:0:0:0:
402,192,47469,1,0,0:0:0:0:
36,192,47779,128,2,49023:0:0:0:60:
109,192,47779,1,0,0:0:0:60:cymbal light.wav
182,192,47779,1,0,0:0:0:0:
402,192,47779,1,0,0:0:0:0:
256,192,47935,1,0,0:0:0:0:
329,192,48090,1,8,0:0:0:60:
475,192,48090,1,0,0:0:0:60:cymbal light.wav
109,192,48090,1,0,0:0:0:0:
182,192,48246,1,0,0:0:0:0:
256,192,48401,1,2,0:0:0:60:
402,192,48401,1,0,0:0:0:60:cymbal light.wav
475,192,48557,1,0,0:0:0:0:
182,192,48712,1,8,0:0:0:60:
329,192,48712,1,0,0:0:0:60:cymbal light.wav
109,192,48712,1,0,0:0:0:0:
256,192,48867,1,0,0:0:0:0:
475,192,49023,128,2,50266:0:0:0:60:
109,192,49023,1,0,0:0:0:60:cymbal whistle.wav
402,192,49023,1,0,0:0:0:0:
329,192,49023,1,0,0:0:0:0:
182,192,49178,1,0,0:0:0:0:
36,192,49334,1,8,0:0:0:60:
256,192,49334,1,0,0:0:0:60:cymbal light.wav
329,192,49334,1,0,0:0:0:0:
182,192,49489,1,0,0:0:0:0:
109,192,49645,1,2,0:0:0:60:
402,192,49645,1,0,0:0:0:60:cymbal light.wav
329,192,49800,1,0,0:0:0:0:
256,192,49956,1,8,0:0:0:60:
182,192,49956,1,0,0:0:0:60:cymbal light.wav
36,192,49956,1,0,0:0:0:0:
109,192,50111,1,0,0:0:0:0:
256,192,50266,128,2,51510:0:0:0:60:
182,192,50266,1,4,0:0:0:60:
329,192,50266,1,0,0:0:0:0:
402,192,50266,1,0,0:0:0:0:
36,192,50577,1,8,0:0:0:60:
475,192,50577,1,0,0:0:0:0:
182,192,50733,1,0,0:0:0:60:
475,192,50733,1,0,0:0:0:0:
36,192,50888,1,2,0:0:0:60:
329,192,50888,1,0,0:0:0:0:
36,192,51044,1,0,0:0:0:60:
475,192,51044,1,0,0:0:0:0:
182,192,51199,1,8,0:0:0:60:
329,192,51199,1,0,0:0:0:0:
329,192,51355,1,2,0:0:0:0:
109,192,51355,1,0,0:0:0:0:
36,192,51510,128,4,52753:0:0:0:60:
475,192,51510,128,0,52753:0:0:0:0:
402,192,51510,1,0,0:0:0:0:
109,192,51510,1,0,0:0:0:0:
182,192,51665,1,4,0:0:0:60:
402,192,51665,1,0,0:0:0:0:
329,192,51821,1,4,0:0:0:60:
182,192,51821,1,0,0:0:0:0:
109,192,51976,1,4,0:0:0:60:
329,192,51976,1,0,0:0:0:0:
256,192,52132,1,8,0:0:0:60:
109,192,52132,1,0,0:0:0:0:
402,192,52132,1,0,0:0:0:0:
182,192,52287,1,8,0:0:0:60:
329,192,52287,1,0,0:0:0:0:
402,192,52287,1,0,0:0:0:0:
182,192,52443,1,8,0:0:0:60:
256,192,52443,1,8,0:0:0:0:
109,192,52443,1,0,0:0:0:0:
402,192,52598,1,8,0:0:0:60:
329,192,52598,1,0,0:0:0:0:
256,192,52598,1,0,0:0:0:0:
329,192,52753,1,4,0:0:0:60:
182,192,52753,1,0,0:0:0:0:
36,192,52909,1,8,0:0:0:60:
475,192,52909,1,0,0:0:0:0:
256,192,52909,1,0,0:0:0:0:
182,192,53064,1,8,0:0:0:60:
329,192,53064,1,0,0:0:0:0:
36,192,53064,1,0,0:0:0:0:
36,192,53375,1,8,0:0:0:60:
256,192,53375,1,0,0:0:0:0:
475,192,53375,1,0,0:0:0:0:
329,192,53531,1,8,0:0:0:60:
182,192,53531,1,0,0:0:0:0:
475,192,53531,1,0,0:0:0:0:
36,192,53842,1,8,0:0:0:60:
182,192,53842,1,0,0:0:0:0:
329,192,53842,1,0,0:0:0:0:
475,192,53842,1,0,0:0:0:0:
36,192,54152,128,0,54308:0:0:0:0:
182,192,54308,128,0,54463:0:0:0:0:
329,192,54463,128,0,54619:0:0:0:0:
475,192,54619,128,0,55241:0:0:0:0:
36,192,54774,1,2,0:0:0:60:
109,192,54852,1,2,0:0:0:60:
182,192,54930,1,2,0:0:0:60:
329,192,54930,128,8,55241:0:0:0:60:
36,192,55241,128,2,57728:0:0:0:60:
256,192,55241,1,0,0:0:0:60:bitter hat.wav
402,192,55241,1,0,0:0:0:0:
109,192,55241,1,0,0:0:0:0:
329,192,55396,1,0,0:0:0:0:
182,192,55551,1,8,0:0:0:60:
402,192,55551,1,0,0:0:0:0:
475,192,55551,1,0,0:0:0:0:
329,192,55707,1,0,0:0:0:60:bitter hat.wav
109,192,55862,1,2,0:0:0:60:
256,192,55862,1,0,0:0:0:0:
182,192,56018,1,0,0:0:0:60:bitter hat.wav
256,192,56173,1,8,0:0:0:60:
402,192,56173,1,0,0:0:0:0:
475,192,56173,1,0,0:0:0:0:
329,192,56329,1,0,0:0:0:60:bitter hat.wav
256,192,56484,1,2,0:0:0:60:
109,192,56484,1,0,0:0:0:0:
475,192,56639,1,0,0:0:0:60:bitter hat.wav
402,192,56795,1,8,0:0:0:60:
329,192,56795,1,0,0:0:0:0:
182,192,56795,1,0,0:0:0:0:
256,192,56950,1,0,0:0:0:60:bitter hat.wav
475,192,57106,128,2,57261:0:0:0:60:
109,192,57106,1,0,0:0:0:0:
402,192,57261,128,0,57417:0:0:0:60:bitter hat.wav
329,192,57417,128,8,57728:0:0:0:60:
256,192,57417,1,0,0:0:0:0:
109,192,57417,1,0,0:0:0:0:
182,192,57572,1,0,0:0:0:60:bitter hat.wav
475,192,57728,128,2,60215:0:0:0:60:
256,192,57728,1,0,0:0:0:0:
402,192,57728,1,0,0:0:0:0:
182,192,57883,1,0,0:0:0:60:bitter hat.wav
329,192,58038,1,8,0:0:0:60:
402,192,58038,1,0,0:0:0:0:
36,192,58038,1,0,0:0:0:0:
182,192,58194,1,0,0:0:0:60:bitter hat.wav
256,192,58349,1,2,0:0:0:60:
402,192,58349,1,0,0:0:0:0:
109,192,58505,1,0,0:0:0:60:bitter hat.wav
329,192,58660,1,8,0:0:0:60:
182,192,58660,1,0,0:0:0:0:
36,192,58660,1,0,0:0:0:0:
256,192,58816,1,0,0:0:0:60:bitter hat.wav
402,192,58971,1,2,0:0:0:60:
182,192,58971,1,0,0:0:0:0:
329,192,59127,1,0,0:0:0:60:bitter hat.wav
109,192,59282,128,8,59437:0:0:0:60:
36,192,59282,1,0,0:0:0:0:
256,192,59282,1,0,0:0:0:0:
402,192,59437,128,0,59593:0:0:0:60:bitter hat.wav
256,192,59593,128,2,59748:0:0:0:60:
36,192,59593,1,0,0:0:0:0:
109,192,59748,128,0,59904:0:0:0:60:bitter hat.wav
182,192,59904,128,8,60059:0:0:0:60:
402,192,59904,1,0,0:0:0:0:
256,192,59904,1,0,0:0:0:0:
329,192,60059,128,0,60215:0:0:0:60:bitter hat.wav
182,192,60215,1,2,0:0:0:60:
402,192,60215,1,0,0:0:0:0:
256,192,60215,128,0,62702:0:0:0:0:
109,192,60370,1,0,0:0:0:60:bitter hat.wav
402,192,60526,1,8,0:0:0:0:
36,192,60526,1,0,0:0:0:0:
475,192,60526,1,0,0:0:0:0:
329,192,60681,1,0,0:0:0:60:bitter hat.wav
182,192,60836,1,2,0:0:0:60:
36,192,60836,1,0,0:0:0:0:
329,192,60992,1,0,0:0:0:60:bitter hat.wav
402,192,61147,1,8,0:0:0:60:
475,192,61147,1,0,0:0:0:0:
109,192,61147,1,0,0:0:0:0:
329,192,61303,1,0,0:0:0:60:bitter hat.wav
36,192,61458,1,2,0:0:0:60:
109,192,61458,1,0,0:0:0:0:
182,192,61614,1,0,0:0:0:60:bitter hat.wav
329,192,61769,1,8,0:0:0:60:
402,192,61769,1,0,0:0:0:0:
475,192,61769,1,0,0:0:0:0:
109,192,61924,1,0,0:0:0:60:bitter hat.wav
182,192,62080,128,2,62235:0:0:0:60:
475,192,62080,1,0,0:0:0:0:
36,192,62235,128,0,62391:0:0:0:60:bitter hat.wav
109,192,62391,1,8,0:0:0:60:
402,192,62391,1,0,0:0:0:0:
475,192,62391,128,0,62546:0:0:0:0:
329,192,62546,128,0,62702:0:0:0:60:bitter hat.wav
109,192,62702,1,2,0:0:0:60:
475,192,62702,1,0,0:0:0:60:cymbal whistle.wav
36,192,62702,128,0,63323:0:0:0:0:
402,192,62702,1,0,0:0:0:0:
329,192,63013,128,8,63168:0:0:0:60:
109,192,63013,1,0,0:0:0:0:
182,192,63013,1,0,0:0:0:0:
475,192,63168,128,0,63323:0:0:0:60:bitter hat.wav
109,192,63168,1,0,0:0:0:0:
256,192,63323,128,2,63945:0:0:0:60:
329,192,63323,1,0,0:0:0:60:cymbal whistle.wav
182,192,63323,1,0,0:0:0:0:
402,192,63323,1,0,0:0:0:0:
36,192,63634,128,0,63945:0:0:0:60:LR_Tom Hit X.wav
475,192,63634,1,0,0:0:0:0:
109,192,63634,1,0,0:0:0:0:
402,192,63790,1,0,0:0:0:60:LR_Tom Hit Z.wav
329,192,63867,1,0,0:0:0:0:
182,192,63945,1,0,0:0:0:60:LR_Tom Hit Z.wav
109,192,63945,1,0,0:0:0:0:
475,192,63945,128,0,64256:0:0:0:0:
182,192,64101,1,2,0:0:0:60:
402,192,64101,1,0,0:0:0:60:cymbal whistle.wav
329,192,64256,128,2,64567:0:0:0:60:
36,192,64256,1,0,0:0:0:0:
256,192,64256,1,0,0:0:0:0:
36,192,64412,1,2,0:0:0:60:
402,192,64412,1,0,0:0:0:60:cymbal whistle.wav
182,192,64567,128,2,64878:0:0:0:60:
475,192,64567,1,0,0:0:0:0:
109,192,64567,1,0,0:0:0:0:
256,192,64722,1,0,0:0:0:0:
475,192,64722,1,2,0:0:0:60:
36,192,64878,128,8,65189:0:0:0:60:
329,192,64878,1,0,0:0:0:60:cymbal clap.wav
109,192,64878,1,0,0:0:0:0:
402,192,64878,1,0,0:0:0:0:
475,192,65189,128,2,66432:0:0:0:60:
256,192,65189,1,0,0:0:0:60:bitter hat.wav
402,192,65189,1,0,0:0:0:0:
109,192,65189,1,0,0:0:0:0:
182,192,65344,1,0,0:0:0:60:cymbal light.wav
329,192,65500,1,8,0:0:0:60:
402,192,65500,1,0,0:0:0:60:bitter hat.wav
36,192,65500,1,0,0:0:0:0:
256,192,65655,1,0,0:0:0:60:cymbal light.wav
36,192,65810,1,2,0:0:0:60:
182,192,65810,1,0,0:0:0:60:bitter hat.wav
109,192,65966,128,0,66121:0:0:0:60:cymbal light.wav
329,192,65966,1,0,0:0:0:0:
256,192,66121,1,8,0:0:0:60:
36,192,66121,128,0,66277:0:0:0:60:bitter hat.wav
402,192,66121,1,0,0:0:0:0:
182,192,66277,128,0,66432:0:0:0:60:cymbal light.wav
329,192,66432,128,2,67676:0:0:0:60:
402,192,66432,1,0,0:0:0:60:bitter hat.wav
256,192,66432,1,0,0:0:0:0:
182,192,66588,1,0,0:0:0:60:cymbal light.wav
256,192,66743,1,8,0:0:0:60:
475,192,66743,1,0,0:0:0:60:bitter hat.wav
36,192,66743,1,0,0:0:0:0:
182,192,66899,1,0,0:0:0:60:cymbal light.wav
109,192,67054,1,2,0:0:0:60:
36,192,67054,128,0,67209:0:0:0:60:bitter hat.wav
182,192,67209,128,0,67365:0:0:0:60:cymbal light.wav
36,192,67365,1,8,0:0:0:60:
109,192,67365,1,0,0:0:0:60:bitter hat.wav
475,192,67365,128,0,67520:0:0:0:0:
256,192,67520,128,0,67676:0:0:0:60:cymbal light.wav
182,192,67676,128,2,68919:0:0:0:60:
402,192,67676,1,0,0:0:0:60:bitter hat.wav
109,192,67676,1,0,0:0:0:0:
256,192,67831,1,0,0:0:0:60:cymbal light.wav
475,192,67987,1,8,0:0:0:60:
402,192,67987,128,0,68142:0:0:0:60:bitter hat.wav
36,192,67987,1,0,0:0:0:0:
329,192,68142,128,0,68298:0:0:0:60:cymbal light.wav
256,192,68298,128,2,68453:0:0:0:60:
109,192,68298,1,0,0:0:0:60:bitter hat.wav
329,192,68453,128,0,68608:0:0:0:60:cymbal light.wav
475,192,68608,1,8,0:0:0:60:
402,192,68608,128,0,68764:0:0:0:60:bitter hat.wav
36,192,68608,1,0,0:0:0:0:
329,192,68764,128,0,68919:0:0:0:60:cymbal light.wav
36,192,68919,128,2,70163:0:0:0:60:
475,192,68919,128,0,69075:0:0:0:60:bitter hat.wav
109,192,68919,1,0,0:0:0:0:
402,192,69075,128,0,69230:0:0:0:60:cymbal light.wav
329,192,69230,128,8,69386:0:0:0:60:
256,192,69230,1,0,0:0:0:60:bitter hat.wav
182,192,69230,1,0,0:0:0:0:
402,192,69386,128,0,69541:0:0:0:60:cymbal light.wav
475,192,69541,1,2,0:0:0:60:
109,192,69541,128,0,69696:0:0:0:60:bitter hat.wav
182,192,69696,128,0,69852:0:0:0:60:cymbal light.wav
475,192,69852,1,8,0:0:0:60:
256,192,69852,128,0,70007:0:0:0:60:bitter hat.wav
329,192,69852,1,0,0:0:0:0:
182,192,70007,128,0,70163:0:0:0:60:cymbal light.wav
402,192,70163,1,2,0:0:0:60:
109,192,70163,1,0,0:0:0:60:cymbal whistle.wav
475,192,70163,128,0,71406:0:0:0:0:
329,192,70163,1,0,0:0:0:0:
256,192,70318,1,0,0:0:0:60:cymbal light.wav
109,192,70474,1,8,0:0:0:60:
36,192,70474,1,0,0:0:0:60:bitter hat.wav
402,192,70474,1,0,0:0:0:0:
256,192,70629,1,0,0:0:0:60:cymbal light.wav
329,192,70785,1,2,0:0:0:60:
182,192,70785,1,0,0:0:0:60:bitter hat.wav
256,192,70940,1,0,0:0:0:60:cymbal light.wav
329,192,71095,1,8,0:0:0:60:
402,192,71095,1,0,0:0:0:60:bitter hat.wav
109,192,71095,1,0,0:0:0:0:
256,192,71251,1,0,0:0:0:60:cymbal light.wav
36,192,71406,128,2,72650:0:0:0:60:
182,192,71406,1,0,0:0:0:60:cymbal clap.wav
402,192,71406,1,0,0:0:0:0:
256,192,71562,1,0,0:0:0:60:cymbal light.wav
402,192,71717,1,8,0:0:0:60:
109,192,71717,1,0,0:0:0:60:bitter hat.wav
329,192,71717,1,0,0:0:0:0:
256,192,71873,1,0,0:0:0:60:cymbal light.wav
475,192,72028,1,2,0:0:0:60:
182,192,72028,1,0,0:0:0:60:bitter hat.wav
329,192,72184,1,0,0:0:0:60:cymbal light.wav
109,192,72339,1,8,0:0:0:60:
256,192,72339,1,0,0:0:0:60:bitter hat.wav
475,192,72339,1,0,0:0:0:0:
402,192,72494,1,0,0:0:0:60:cymbal light.wav
402,192,72650,128,2,72961:0:0:0:60:
475,192,72650,1,0,0:0:0:60:cymbal whistle.wav
182,192,72650,1,0,0:0:0:0:
109,192,72650,1,0,0:0:0:0:
329,192,72805,1,0,0:0:0:60:cymbal light.wav
256,192,72961,1,8,0:0:0:60:
182,192,72961,1,0,0:0:0:60:bitter hat.wav
36,192,72961,1,0,0:0:0:0:
109,192,73116,1,0,0:0:0:60:cymbal light.wav
109,192,73272,128,2,73582:0:0:0:60:
36,192,73272,1,0,0:0:0:60:bitter hat.wav
329,192,73272,1,0,0:0:0:0:
402,192,73272,1,0,0:0:0:0:
256,192,73427,1,0,0:0:0:60:cymbal light.wav
475,192,73582,1,8,0:0:0:60:
329,192,73582,1,0,0:0:0:60:cymbal clap.wav
182,192,73582,1,0,0:0:0:0:
256,192,73738,1,0,0:0:0:60:cymbal light.wav
182,192,73816,1,0,0:0:0:0:
36,192,73893,1,2,0:0:0:60:
109,192,73893,1,0,0:0:0:60:bitter hat.wav
36,192,74049,128,0,74360:0:0:0:60:cymbal light.wav
256,192,74049,1,0,0:0:0:0:
402,192,74049,1,0,0:0:0:0:
475,192,74049,1,0,0:0:0:0:
182,192,74204,1,8,0:0:0:60:
329,192,74204,1,0,0:0:0:60:bitter hat.wav
475,192,74360,128,0,74671:0:0:0:60:cymbal light.wav
109,192,74360,1,0,0:0:0:0:
256,192,74360,1,0,0:0:0:0:
402,192,74360,1,0,0:0:0:0:
182,192,74515,1,2,0:0:0:60:
329,192,74593,1,0,0:0:0:0:
109,192,74671,1,0,0:0:0:60:cymbal light.wav
256,192,74748,1,0,0:0:0:60:normal-hitclap.wav
402,192,74826,1,0,0:0:0:60:bitter hat.wav
182,192,74904,1,0,0:0:0:60:normal-hitclap.wav
329,192,74981,1,0,0:0:0:60:cymbal light.wav
475,192,75059,1,0,0:0:0:60:normal-hitclap.wav
36,192,75137,128,2,75292:0:0:0:60:
402,192,75137,1,4,0:0:0:60:
109,192,75137,1,0,0:0:0:60:bitter hat.wav
256,192,75137,1,0,0:0:0:0:
182,192,75292,128,0,75448:0:0:0:60:cymbal light.wav
329,192,75292,1,0,0:0:0:0:
36,192,75448,1,8,0:0:0:60:
475,192,75448,1,0,0:0:0:60:bitter hat.wav
402,192,75448,128,0,75603:0:0:0:0:
109,192,75448,1,0,0:0:0:0:
256,192,75603,128,0,75759:0:0:0:60:cymbal light.wav
329,192,75603,1,0,0:0:0:0:
475,192,75759,1,2,0:0:0:60:
402,192,75759,128,0,75914:0:0:0:60:bitter hat.wav
36,192,75759,1,0,0:0:0:0:
256,192,75914,1,0,0:0:0:60:cymbal light.wav
182,192,75914,128,0,76070:0:0:0:0:
329,192,76070,1,8,0:0:0:60:
109,192,76070,1,0,0:0:0:60:bitter hat.wav
36,192,76070,1,0,0:0:0:0:
256,192,76225,1,0,0:0:0:60:cymbal light.wav
475,192,76225,128,0,76380:0:0:0:0:
109,192,76380,1,2,0:0:0:60:
402,192,76380,1,0,0:0:0:60:bitter hat.wav
182,192,76536,1,0,0:0:0:60:cymbal light.wav
329,192,76536,128,0,76691:0:0:0:0:
475,192,76691,1,8,0:0:0:60:
36,192,76691,1,0,0:0:0:60:bitter hat.wav
256,192,76691,1,0,0:0:0:0:
109,192,76847,1,0,0:0:0:60:cymbal light.wav
182,192,76847,128,0,77158:0:0:0:0:
402,192,77002,1,2,0:0:0:60:
475,192,77002,1,0,0:0:0:60:bitter hat.wav
256,192,77158,1,0,0:0:0:60:cymbal light.wav
329,192,77158,128,0,77313:0:0:0:0:
402,192,77313,1,8,0:0:0:60:
36,192,77313,1,0,0:0:0:60:bitter hat.wav
109,192,77313,1,0,0:0:0:0:
256,192,77469,1,0,0:0:0:60:cymbal light.wav
182,192,77469,128,0,77624:0:0:0:0:
109,192,77624,1,2,0:0:0:60:
475,192,77624,128,0,77779:0:0:0:60:bitter hat.wav
402,192,77624,1,0,0:0:0:0:
182,192,77779,1,0,0:0:0:60:cymbal light.wav
256,192,77779,128,0,77935:0:0:0:0:
329,192,77935,1,8,0:0:0:60:
402,192,77935,1,0,0:0:0:60:bitter hat.wav
36,192,77935,128,0,78090:0:0:0:0:
109,192,77935,1,0,0:0:0:0:
256,192,78090,1,0,0:0:0:60:cymbal light.wav
182,192,78090,128,0,78246:0:0:0:0:
109,192,78246,1,2,0:0:0:60:
402,192,78246,1,0,0:0:0:60:bitter hat.wav
329,192,78246,128,0,78401:0:0:0:0:
256,192,78401,1,0,0:0:0:60:cymbal light.wav
475,192,78401,128,0,78557:0:0:0:0:
402,192,78557,1,8,0:0:0:60:
182,192,78557,1,0,0:0:0:60:bitter hat.wav
36,192,78557,1,0,0:0:0:0:
329,192,78712,1,0,0:0:0:60:cymbal light.wav
109,192,78712,128,0,78867:0:0:0:0:
475,192,78867,1,2,0:0:0:60:
182,192,78867,1,0,0:0:0:60:bitter hat.wav
402,192,79023,1,0,0:0:0:60:cymbal light.wav
256,192,79023,128,0,79178:0:0:0:0:
36,192,79178,1,8,0:0:0:60:
109,192,79178,1,0,0:0:0:60:bitter hat.wav
329,192,79178,1,0,0:0:0:0:
182,192,79334,1,0,0:0:0:60:cymbal light.wav
402,192,79334,128,0,79645:0:0:0:0:
36,192,79489,1,2,0:0:0:60:
329,192,79489,1,0,0:0:0:60:bitter hat.wav
256,192,79645,1,0,0:0:0:60:cymbal light.wav
182,192,79645,128,0,79800:0:0:0:0:
36,192,79800,1,8,0:0:0:60:
402,192,79800,1,0,0:0:0:60:bitter hat.wav
329,192,79800,128,0,79956:0:0:0:0:
109,192,79800,1,0,0:0:0:0:
182,192,79956,1,0,0:0:0:60:cymbal light.wav
475,192,79956,128,0,80111:0:0:0:0:
256,192,80111,128,2,80266:0:0:0:60:
109,192,80111,1,0,0:0:0:60:cymbal whistle.wav
329,192,80111,1,0,0:0:0:0:
402,192,80111,1,0,0:0:0:0:
36,192,80266,128,0,80422:0:0:0:60:cymbal light.wav
182,192,80266,1,0,0:0:0:0:
256,192,80422,1,8,0:0:0:60:
329,192,80422,1,0,0:0:0:60:bitter hat.wav
475,192,80422,1,0,0:0:0:0:
402,192,80577,128,0,80733:0:0:0:60:cymbal light.wav
182,192,80577,1,0,0:0:0:0:
256,192,80733,128,2,80888:0:0:0:60:
36,192,80733,1,0,0:0:0:60:bitter hat.wav
475,192,80733,1,0,0:0:0:0:
109,192,80888,128,0,81044:0:0:0:60:cymbal light.wav
329,192,80888,1,0,0:0:0:0:
402,192,81044,1,8,0:0:0:60:
182,192,81044,1,0,0:0:0:60:bitter hat.wav
36,192,81044,1,0,0:0:0:0:
475,192,81199,128,0,81355:0:0:0:60:cymbal light.wav
256,192,81199,1,0,0:0:0:0:
329,192,81355,128,2,81510:0:0:0:60:
402,192,81355,1,0,0:0:0:60:bitter hat.wav
36,192,81355,1,0,0:0:0:0:
182,192,81510,128,0,81665:0:0:0:60:cymbal light.wav
109,192,81510,1,0,0:0:0:0:
256,192,81665,1,8,0:0:0:60:
402,192,81665,1,0,0:0:0:60:bitter hat.wav
475,192,81665,1,0,0:0:0:0:
36,192,81821,128,0,81976:0:0:0:60:cymbal light.wav
329,192,81821,1,0,0:0:0:0:
182,192,81976,128,2,82132:0:0:0:60:
109,192,81976,1,0,0:0:0:60:bitter hat.wav
475,192,81976,1,0,0:0:0:0:
329,192,82132,128,0,82287:0:0:0:60:cymbal light.wav
256,192,82132,1,0,0:0:0:0:
109,192,82287,1,8,0:0:0:60:
36,192,82287,1,0,0:0:0:60:bitter hat.wav
402,192,82287,1,0,0:0:0:0:
329,192,82443,1,2,0:0:0:60:
182,192,82443,1,0,0:0:0:60:cymbal light.wav
475,192,82598,1,8,0:0:0:60:
256,192,82598,128,0,82753:0:0:0:60:cymbal clap.wav
109,192,82598,1,0,0:0:0:0:
36,192,82598,1,0,0:0:0:0:
475,192,82753,128,0,82909:0:0:0:0:
182,192,82753,1,0,0:0:0:0:
329,192,82909,1,2,0:0:0:60:
402,192,82909,1,0,0:0:0:0:
36,192,83064,1,8,0:0:0:60:
256,192,83064,128,0,83220:0:0:0:60:cymbal clap.wav
402,192,83064,1,0,0:0:0:0:
475,192,83064,1,0,0:0:0:0:
36,192,83220,128,0,83375:0:0:0:0:
182,192,83220,1,0,0:0:0:0:
256,192,83375,1,2,0:0:0:60:
329,192,83375,1,0,0:0:0:0:
402,192,83531,128,8,83686:0:0:0:60:
109,192,83531,1,0,0:0:0:60:cymbal clap.wav
182,192,83531,1,0,0:0:0:0:
475,192,83531,1,0,0:0:0:0:
109,192,83686,128,0,83842:0:0:0:0:
256,192,83686,1,0,0:0:0:0:
329,192,83842,1,0,0:0:0:0:
36,192,83842,1,0,0:0:0:0:
256,192,83997,128,4,85085:0:0:0:60:
402,192,83997,1,0,0:0:0:60:cymbal light.wav
475,192,83997,1,0,0:0:0:0:
182,192,83997,1,0,0:0:0:0:
329,192,84308,1,4,0:0:0:60:
109,192,84308,1,0,0:0:0:60:cymbal light.wav
36,192,84308,1,0,0:0:0:0:
402,192,84619,1,0,0:0:0:60:cymbal light.wav
109,192,84619,1,0,0:0:0:0:
475,192,84619,1,0,0:0:0:0:
329,192,84774,1,4,0:0:0:60:
475,192,84774,1,0,0:0:0:60:cymbal light.wav
36,192,84774,1,0,0:0:0:0:
182,192,84930,128,0,85085:0:0:0:0:
329,192,85085,1,4,0:0:0:60:
109,192,85085,1,4,0:0:0:60:
36,192,85085,1,0,0:0:0:0:
475,192,85085,128,0,85241:0:0:0:0:
256,192,85241,128,0,85396:0:0:0:0:
36,192,85396,128,0,85551:0:0:0:0:
329,192,85551,128,0,85707:0:0:0:0:
182,192,85707,128,0,86018:0:0:0:0:
402,192,86018,128,0,86173:0:0:0:0:
256,192,86173,128,0,86329:0:0:0:0:
109,192,86329,128,0,86484:0:0:0:0:
475,192,86484,128,0,86639:0:0:0:0:
329,192,86639,128,0,86950:0:0:0:0:
109,192,86795,1,0,0:0:0:60:LR_Tom Hit Z.wav
182,192,86873,1,0,0:0:0:60:LR_Tom Hit Y.wav
256,192,86950,1,8,0:0:0:60:
475,192,86950,1,0,0:0:0:60:LR_Tom Hit X.wav
402,192,86950,1,0,0:0:0:0:
329,192,87106,1,8,0:0:0:60:
182,192,87106,1,0,0:0:0:0:
402,192,87106,1,0,0:0:0:0:
109,192,87261,1,8,0:0:0:60:
256,192,87261,1,0,0:0:0:0:
329,192,87261,1,0,0:0:0:0:
36,192,87417,1,8,0:0:0:60:
475,192,87417,1,0,0:0:0:60:cymbal clap.wav
182,192,87417,1,0,0:0:0:0:
256,192,87417,1,0,0:0:0:0:
402,192,87417,1,0,0:0:0:0:
