osu file format v14

[General]
AudioFilename: audio.mp3
AudioLeadIn: 0
PreviewTime: 54930
Countdown: 0
SampleSet: Normal
StackLeniency: 0.7
Mode: 3
LetterboxInBreaks: 0
SpecialStyle: 0
WidescreenStoryboard: 0

[Editor]
DistanceSpacing: 1
BeatDivisor: 2
GridSize: 32
TimelineZoom: 1.4

[Metadata]
Title:Now Loading!!!!
TitleUnicode:Now Loading!!!!
Artist:fourfolium
ArtistUnicode:fourfolium
Creator:JztCallMeRon
Version:Easy
Source:NEW GAME!
Tags:-BlueFire- dudehacker フォーフォリウム ニューゲーム ending ed tv size takada yuuki 高田憂希 suzukaze aoba 涼風青葉 yamaguchi megumi 山口愛 takimoto hifumi 滝本ひふみ toda megumi 戸田めぐみ shinoda hajime 篠田はじめ ayumi takeo 竹尾歩美 iijima yun 飯島ゆん
BeatmapID:1104763
BeatmapSetID:520082

[Difficulty]
HPDrainRate:7
CircleSize:7
OverallDifficulty:6.5
ApproachRate:5
SliderMultiplier:1.4
SliderTickRate:1

[Events]
//Background and Video events
Video,0,"newgame_ed.avi"
0,0,"suzukaze+aoba.jpg",0,0
//Break Periods
//Storyboard Layer 0 (Background)
//Storyboard Layer 1 (Fail)
//Storyboard Layer 2 (Pass)
//Storyboard Layer 3 (Foreground)
//Storyboard Sound Samples
Sample,2546,0,"cymbal clap.wav",60
Sample,17469,0,"cymbal clap.wav",60
Sample,17469,0,"normal-hitclap.wav",60
Sample,22443,0,"LR_Tom Hit X.wav",60
Sample,22598,0,"LR_Tom Hit Z.wav",60
Sample,33479,0,"bitter hat.wav",60
Sample,42805,0,"cymbal clap.wav",60
Sample,44671,0,"normal-hitclap.wav",60
Sample,45914,0,"normal-hitwhistle.wav",60
Sample,47158,0,"normal-hitclap.wav",60
Sample,47469,0,"cymbal light.wav",60
Sample,48401,0,"cymbal light.wav",60
Sample,49023,0,"cymbal whistle.wav",60
Sample,49645,0,"cymbal light.wav",60
Sample,50266,0,"normal-hitfinish.wav",60
Sample,54930,0,"normal-hitclap.wav",60
Sample,62702,0,"cymbal whistle.wav",60
Sample,63323,0,"cymbal whistle.wav",60
Sample,64878,0,"cymbal clap.wav",60
Sample,65189,0,"bitter hat.wav",60
Sample,65810,0,"bitter hat.wav",60
Sample,66432,0,"bitter hat.wav",60
Sample,67054,0,"bitter hat.wav",60
Sample,67676,0,"bitter hat.wav",60
Sample,68298,0,"bitter hat.wav",60
Sample,68919,0,"bitter hat.wav",60
Sample,69541,0,"bitter hat.wav",60
Sample,70163,0,"cymbal whistle.wav",60
Sample,70474,0,"bitter hat.wav",60
Sample,70785,0,"bitter hat.wav",60
Sample,71095,0,"bitter hat.wav",60
Sample,71406,0,"cymbal clap.wav",60
Sample,72028,0,"bitter hat.wav",60
Sample,72339,0,"bitter hat.wav",60
Sample,72650,0,"cymbal whistle.wav",60
Sample,72961,0,"bitter hat.wav",60
Sample,73272,0,"bitter hat.wav",60
Sample,73582,0,"cymbal clap.wav",60
Sample,73893,0,"bitter hat.wav",60
Sample,74204,0,"bitter hat.wav",60
Sample,74515,0,"cymbal clap.wav",60
Sample,75137,0,"bitter hat.wav",60
Sample,75137,0,"normal-hitfinish.wav",60
Sample,75448,0,"bitter hat.wav",60
Sample,75759,0,"bitter hat.wav",60
Sample,76070,0,"bitter hat.wav",60
Sample,76380,0,"bitter hat.wav",60
Sample,76691,0,"bitter hat.wav",60
Sample,77002,0,"bitter hat.wav",60
Sample,77313,0,"bitter hat.wav",60
Sample,77624,0,"bitter hat.wav",60
Sample,77935,0,"bitter hat.wav",60
Sample,78246,0,"bitter hat.wav",60
Sample,78557,0,"bitter hat.wav",60
Sample,78867,0,"bitter hat.wav",60
Sample,79178,0,"bitter hat.wav",60
Sample,79489,0,"bitter hat.wav",60
Sample,79800,0,"bitter hat.wav",60
Sample,80422,0,"bitter hat.wav",60
Sample,80733,0,"bitter hat.wav",60
Sample,81044,0,"bitter hat.wav",60
Sample,81355,0,"bitter hat.wav",60
Sample,81665,0,"bitter hat.wav",60
Sample,81976,0,"bitter hat.wav",60
Sample,82287,0,"bitter hat.wav",60
Sample,82598,0,"cymbal clap.wav",60
Sample,83064,0,"cymbal clap.wav",60
Sample,83531,0,"cymbal clap.wav",60
Sample,83997,0,"cymbal light.wav",60
Sample,84308,0,"cymbal light.wav",60
Sample,84774,0,"cymbal light.wav",60
Sample,85085,0,"normal-hitfinish.wav",60
Sample,86950,0,"LR_Tom Hit X.wav",60
Sample,87417,0,"cymbal clap.wav",60

[TimingPoints]
526,310.88083,4,1,1,50,1,0
3013,-100,4,1,1,60,0,0
55241,-100,4,1,1,50,0,1
75137,-100,4,1,1,60,0,0

[HitObjects]
329,192,2235,5,2,0:0:0:50:
36,192,2391,1,4,0:0:0:50:
475,192,2546,128,4,3013:0:0:0:50:
182,192,3013,1,2,0:0:0:60:
329,192,3013,1,0,0:0:0:60:normal-hitfinish.wav
109,192,3323,1,8,0:0:0:60:
256,192,3634,1,2,0:0:0:60:
109,192,3945,1,8,0:0:0:60:
402,192,4256,1,2,0:0:0:60:
36,192,4567,1,8,0:0:0:60:
402,192,4878,1,2,0:0:0:60:
36,192,5189,1,8,0:0:0:60:
475,192,5500,1,2,0:0:0:60:
182,192,5810,1,8,0:0:0:60:
475,192,6121,1,2,0:0:0:60:
182,192,6432,1,8,0:0:0:60:
329,192,6743,1,2,0:0:0:60:
109,192,7054,1,8,0:0:0:60:
329,192,7365,1,2,0:0:0:60:
109,192,7676,1,8,0:0:0:60:
182,192,7987,1,2,0:0:0:60:
475,192,7987,1,0,0:0:0:60:cymbal whistle.wav
329,192,8298,1,8,0:0:0:60:
109,192,8608,1,2,0:0:0:60:
402,192,8919,1,8,0:0:0:60:
182,192,9230,1,2,0:0:0:60:
475,192,9541,1,8,0:0:0:60:
109,192,9852,1,2,0:0:0:60:
329,192,10163,1,8,0:0:0:60:
475,192,10474,128,4,10785:0:0:0:60:
329,192,10785,1,0,0:0:0:0:
36,192,10940,128,4,11251:0:0:0:60:
182,192,11251,1,0,0:0:0:0:
402,192,11406,128,8,11717:0:0:0:60:
329,192,11717,1,0,0:0:0:0:
109,192,11873,128,8,12184:0:0:0:60:
256,192,12184,1,8,0:0:0:60:
329,192,12494,1,8,0:0:0:60:
182,192,12650,1,8,0:0:0:60:
36,192,12961,1,2,0:0:0:60:
475,192,12961,1,0,0:0:0:60:cymbal clap.wav
109,192,13272,1,2,0:0:0:60:
182,192,13582,1,2,0:0:0:60:
256,192,13893,1,2,0:0:0:60:
329,192,14204,1,2,0:0:0:60:
402,192,14515,1,2,0:0:0:60:
329,192,14826,1,2,0:0:0:60:
256,192,15137,1,2,0:0:0:60:
402,192,15292,1,2,0:0:0:60:
109,192,15448,1,2,0:0:0:60:
182,192,15759,1,2,0:0:0:60:
256,192,16070,1,2,0:0:0:60:
329,192,16380,1,2,0:0:0:60:
402,192,16691,1,2,0:0:0:60:
329,192,17002,1,2,0:0:0:60:
109,192,17313,1,2,0:0:0:60:
402,192,17469,1,2,0:0:0:60:
36,192,17935,1,2,0:0:0:60:
475,192,17935,1,0,0:0:0:0:
402,192,18246,1,2,0:0:0:60:
329,192,18557,1,2,0:0:0:60:
256,192,18867,1,2,0:0:0:60:
182,192,19178,1,2,0:0:0:60:
109,192,19489,1,2,0:0:0:60:
182,192,19800,1,2,0:0:0:60:
256,192,20111,1,2,0:0:0:60:
402,192,20266,1,2,0:0:0:60:
329,192,20422,1,2,0:0:0:60:
182,192,20733,1,2,0:0:0:60:
109,192,21044,1,2,0:0:0:60:
256,192,21355,1,2,0:0:0:60:
475,192,21510,1,0,0:0:0:60:cymbal clap.wav
329,192,22443,1,2,0:0:0:60:
109,192,22598,128,8,22909:0:0:0:60:
402,192,22909,1,2,0:0:0:60:
256,192,22909,1,2,0:0:0:60:cymbal whistle.wav
329,192,23220,1,8,0:0:0:60:
109,192,23531,1,2,0:0:0:60:
402,192,23842,1,8,0:0:0:60:
36,192,24152,1,2,0:0:0:60:
475,192,24463,1,8,0:0:0:60:
256,192,24774,1,2,0:0:0:60:
329,192,25085,1,8,0:0:0:60:
402,192,25396,1,2,0:0:0:60:
182,192,25707,1,8,0:0:0:60:
475,192,26018,1,2,0:0:0:60:
109,192,26329,1,8,0:0:0:60:
256,192,26639,1,2,0:0:0:60:
36,192,26950,1,8,0:0:0:60:
329,192,27261,1,2,0:0:0:60:
182,192,27572,1,8,0:0:0:60:
36,192,27883,1,2,0:0:0:60:
329,192,28194,1,8,0:0:0:60:
36,192,28816,1,8,0:0:0:60:
182,192,29127,1,2,0:0:0:60:
329,192,29437,1,8,0:0:0:60:
256,192,30059,1,8,0:0:0:60:
36,192,30370,1,2,0:0:0:60:
402,192,30681,1,8,0:0:0:60:
109,192,30992,1,2,0:0:0:60:
475,192,31303,1,8,0:0:0:60:
256,192,31458,1,0,0:0:0:60:cymbal light.wav
329,192,31769,1,8,0:0:0:60:
109,192,31924,1,8,0:0:0:60:
182,192,32235,128,2,32546:0:0:0:60:
329,192,32546,128,2,32857:0:0:0:60:
36,192,32857,1,0,0:0:0:60:cymbal clap.wav
475,192,32857,1,0,0:0:0:0:
109,192,33479,1,8,0:0:0:60:
402,192,33945,1,2,0:0:0:60:
256,192,34256,1,2,0:0:0:60:
329,192,34722,1,8,0:0:0:60:
109,192,35344,1,2,0:0:0:60:
402,192,35966,1,8,0:0:0:60:
109,192,36432,1,0,0:0:0:60:normal-hitclap.wav
256,192,36743,1,0,0:0:0:60:normal-hitclap.wav
182,192,37209,1,8,0:0:0:60:
402,192,37831,1,2,0:0:0:60:
256,192,37831,1,0,0:0:0:60:cymbal whistle.wav
109,192,38453,1,8,0:0:0:60:
329,192,39075,1,2,0:0:0:60:
36,192,39230,1,8,0:0:0:60:
36,192,39696,1,8,0:0:0:60:
182,192,40163,1,8,0:0:0:60:
256,192,40318,1,0,0:0:0:60:cymbal whistle.wav
402,192,40940,1,4,0:0:0:60:
329,192,41251,1,4,0:0:0:60:
182,192,41251,1,0,0:0:0:60:cymbal light.wav
256,192,41562,1,0,0:0:0:60:bitter hat.wav
109,192,41873,128,2,42184:0:0:0:60:
329,192,42184,128,2,42494:0:0:0:60:
182,192,42494,128,0,42805:0:0:0:60:LR_Tom Hit Z.wav
36,192,42805,1,2,0:0:0:60:
475,192,42805,1,0,0:0:0:60:LR_Tom Hit X.wav
329,192,43427,1,8,0:0:0:60:
109,192,44049,1,2,0:0:0:60:
329,192,44204,1,8,0:0:0:60:
329,192,44671,1,2,0:0:0:60:
402,192,45292,1,2,0:0:0:60:
182,192,45914,1,8,0:0:0:60:
402,192,46536,1,2,0:0:0:60:
182,192,46691,1,8,0:0:0:60:
329,192,47002,1,2,0:0:0:60:
109,192,47158,1,2,0:0:0:60:
256,192,47469,128,4,47779:0:0:0:60:
402,192,47779,128,2,48401:0:0:0:60:
329,192,47779,1,0,0:0:0:60:cymbal light.wav
109,192,48401,128,2,49023:0:0:0:60:
402,192,49023,128,2,49645:0:0:0:60:
256,192,49645,128,2,50266:0:0:0:60:
36,192,50266,128,2,50888:0:0:0:60:
475,192,50888,128,2,51510:0:0:0:60:
109,192,51510,128,4,52132:0:0:0:60:
402,192,52132,128,8,52909:0:0:0:60:
109,192,52909,1,8,0:0:0:60:
182,192,53064,1,8,0:0:0:60:
402,192,53375,1,8,0:0:0:60:
329,192,53531,1,8,0:0:0:60:
256,192,53842,1,8,0:0:0:60:
109,192,53842,1,0,0:0:0:0:
182,192,54930,1,2,0:0:0:60:
36,192,55241,1,2,0:0:0:60:
256,192,55241,1,0,0:0:0:60:bitter hat.wav
109,192,55551,1,8,0:0:0:60:
329,192,55551,1,0,0:0:0:0:
182,192,55862,1,2,0:0:0:60:
256,192,56173,1,8,0:0:0:60:
402,192,56173,1,0,0:0:0:0:
475,192,56484,1,2,0:0:0:60:
402,192,56795,1,8,0:0:0:60:
182,192,56795,1,0,0:0:0:0:
329,192,57106,1,2,0:0:0:60:
256,192,57417,1,8,0:0:0:60:
36,192,57417,1,0,0:0:0:0:
109,192,57728,1,2,0:0:0:60:
182,192,58038,1,8,0:0:0:60:
402,192,58038,1,0,0:0:0:0:
329,192,58349,1,2,0:0:0:60:
109,192,58660,1,8,0:0:0:60:
256,192,58660,1,0,0:0:0:0:
402,192,58971,1,2,0:0:0:60:
329,192,59282,1,8,0:0:0:60:
182,192,59282,1,0,0:0:0:0:
109,192,59593,1,2,0:0:0:60:
256,192,59904,1,8,0:0:0:60:
402,192,59904,1,0,0:0:0:0:
36,192,60215,1,2,0:0:0:60:
109,192,60526,1,8,0:0:0:0:
402,192,60526,1,0,0:0:0:0:
182,192,60836,1,2,0:0:0:60:
256,192,61147,1,8,0:0:0:60:
329,192,61147,1,0,0:0:0:0:
475,192,61458,1,2,0:0:0:60:
402,192,61769,1,8,0:0:0:60:
109,192,61769,1,0,0:0:0:0:
329,192,62080,1,2,0:0:0:60:
256,192,62391,1,8,0:0:0:60:
182,192,62391,1,0,0:0:0:0:
36,192,62702,128,2,63013:0:0:0:60:
402,192,63013,1,8,0:0:0:60:
182,192,63323,128,2,63634:0:0:0:60:
402,192,63634,1,0,0:0:0:60:LR_Tom Hit X.wav
329,192,63945,128,0,64256:0:0:0:60:LR_Tom Hit Z.wav
109,192,64256,1,2,0:0:0:60:
475,192,64567,128,2,64878:0:0:0:60:
182,192,64878,1,8,0:0:0:60:
256,192,65189,1,2,0:0:0:60:
182,192,65500,1,8,0:0:0:60:
402,192,65500,1,0,0:0:0:60:bitter hat.wav
109,192,65810,1,2,0:0:0:60:
36,192,66121,1,8,0:0:0:60:
402,192,66121,1,0,0:0:0:60:bitter hat.wav
256,192,66432,1,2,0:0:0:60:
329,192,66743,1,8,0:0:0:60:
109,192,66743,1,0,0:0:0:60:bitter hat.wav
402,192,67054,1,2,0:0:0:60:
475,192,67365,1,8,0:0:0:60:
109,192,67365,1,0,0:0:0:60:bitter hat.wav
182,192,67676,1,2,0:0:0:60:
256,192,67987,1,8,0:0:0:60:
475,192,67987,1,0,0:0:0:60:bitter hat.wav
182,192,68298,1,2,0:0:0:60:
329,192,68608,1,8,0:0:0:60:
109,192,68608,1,0,0:0:0:60:bitter hat.wav
475,192,68919,1,2,0:0:0:60:
36,192,69230,1,8,0:0:0:60:
329,192,69230,1,0,0:0:0:60:bitter hat.wav
182,192,69541,1,2,0:0:0:60:
109,192,69852,1,8,0:0:0:60:
402,192,69852,1,0,0:0:0:60:bitter hat.wav
36,192,70163,128,2,70474:0:0:0:60:
475,192,70474,128,8,70785:0:0:0:60:
109,192,70785,128,2,71095:0:0:0:60:
256,192,71095,128,8,71406:0:0:0:60:
402,192,71406,128,2,71717:0:0:0:60:
109,192,72028,128,2,72339:0:0:0:60:
256,192,72339,128,8,72650:0:0:0:60:
402,192,72650,128,2,72961:0:0:0:60:
109,192,72961,128,8,73272:0:0:0:60:
256,192,73272,128,2,73582:0:0:0:60:
402,192,73582,128,8,73893:0:0:0:60:
109,192,73893,128,2,74204:0:0:0:60:
256,192,74204,128,8,74515:0:0:0:60:
402,192,74515,128,2,75137:0:0:0:60:
109,192,75137,1,4,0:0:0:60:normal-hitfinish.wav
329,192,75137,1,2,0:0:0:60:
256,192,75448,1,8,0:0:0:60:
109,192,75759,1,2,0:0:0:60:
182,192,76070,1,8,0:0:0:60:
402,192,76380,1,2,0:0:0:60:
36,192,76691,1,8,0:0:0:60:
402,192,77002,1,2,0:0:0:60:
109,192,77313,1,8,0:0:0:60:
475,192,77624,1,2,0:0:0:60:
182,192,77935,1,8,0:0:0:60:
475,192,78246,1,2,0:0:0:60:
36,192,78557,1,8,0:0:0:60:
182,192,78867,1,2,0:0:0:60:
329,192,79178,1,8,0:0:0:60:
182,192,79489,1,2,0:0:0:60:
329,192,79800,1,8,0:0:0:60:
36,192,80111,1,2,0:0:0:60:
475,192,80111,1,0,0:0:0:60:cymbal whistle.wav
329,192,80422,1,8,0:0:0:60:
109,192,80733,1,2,0:0:0:60:
402,192,81044,1,8,0:0:0:60:
182,192,81355,1,2,0:0:0:60:
475,192,81665,1,8,0:0:0:60:
109,192,81976,1,2,0:0:0:60:
329,192,82287,1,8,0:0:0:60:
475,192,82598,128,8,82909:0:0:0:60:
329,192,82909,1,2,0:0:0:60:
36,192,83064,128,8,83375:0:0:0:60:
182,192,83375,1,2,0:0:0:60:
402,192,83531,128,8,83842:0:0:0:60:
329,192,83842,1,0,0:0:0:0:
109,192,83997,128,4,84308:0:0:0:60:
256,192,84308,1,4,0:0:0:60:
329,192,84619,1,0,0:0:0:60:cymbal light.wav
182,192,84774,1,4,0:0:0:60:
256,192,85085,128,4,86950:0:0:0:60:
109,192,86950,1,8,0:0:0:60:
402,192,87106,1,8,0:0:0:60:
109,192,87261,1,8,0:0:0:60:
402,192,87417,1,8,0:0:0:60:
