osu file format v14

[General]
AudioFilename: jump.mp3
AudioLeadIn: 0
PreviewTime: 65699
Countdown: 0
SampleSet: Soft
StackLeniency: 0.7
Mode: 0
LetterboxInBreaks: 0
WidescreenStoryboard: 1

[Editor]
DistanceSpacing: 0.9
BeatDivisor: 4
GridSize: 4
TimelineZoom: 1.5

[Metadata]
Title:Koujou Joujou High Jump (Short Ver.)
TitleUnicode:向上上々ハイジャンプ↑↑↑↑ (Short Ver.)
Artist:fourfolium
ArtistUnicode:fourfolium
Creator:Doormat
Version:Normal
Source:NEW GAME! -THE CHALLENGE STAGE!-
Tags:Kibbleru [C_u_r_i] Curi フォーフォリウム ニューゲーム ザ チャレンジステージ ending ed game size takada yuuki 高田憂希 suzukaze aoba 涼風青葉 yamaguchi megumi 山口愛 takimoto hifumi 滝本ひふみ toda megumi 戸田めぐみ shinoda hazime 篠田はじめ ayumi takeo 竹尾歩美 iizima yun 飯島ゆん
BeatmapID:1258102
BeatmapSetID:569697

[Difficulty]
HPDrainRate:4
CircleSize:3.3
OverallDifficulty:4
ApproachRate:5
SliderMultiplier:1.2
SliderTickRate:1

[Events]
//Background and Video events
0,0,"newgame_background.jpg",0,0
//Break Periods
//Storyboard Layer 0 (Background)
//Storyboard Layer 1 (Fail)
//Storyboard Layer 2 (Pass)
//Storyboard Layer 3 (Foreground)
//Storyboard Sound Samples

[TimingPoints]
2039,357.142857142857,4,2,1,70,1,0
2039,-100,4,2,1,70,0,0
7753,-100,4,2,1,80,0,1
19181,-100,4,2,1,70,0,0
30610,-100,4,2,1,50,0,0
42038,-100,4,2,1,60,0,0
53467,-100,4,2,1,50,0,0
59181,-100,4,2,1,70,0,0
60610,-100,4,2,1,75,0,0
62038,-100,4,2,1,80,0,0
63467,-100,4,2,1,70,0,0
66324,-100,4,2,1,80,0,1
77663,-100,4,2,1,80,0,0
77753,-100,4,2,1,80,0,1
89181,-100,4,2,1,60,0,0
92038,-100,4,2,1,70,0,0
103646,-100,4,2,2,50,0,0
104717,-100,4,2,1,70,0,0
107038,-100,4,2,1,10,0,0

[Colours]
Combo1 : 236,164,22
Combo2 : 84,171,80
Combo3 : 238,43,22
Combo4 : 62,172,199
Combo5 : 229,147,122

[HitObjects]
304,124,2039,6,0,L|312:204,2,60,6|0|0,0:0|0:0|0:0,0:0:0:0:
316,72,2574,2,0,P|272:88|188:60,1,120,2|4,0:0|0:3,0:0:0:0:
156,44,3110,1,2,0:3:0:0:
88,128,3467,2,0,L|8:120,2,60,6|0|0,0:0|0:0|0:0,0:0:0:0:
104,180,4002,2,0,P|112:232|88:316,1,120,2|4,0:0|0:3,0:0:0:0:
60,336,4538,1,8,0:0:0:0:
160,376,4896,5,6,0:0:0:0:
240,300,5253,2,0,L|232:232,2,60,0|2|8,0:0|0:0|0:0,0:0:0:0:
328,364,5967,1,8,0:0:0:0:
408,288,6324,2,0,L|400:220,1,60,8|0,0:0|0:0,0:0:0:0:
424,180,6681,2,0,L|416:112,1,60,8|0,0:0|0:0,0:0:0:0:
440,72,7038,2,0,L|308:87,1,120,8|8,0:0|0:0,0:0:0:0:
215,119,7753,6,0,P|158:100|99:110,1,120,6|8,0:0|0:0,0:0:0:0:
40,200,8467,2,0,P|10:179|-3:144,2,60,8|0|8,0:0|0:0|0:0,0:0:0:0:
92,212,9003,2,0,P|124:240|136:336,1,120,4|0,0:0|0:0,0:0:0:0:
124,364,9538,1,8,0:0:0:0:
232,372,9896,2,0,L|300:360,1,60,8|0,0:0|0:0,0:0:0:0:
344,380,10253,2,0,L|412:368,1,60,8|0,0:0|0:0,0:0:0:0:
455,375,10610,6,0,P|439:318|445:259,1,120,6|8,0:0|0:0,0:0:0:0:
476,216,11146,1,0,0:0:0:0:
476,216,11324,2,0,P|420:236|362:223,1,120,8|8,0:0|0:0,0:0:0:0:
320,188,11860,2,0,P|261:175|202:199,1,120,4|0,0:0|0:0,0:0:0:0:
172,237,12396,1,8,0:0:0:0:
268,284,12753,1,8,0:0:0:0:
320,188,13110,2,0,L|318:122,1,60,8|8,0:0|0:0,0:0:0:0:
352,84,13467,6,0,P|296:100|240:80,1,120,6|8,0:0|0:0,0:0:0:0:
208,36,14003,2,0,P|150:31|99:62,1,120,0|0,0:0|0:0,0:0:0:0:
64,104,14538,1,8,0:0:0:0:
64,104,14717,1,4,0:0:0:0:
0,192,15074,2,0,L|12:272,1,60,0|8,0:0|0:0,0:0:0:0:
56,280,15431,2,0,P|96:264|180:280,1,120,0|0,0:0|0:0,0:0:0:0:
216,300,15967,1,8,0:0:0:0:
300,232,16324,5,8,0:0:0:0:
261,131,16681,1,8,0:0:0:0:
153,136,17038,2,0,P|96:140|68:132,2,60,8|0|8,0:0|0:0|0:0,0:0:0:0:
192,176,17574,2,0,L|172:320,1,120,8|0,0:0|0:0,0:0:0:0:
284,312,18288,2,0,L|304:168,1,120,8|0,0:0|0:0,0:0:0:0:
308,140,18824,1,8,0:0:0:0:
396,196,19181,6,0,P|452:213|509:196,1,120,6|8,0:0|0:0,0:0:0:0:
512,88,19896,2,0,P|455:70|398:87,1,120,2|8,0:0|0:0,0:0:0:0:
308,140,20610,2,0,P|251:157|194:139,1,120,2|8,0:0|0:0,0:0:0:0:
192,32,21324,2,0,P|249:15|306:33,1,120,2|12,0:0|0:0,0:0:0:0:
398,86,22038,5,6,0:0:0:0:
308,140,22396,1,8,0:0:0:0:
361,230,22753,2,0,L|434:215,2,60,2|0|8,0:0|0:0|0:0,0:0:0:0:
324,268,23288,2,0,L|185:238,1,120,4|0,0:0|0:0,0:0:0:0:
156,228,23824,1,8,0:0:0:0:
200,132,24181,2,0,P|200:96|192:68,2,60,2|0|12,0:0|0:0|0:0,0:0:0:0:
308,148,24896,6,0,L|436:124,1,120,6|8,0:0|0:0,0:0:0:0:
444,232,25610,2,0,L|316:256,1,120,2|8,0:0|0:0,0:0:0:0:
220,280,26324,2,0,L|197:162,1,120,2|8,0:0|0:0,0:0:0:0:
91,180,27038,2,0,L|113:297,1,120,2|12,0:0|0:0,0:0:0:0:
184,380,27753,5,6,0:0:0:0:
220,280,28110,1,8,0:0:0:0:
320,316,28467,2,0,L|312:388,2,60,8|0|8,0:0|0:0|0:0,0:0:0:0:
360,280,29003,2,0,L|346:160,1,120,4|0,0:0|0:0,0:0:0:0:
452,148,29717,2,0,L|465:267,1,120,4|0,0:0|0:0,0:0:0:0:
460,320,30253,1,8,0:0:0:0:
360,280,30610,6,0,P|302:267|240:284,1,120,6|2,0:0|0:0,0:0:0:0:
136,288,31324,2,0,P|148:340|160:360,2,60,2|0|2,0:0|0:0|0:0,0:0:0:0:
140,232,31860,2,0,P|152:196|136:108,1,120,0|0,0:0|0:0,0:0:0:0:
108,72,32396,1,2,0:0:0:0:
196,8,32753,2,0,L|320:20,1,120,2|2,0:0|0:0,0:0:0:0:
401,68,33467,6,0,P|415:40|415:10,2,60,2|0|2,0:0|0:0|0:0,0:0:0:0:
371,112,34003,2,0,P|344:164|347:223,1,120,0|0,0:0|0:0,0:0:0:0:
400,316,34717,2,0,P|340:318|290:350,1,120,0|0,0:0|0:0,0:0:0:0:
240,372,35253,1,2,0:0:0:0:
240,372,35431,2,0,P|180:369|130:337,1,120,0|0,0:0|0:0,0:0:0:0:
92,300,35967,1,2,0:0:0:0:
180,240,36324,6,0,P|192:204|168:124,1,120,2|2,0:0|0:0,0:0:0:0:
100,44,37038,2,0,L|28:56,2,60,2|0|2,0:0|0:0|0:0,0:0:0:0:
144,12,37574,2,0,L|284:36,1,120,0|0,0:0|0:0,0:0:0:0:
316,44,38110,1,2,0:0:0:0:
284,148,38467,2,0,P|272:212|292:268,1,120,2|2,0:0|0:0,0:0:0:0:
376,200,39181,5,6,0:0:0:0:
376,200,40431,2,0,L|184:184,1,180,4|8,0:0|0:0,0:0:0:0:
228,288,41324,2,0,L|307:294,2,60,8|0|8,0:0|0:0|0:0,0:0:0:0:
136,348,42038,5,6,0:0:0:0:
76,256,42395,1,8,0:0:0:0:
168,196,42753,2,0,P|176:156|172:128,1,60,8|0,0:0|0:0,0:0:0:0:
152,88,43110,1,8,0:0:0:0:
244,28,43467,2,0,L|376:52,1,120,2|8,0:0|0:0,0:0:0:0:
472,48,44181,2,0,L|460:116,1,60,8|0,0:0|0:0,0:0:0:0:
448,160,44538,1,8,0:0:0:0:
356,220,44896,6,0,P|352:260|360:292,2,60,2|0|8,0:0|0:0|0:0,0:0:0:0:
323,176,45431,2,0,P|266:192|208:178,1,120,0|0,0:0|0:0,0:0:0:0:
100,164,46146,2,0,P|116:221|102:279,1,120,0|0,0:0|0:0,0:0:0:0:
60,312,46681,2,0,L|132:336,1,60,8|0,0:0|0:0,0:0:0:0:
172,324,47038,2,0,L|244:348,1,60,8|0,0:0|0:0,0:0:0:0:
284,336,47396,1,8,0:0:0:0:
252,232,47753,5,2,0:0:0:0:
326,152,48110,1,8,0:0:0:0:
294,48,48467,2,0,L|212:48,1,60,8|0,0:0|0:0,0:0:0:0:
180,48,48824,1,8,0:0:0:0:
80,8,49181,2,0,P|68:60|100:124,1,120,2|8,0:0|0:0,0:0:0:0:
156,208,49896,2,0,P|160:248|152:280,1,60,8|0,0:0|0:0,0:0:0:0:
124,312,50253,1,8,0:0:0:0:
220,364,50610,6,0,L|356:344,1,120,2|8,0:0|0:0,0:0:0:0:
392,360,51146,2,0,L|372:224,1,120,0|0,0:0|0:0,0:0:0:0:
420,144,51860,2,0,P|368:132|300:164,1,120,4|0,0:0|0:0,0:0:0:0:
272,196,52396,1,8,0:0:0:0:
172,152,52753,2,0,L|160:93,1,60,8|0,0:0|0:0,0:0:0:0:
148,40,53110,1,8,0:0:0:0:
60,103,53467,6,0,P|47:162|63:219,1,120,6|8,0:0|0:0,0:0:0:0:
56,272,54003,2,0,P|113:255|171:268,1,120,2|0,0:0|0:0,0:0:0:0:
252,340,54717,2,0,P|310:352|367:336,1,120,2|0,0:0|0:0,0:0:0:0:
408,300,55253,1,2,0:0:0:0:
360,204,55610,1,8,0:0:0:0:
404,104,55967,1,2,0:0:0:0:
356,8,56324,6,0,L|220:28,1,120,2|8,0:0|0:0,0:0:0:0:
196,60,56860,2,0,L|77:42,1,120,2|0,0:0|0:0,0:0:0:0:
32,140,57574,2,0,P|48:200|32:268,1,120,0|0,0:0|0:0,0:0:0:0:
0,296,58110,1,2,0:0:0:0:
100,332,58467,1,8,0:0:0:0:
200,368,58824,1,2,0:0:0:0:
236,268,59181,6,0,L|212:136,1,120,2|8,0:0|0:0,0:0:0:0:
324,164,59896,2,0,L|348:296,1,120,2|8,0:0|0:0,0:0:0:0:
320,328,60431,1,0,0:0:0:0:
320,328,60610,2,0,P|373:302|432:309,1,120,2|8,0:0|0:0,0:0:0:0:
504,228,61324,2,0,P|510:169|484:115,1,120,2|8,0:0|0:0,0:0:0:0:
384,68,62038,6,0,L|388:4,2,60,8|2|2,0:0|0:0|0:0,0:0:0:0:
356,116,62574,2,0,P|316:104|228:132,1,120,8|2,0:0|0:0,0:0:0:0:
200,156,63110,1,8,0:0:0:0:
252,248,63467,5,8,0:0:0:0:
252,248,63646,2,0,L|384:236,1,120,2|0,0:0|0:0,0:0:0:0:
424,232,64181,1,8,0:0:0:0:
512,288,64538,1,8,0:0:0:0:
456,376,64896,2,0,L|384:368,1,60,8|0,0:0|0:0,0:0:0:0:
352,336,65253,2,0,L|280:328,1,60,8|0,0:0|0:0,0:0:0:0:
244,351,65610,2,0,P|251:292|235:235,1,120,8|8,0:0|0:0,0:0:0:0:
128,208,66324,6,0,P|120:148|136:91,1,120,6|8,0:0|0:0,0:0:0:0:
236,56,67038,2,0,P|222:29|200:8,2,60,8|0|8,0:0|0:0|0:0,0:0:0:0:
268,100,67574,2,0,P|312:112|392:88,1,120,4|0,0:0|0:0,0:0:0:0:
420,56,68110,1,8,0:0:0:0:
484,140,68467,2,0,L|472:208,1,60,8|0,0:0|0:0,0:0:0:0:
488,252,68824,2,0,L|476:320,1,60,8|0,0:0|0:0,0:0:0:0:
496,364,69181,6,0,P|440:340|376:352,1,120,6|8,0:0|0:0,0:0:0:0:
336,376,69717,1,0,0:0:0:0:
336,376,69896,2,0,P|360:320|348:256,1,120,8|8,0:0|0:0,0:0:0:0:
324,216,70431,2,0,P|268:192|204:204,1,120,4|0,0:0|0:0,0:0:0:0:
164,228,70967,1,8,0:0:0:0:
232,312,71324,1,8,0:0:0:0:
136,364,71681,2,0,L|76:360,1,60,8|0,0:0|0:0,0:0:0:0:
24,380,72038,6,0,P|26:321|6:265,1,120,6|8,0:0|0:0,0:0:0:0:
0,211,72574,2,0,P|-5:151|13:94,1,120,0|0,0:0|0:0,0:0:0:0:
48,52,73110,1,8,0:0:0:0:
48,52,73288,1,4,0:0:0:0:
156,72,73646,2,0,L|224:64,1,60,0|8,0:0|0:0,0:0:0:0:
255,28,74003,2,0,P|244:88|272:144,1,120,0|0,0:0|0:0,0:0:0:0:
308,176,74538,1,8,0:0:0:0:
232,252,74896,5,8,0:0:0:0:
132,216,75253,1,8,0:0:0:0:
56,292,75610,2,0,L|60:360,2,60,8|0|8,0:0|0:0|0:0,0:0:0:0:
20,252,76146,2,0,L|12:108,1,120,8|8,0:0|0:0,0:0:0:0:
60,36,76860,2,0,L|203:28,1,120,8|0,0:0|0:0,0:0:0:0:
220,64,77396,2,0,L|288:60,1,60,8|0,0:0|0:0,0:0:0:0:
328,36,77753,6,0,P|320:96|336:156,1,120,6|8,0:0|0:0,0:0:0:0:
368,256,78467,2,0,P|400:240|416:216,2,60,8|0|8,0:0|0:0|0:0,0:0:0:0:
316,248,79003,2,0,P|280:236|188:268,1,120,4|0,0:0|0:0,0:0:0:0:
160,288,79538,2,0,L|92:276,1,60,8|0,0:0|0:0,0:0:0:0:
48,272,79896,1,8,0:0:0:0:
84,172,80253,1,8,0:0:0:0:
120,72,80610,6,0,L|104:14,2,60,6|0|8,0:0|0:0|0:0,0:0:0:0:
164,104,81146,2,0,P|218:80|276:90,1,120,0|0,0:0|0:0,0:0:0:0:
376,128,81860,2,0,P|356:183|371:240,1,120,4|0,0:0|0:0,0:0:0:0:
404,284,82396,1,8,0:0:0:0:
318,348,82753,1,8,0:0:0:0:
223,299,83110,2,0,L|147:299,1,60,8|8,0:0|0:0,0:0:0:0:
115,326,83467,6,0,P|122:266|109:208,1,120,6|8,0:0|0:0,0:0:0:0:
71,175,84003,2,0,P|63:115|76:57,1,120,0|0,0:0|0:0,0:0:0:0:
111,15,84538,1,8,0:0:0:0:
111,15,84717,1,4,0:0:0:0:
199,75,85074,2,0,L|267:63,1,60,0|8,0:0|0:0,0:0:0:0:
307,39,85431,2,0,P|295:87|319:163,1,120,0|0,0:0|0:0,0:0:0:0:
351,191,85967,1,8,0:0:0:0:
287,279,86324,5,8,0:0:0:0:
375,343,86681,1,8,0:0:0:0:
439,255,87038,2,0,P|479:255|503:259,2,60,8|0|8,0:0|0:0|0:0,0:0:0:0:
395,223,87574,2,0,L|406:103,1,120,8|0,0:0|0:0,0:0:0:0:
299,91,88288,2,0,L|287:210,1,120,8|0,0:0|0:0,0:0:0:0:
247,247,88824,2,0,L|240:319,1,60,8|8,0:0|0:0,0:0:0:0:
271,351,89181,6,0,P|227:335|143:355,1,120,6|8,0:0|0:0,0:0:0:0:
111,375,89717,1,2,0:0:0:0:
52,280,90074,2,0,L|52:211,1,60,8|2,0:0|0:0,0:0:0:0:
36,168,90431,2,0,B|109:173|144:132|144:132|142:205|179:240|179:240|230:201|231:133|231:133|264:144|296:130,1,420,4|0,0:0|0:0,0:0:0:0:
376,64,92038,6,0,L|516:52,1,120,6|8,0:0|0:0,0:0:0:0:
512,160,92753,2,0,L|392:170,1,120,2|8,0:0|0:0,0:0:0:0:
288,188,93467,2,0,L|298:307,1,120,2|8,0:0|0:0,0:0:0:0:
192,320,94181,2,0,L|181:200,1,120,2|12,0:0|0:0,0:0:0:0:
224,104,94896,5,6,0:0:0:0:
288,188,95253,1,8,0:0:0:0:
372,124,95610,2,0,L|364:56,2,60,2|0|8,0:0|0:0|0:0,0:0:0:0:
404,168,96146,2,0,L|388:287,1,120,4|0,0:0|0:0,0:0:0:0:
376,340,96681,1,8,0:0:0:0:
272,312,97038,2,0,P|220:308|196:316,2,60,2|0|12,0:0|0:0|0:0,0:0:0:0:
308,208,97753,6,0,P|309:148|285:94,1,120,6|8,0:0|0:0,0:0:0:0:
179,116,98467,2,0,P|177:175|201:229,1,120,2|8,0:0|0:0,0:0:0:0:
307,207,99181,2,0,P|361:182|420:184,1,120,2|8,0:0|0:0,0:0:0:0:
442,289,99896,2,0,P|387:313|328:311,1,120,2|12,0:0|0:0,0:0:0:0:
227,276,100610,5,6,0:0:0:0:
307,207,100967,1,0,0:0:0:0:
238,127,101324,2,0,L|159:140,2,60,8|0|8,0:0|0:0|0:0,0:0:0:0:
275,88,101860,2,0,L|398:109,1,120,4|0,0:0|0:0,0:0:0:0:
456,196,102574,1,4,0:0:0:0:
376,268,102931,2,0,P|372:300|376:348,2,60,0|8|0,0:0|0:0|0:0,0:0:0:0:
284,216,103646,6,0,L|220:224,1,60,2|2,0:0|0:0,0:0:0:0:
180,196,104003,2,0,L|172:136,1,60,2|2,0:0|0:0,0:0:0:0:
200,92,104360,2,0,L|259:84,1,60,2|2,0:0|0:0,0:0:0:0:
312,76,104717,1,0,1:0:0:0:
368,168,105074,2,0,P|377:196|378:226,1,60,0|0,1:0|1:0,0:0:0:0:
360,276,105431,1,4,1:2:0:0:
256,192,105610,12,0,107038,0:0:0:0:
