osu file format v14

[General]
AudioFilename: jump.mp3
AudioLeadIn: 0
PreviewTime: 65699
Countdown: 0
SampleSet: Soft
StackLeniency: 0.7
Mode: 0
LetterboxInBreaks: 0
WidescreenStoryboard: 1

[Editor]
DistanceSpacing: 1.1
BeatDivisor: 4
GridSize: 4
TimelineZoom: 1.5

[Metadata]
Title:Koujou Joujou High Jump (Short Ver.)
TitleUnicode:向上上々ハイジャンプ↑↑↑↑ (Short Ver.)
Artist:fourfolium
ArtistUnicode:fourfolium
Creator:Doormat
Version:Kibb's Hard
Source:NEW GAME! -THE CHALLENGE STAGE!-
Tags:Kibbleru [C_u_r_i] Curi フォーフォリウム ニューゲーム ザ チャレンジステージ ending ed game size takada yuuki 高田憂希 suzukaze aoba 涼風青葉 yamaguchi megumi 山口愛 takimoto hifumi 滝本ひふみ toda megumi 戸田めぐみ shinoda hazime 篠田はじめ ayumi takeo 竹尾歩美 iizima yun 飯島ゆん
BeatmapID:1250243
BeatmapSetID:569697

[Difficulty]
HPDrainRate:5
CircleSize:4
OverallDifficulty:6
ApproachRate:7.5
SliderMultiplier:1.5
SliderTickRate:1

[Events]
//Background and Video events
0,0,"newgame_background.jpg",0,0
//Break Periods
//Storyboard Layer 0 (Background)
//Storyboard Layer 1 (Fail)
//Storyboard Layer 2 (Pass)
//Storyboard Layer 3 (Foreground)
//Storyboard Sound Samples

[TimingPoints]
2039,357.142857142857,4,2,1,70,1,0
2039,-133.333333333333,4,2,1,70,0,0
7753,-100,4,2,1,80,0,1
19181,-100,4,2,1,70,0,0
30610,-111.111111111111,4,2,1,50,0,0
42038,-100,4,2,1,60,0,0
53467,-133.333333333333,4,2,1,50,0,0
59181,-111.111111111111,4,2,1,70,0,0
60610,-111.111111111111,4,2,1,75,0,0
62038,-111.111111111111,4,2,1,80,0,0
63467,-133.333333333333,4,2,1,70,0,0
66324,-100,4,2,1,80,0,1
77663,-100,4,2,1,80,0,0
77753,-100,4,2,1,80,0,1
89181,-133.333333333333,4,2,1,60,0,0
92038,-100,4,2,1,70,0,0
103646,-133.333333333333,4,2,2,50,0,0
104717,-100,4,2,1,70,0,0
107038,-100,4,2,1,10,0,0

[Colours]
Combo1 : 236,164,22
Combo2 : 84,171,80
Combo3 : 238,43,22
Combo4 : 62,172,199
Combo5 : 229,147,122

[HitObjects]
66,76,2039,5,6,0:0:0:0:
115,144,2217,2,0,L|104:220,1,56.2500021457673,0|0,0:0|0:0,0:0:0:0:
181,239,2574,2,0,L|199:108,1,112.500004291535,2|4,0:0|0:3,0:0:0:0:
258,70,3110,2,0,P|285:67|313:60,1,56.2500021457673,2|0,0:3|0:0,0:0:0:0:
422,137,3467,5,6,0:0:0:0:
365,199,3646,2,0,P|337:201|309:208,1,56.2500021457673,0|0,0:0|0:0,0:0:0:0:
229,233,4003,2,0,P|181:233|121:184,1,112.500004291535,2|4,0:0|0:3,0:0:0:0:
140,113,4539,2,0,L|134:39,1,56.2500021457673,8|0,0:0|0:0,0:0:0:0:
269,17,4896,5,6,0:0:0:0:
318,84,5074,2,0,L|322:140,1,56.2500021457673,0|8,0:0|0:0,0:0:0:0:
267,204,5431,1,0,0:0:0:0:
267,204,5610,2,0,L|262:260,1,56.2500021457673,2|0,0:0|0:0,0:0:0:0:
243,362,5967,1,8,0:0:0:0:
318,323,6146,1,0,0:0:0:0:
179,296,6324,6,0,L|119:288,1,56.2500021457673,8|0,0:0|0:0,0:0:0:0:
151,207,6681,2,0,L|91:199,1,56.2500021457673,8|0,0:0|0:0,0:0:0:0:
192,127,7038,2,0,L|132:119,1,56.2500021457673,8|0,0:0|0:0,0:0:0:0:
120,35,7396,2,0,L|175:42,1,56.2500021457673,8|0,0:0|0:0,0:0:0:0:
253,71,7753,6,0,L|350:54,1,75,6|0,0:0|0:0,0:0:0:0:
408,43,8110,2,0,P|449:99|416:201,1,150,8|8,0:0|0:0,0:0:0:0:
382,235,8646,2,0,L|369:322,1,75,0|8,0:0|0:0,0:0:0:0:
441,351,9003,6,0,B|376:325|360:367|293:341,1,150,4|0,0:0|0:0,0:0:0:0:
216,368,9538,1,8,0:0:0:0:
154,313,9717,1,0,0:0:0:0:
154,313,9806,1,8,0:0:0:0:
154,313,9896,2,0,P|139:271|144:225,1,75,8|0,0:0|0:0,0:0:0:0:
261,227,10253,2,0,P|276:269|271:315,1,75,8|0,0:0|0:0,0:0:0:0:
362,254,10610,6,0,L|442:248,1,75,6|0,0:0|0:0,0:0:0:0:
496,190,10967,2,0,P|510:126|467:52,1,150,8|8,0:0|0:0,0:0:0:0:
402,7,11503,2,0,P|387:41|388:78,1,75,0|8,0:0|0:0,0:0:0:0:
321,126,11860,6,0,P|272:128|190:60,1,150,4|0,0:0|0:0,0:0:0:0:
146,137,12396,2,0,L|132:225,1,75,8|0,0:0|0:0,0:0:0:0:
60,247,12753,1,8,0:0:0:0:
106,328,12931,1,0,0:0:0:0:
106,328,13021,1,0,0:0:0:0:
106,328,13110,2,0,L|202:312,1,75,8|8,0:0|0:0,0:0:0:0:
252,273,13467,6,0,B|307:288|307:288|337:321|337:321|383:334,1,150,6|8,0:0|0:0,0:0:0:0:
387,251,14003,2,0,P|405:218|406:180,1,75,0|8,0:0|0:0,0:0:0:0:
374,104,14360,2,0,P|344:81|307:76,1,75,0|8,0:0|0:0,0:0:0:0:
232,111,14717,6,0,P|169:149|98:132,1,150,4|0,0:0|0:0,0:0:0:0:
32,83,15253,1,8,0:0:0:0:
13,200,15431,2,0,L|22:164,2,37.5,0|8|8,0:0|0:0|0:0,0:0:0:0:
68,262,15788,1,0,0:0:0:0:
68,262,15967,2,0,L|155:252,1,75,8|0,0:0|0:0,0:0:0:0:
209,205,16324,6,0,L|283:213,1,75,8|0,0:0|0:0,0:0:0:0:
163,132,16681,2,0,L|88:123,1,75,8|8,0:0|0:0,0:0:0:0:
237,79,17038,1,8,0:0:0:0:
237,79,17217,2,0,L|247:33,2,37.5,0|0|8,0:0|0:0|0:0,0:0:0:0:
305,125,17574,6,0,P|377:137|445:68,1,150,8|0,0:0|0:0,0:0:0:0:
499,145,18110,1,8,0:0:0:0:
490,226,18288,2,0,L|505:281,2,37.5,8|8|8,0:0|0:0|0:0,0:0:0:0:
406,225,18646,1,0,0:0:0:0:
348,284,18824,2,0,L|273:279,1,75,8|8,0:0|0:0,0:0:0:0:
197,245,19181,6,0,L|122:249,1,75,6|0,0:0|0:0,0:0:0:0:
270,195,19538,2,0,P|308:133|292:61,1,150,8|2,0:0|0:0,0:0:0:0:
234,0,20074,2,0,P|211:29|204:65,1,75,0|8,0:0|0:0,0:0:0:0:
148,127,20431,6,0,P|93:129|20:48,1,150,4|0,0:0|0:0,0:0:0:0:
26,151,20967,1,8,0:0:0:0:
81,212,21146,2,0,P|90:286|97:361,1,150,0|0,0:0|0:0,0:0:0:0:
179,370,21681,1,12,0:0:0:0:
240,314,21860,1,0,0:0:0:0:
314,347,22038,6,0,L|398:355,1,75,6|0,0:0|0:0,0:0:0:0:
409,273,22396,2,0,L|334:265,1,75,8|0,0:0|0:0,0:0:0:0:
266,218,22753,2,0,L|253:155,2,37.5,2|0|0,0:0|0:0|0:0,0:0:0:0:
210,279,23110,1,8,0:0:0:0:
131,255,23288,6,0,P|83:198|99:116,1,150,4|0,0:0|0:0,0:0:0:0:
145,64,23824,2,0,P|179:50|216:52,1,75,8|0,0:0|0:0,0:0:0:0:
283,99,24181,2,0,P|317:116|354:119,1,75,2|0,0:0|0:0,0:0:0:0:
422,72,24538,2,0,L|502:58,1,75,12|0,0:0|0:0,0:0:0:0:
472,147,24896,5,6,0:0:0:0:
506,221,25074,1,0,0:0:0:0:
440,270,25253,2,0,B|379:246|358:282|292:256,1,150,8|2,0:0|0:0,0:0:0:0:
224,209,25788,2,0,L|209:299,1,75,0|8,0:0|0:0,0:0:0:0:
130,299,26146,6,0,L|155:150,1,150,4|0,0:0|0:0,0:0:0:0:
95,94,26681,1,8,0:0:0:0:
154,36,26860,2,0,L|234:29,1,75,0|2,0:0|0:0,0:0:0:0:
295,78,27217,1,0,0:0:0:0:
373,51,27396,1,12,0:0:0:0:
434,105,27574,1,0,0:0:0:0:
499,55,27753,6,0,P|464:117|479:191,1,150,6|8,0:0|0:0,0:0:0:0:
449,267,28288,2,0,L|439:324,2,37.5,0|8|8,0:0|0:0|0:0,0:0:0:0:
379,220,28646,1,0,0:0:0:0:
296,217,28824,1,8,0:0:0:0:
228,265,29003,6,0,L|76:251,1,150,4|0,0:0|0:0,0:0:0:0:
37,180,29538,1,8,0:0:0:0:
124,90,29717,2,0,P|168:147|153:218,1,150,4|0,0:0|0:0,0:0:0:0:
78,251,30253,2,0,L|68:338,1,75,8|0,0:0|0:0,0:0:0:0:
185,373,30610,6,0,L|192:305,1,67.4999979400635,6|0,0:0|0:0,0:0:0:0:
172,227,30967,2,0,L|324:214,1,134.999995880127,2|2,0:0|0:0,0:0:0:0:
383,240,31503,2,0,P|392:272|397:305,1,67.4999979400635,0|2,0:0|0:0,0:0:0:0:
367,158,31860,6,0,P|365:97|431:39,1,134.999995880127,0|0,0:0|0:0,0:0:0:0:
444,124,32396,1,2,0:0:0:0:
330,77,32574,2,0,L|256:69,1,67.4999979400635,0|2,0:0|0:0,0:0:0:0:
281,231,33110,2,0,L|213:223,1,67.4999979400635,2|0,0:0|0:0,0:0:0:0:
145,179,33467,6,0,P|102:173|13:234,1,134.999995880127,2|2,0:0|0:0,0:0:0:0:
46,293,34003,2,0,L|29:371,1,67.4999979400635,0|2,0:0|0:0,0:0:0:0:
109,382,34360,2,0,L|123:316,1,67.4999979400635,0|2,0:0|0:0,0:0:0:0:
196,279,34717,6,0,P|263:274|330:265,1,134.999995880127,0|0,0:0|0:0,0:0:0:0:
408,286,35253,1,2,0:0:0:0:
462,226,35431,2,0,P|470:193|468:159,1,67.4999979400635,0|2,0:0|0:0,0:0:0:0:
413,99,35788,1,0,0:0:0:0:
334,118,35967,2,0,P|325:150|327:184,1,67.4999979400635,2|0,0:0|0:0,0:0:0:0:
330,265,36324,6,0,P|302:284|270:292,1,67.4999979400635,2|0,0:0|0:0,0:0:0:0:
191,271,36681,2,0,P|133:237|44:248,1,134.999995880127,2|2,0:0|0:0,0:0:0:0:
31,165,37217,2,0,L|101:147,1,67.4999979400635,0|2,0:0|0:0,0:0:0:0:
156,94,37574,6,0,P|213:129|279:125,1,134.999995880127,0|0,0:0|0:0,0:0:0:0:
334,65,38110,1,2,0:0:0:0:
365,139,38288,2,0,L|368:219,1,67.4999979400635,0|2,0:0|0:0,0:0:0:0:
504,119,38824,2,0,L|507:199,1,67.4999979400635,2|0,0:0|0:0,0:0:0:0:
481,263,39181,6,0,P|415:278|351:300,1,134.999995880127,6|0,0:0|0:0,0:0:0:0:
273,275,39717,2,0,L|195:261,1,67.4999979400635,0|0,0:0|0:0,0:0:0:0:
126,275,40074,2,0,L|48:261,1,67.4999979400635,0|0,0:0|0:0,0:0:0:0:
29,152,40431,6,0,P|87:126|153:156,1,134.999995880127,4|0,0:0|0:0,0:0:0:0:
191,221,40967,2,0,L|291:212,1,101.249996910095,8|8,0:0|0:0,0:0:0:0:
309,199,41324,2,0,L|297:288,1,67.4999979400635,8|0,0:0|0:0,0:0:0:0:
377,288,41681,2,0,L|386:221,1,67.4999979400635,8|0,0:0|0:0,0:0:0:0:
432,152,42038,6,0,L|423:68,1,75,6|0,0:0|0:0,0:0:0:0:
364,19,42396,2,0,P|315:52|216:41,1,150,8|8,0:0|0:0,0:0:0:0:
147,28,42931,2,0,P|115:76|114:111,1,75,0|8,0:0|0:0,0:0:0:0:
174,147,43288,6,0,P|198:207|175:307,1,150,0|0,0:0|0:0,0:0:0:0:
118,338,43824,1,8,0:0:0:0:
194,370,44003,2,0,L|249:363,2,37.5,0|8|8,0:0|0:0|0:0,0:0:0:0:
118,338,44360,1,0,0:0:0:0:
103,257,44538,2,0,L|95:182,1,75,8|0,0:0|0:0,0:0:0:0:
30,130,44896,6,0,B|97:152|117:104|176:131,1,150,2|8,0:0|0:0,0:0:0:0:
256,109,45431,2,0,L|311:103,2,37.5,0|8|8,0:0|0:0|0:0,0:0:0:0:
241,190,45788,2,0,L|255:284,1,75,0|8,0:0|0:0,0:0:0:0:
198,328,46146,6,0,P|270:313|333:351,1,150,0|0,0:0|0:0,0:0:0:0:
382,284,46681,1,8,0:0:0:0:
449,331,46860,2,0,L|493:331,2,37.5,0|8|8,0:0|0:0|0:0,0:0:0:0:
382,284,47217,1,0,0:0:0:0:
430,218,47396,2,0,P|443:182|442:145,1,75,8|0,0:0|0:0,0:0:0:0:
382,88,47753,6,0,P|343:83|308:94,1,75,2|0,0:0|0:0,0:0:0:0:
242,140,48110,2,0,P|169:140|123:84,1,150,8|8,0:0|0:0,0:0:0:0:
55,132,48646,2,0,L|46:217,1,75,0|8,0:0|0:0,0:0:0:0:
105,264,49003,6,0,L|111:351,1,75,0|2,0:0|0:0,0:0:0:0:
193,292,49360,2,0,P|230:286|267:281,1,75,0|8,0:0|0:0,0:0:0:0:
348,324,49717,1,0,0:0:0:0:
348,324,49806,1,8,0:0:0:0:
348,324,49896,2,0,L|425:338,1,75,8|0,0:0|0:0,0:0:0:0:
489,288,50253,1,8,0:0:0:0:
502,206,50431,1,0,0:0:0:0:
450,140,50610,6,0,P|385:105|314:125,1,150,2|8,0:0|0:0,0:0:0:0:
252,179,51146,2,0,P|218:194|181:193,1,75,0|8,0:0|0:0,0:0:0:0:
102,155,51503,2,0,P|88:120|90:82,1,75,0|8,0:0|0:0,0:0:0:0:
199,45,51860,6,0,L|181:193,1,150,4|0,0:0|0:0,0:0:0:0:
137,263,52396,2,0,L|146:346,1,75,8|0,0:0|0:0,0:0:0:0:
145,337,52663,1,8,0:0:0:0:
145,337,52753,1,8,0:0:0:0:
222,364,52931,1,0,0:0:0:0:
283,309,53110,2,0,L|377:299,1,75,8|0,0:0|0:0,0:0:0:0:
361,216,53467,6,0,L|249:228,1,112.500004291535,6|8,0:0|0:0,0:0:0:0:
165,208,54003,2,0,P|139:160|143:105,1,112.500004291535,2|0,0:0|0:0,0:0:0:0:
205,49,54538,2,0,P|232:45|260:49,1,56.2500021457673,8|2,0:0|0:0,0:0:0:0:
339,199,55074,5,0,0:0:0:0:
339,199,55253,1,2,0:0:0:0:
414,161,55431,2,0,L|421:105,1,56.2500021457673,0|8,0:0|0:0,0:0:0:0:
373,35,55788,1,0,0:0:0:0:
316,96,55967,1,0,0:0:0:0:
150,61,56324,6,0,L|40:34,1,112.500004291535,2|8,0:0|0:0,0:0:0:0:
27,118,56860,2,0,L|45:246,1,112.500004291535,2|0,0:0|0:0,0:0:0:0:
23,311,57396,2,0,P|50:317|78:321,1,56.2500021457673,8|0,0:0|0:0,0:0:0:0:
204,210,57931,5,0,0:0:0:0:
204,210,58110,2,0,L|210:275,1,56.2500021457673,2|0,0:0|0:0,0:0:0:0:
281,309,58467,1,10,0:0:0:0:
342,151,58824,2,0,L|336:94,1,56.2500021457673,2|0,0:0|0:0,0:0:0:0:
272,44,59181,6,0,L|209:69,1,67.4999979400635,2|2,0:0|0:0,0:0:0:0:
136,104,59538,2,0,P|71:107|14:59,1,134.999995880127,8|2,0:0|0:0,0:0:0:0:
31,144,60074,2,0,P|35:178|36:212,1,67.4999979400635,2|8,0:0|0:0,0:0:0:0:
84,288,60431,1,0,0:0:0:0:
84,288,60521,1,8,0:0:0:0:
83,288,60610,6,0,P|117:281|150:276,1,67.4999979400635,2|2,0:0|0:0,0:0:0:0:
229,284,60967,2,0,B|291:301|303:263|364:284,1,134.999995880127,8|2,0:0|0:0,0:0:0:0:
430,239,61503,2,0,P|445:191|442:162,1,67.4999979400635,2|8,0:0|0:0,0:0:0:0:
331,129,61860,1,0,0:0:0:0:
331,129,61949,1,8,0:0:0:0:
331,128,62038,6,0,P|318:159|316:192,1,67.4999979400635,8|2,0:0|0:0,0:0:0:0:
264,255,62396,1,2,0:0:0:0:
184,239,62574,2,0,P|155:220|137:192,2,67.4999979400635,8|2|2,0:0|0:0|0:0,0:0:0:0:
179,320,63110,2,0,P|153:340|121:349,1,67.4999979400635,8|8,0:0|0:0,0:0:0:0:
48,318,63467,5,8,0:0:0:0:
11,246,63646,2,0,P|6:191|29:141,1,112.500004291535,2|0,0:0|0:0,0:0:0:0:
106,125,64181,2,0,L|184:124,1,56.2500021457673,8|0,0:0|0:0,0:0:0:0:
231,162,64538,1,8,0:0:0:0:
125,236,64717,1,0,0:0:0:0:
184,287,64896,6,0,L|173:369,1,56.2500021457673,8|0,0:0|0:0,0:0:0:0:
259,245,65253,2,0,L|337:244,1,56.2500021457673,8|0,0:0|0:0,0:0:0:0:
389,285,65610,1,8,0:0:0:0:
445,197,65788,2,0,L|441:133,2,56.2500021457673,0|8|0,0:0|0:0|0:0,0:0:0:0:
445,197,66324,6,0,P|411:182|369:183,1,75,6|0,0:0|0:0,0:0:0:0:
299,216,66681,2,0,P|236:255|165:238,1,150,8|8,0:0|0:0,0:0:0:0:
116,172,67217,2,0,L|115:95,1,75,0|8,0:0|0:0,0:0:0:0:
34,81,67574,6,0,P|34:155|34:230,1,150,4|0,0:0|0:0,0:0:0:0:
81,298,68110,1,8,0:0:0:0:
144,246,68288,1,0,0:0:0:0:
144,246,68378,1,0,0:0:0:0:
143,246,68467,2,0,P|179:233|217:234,1,75,8|0,0:0|0:0,0:0:0:0:
299,234,68824,2,0,P|336:233|371:246,1,75,8|0,0:0|0:0,0:0:0:0:
429,304,69181,5,6,0:0:0:0:
485,243,69360,2,0,L|500:169,1,75,0|8,0:0|0:0,0:0:0:0:
415,120,69717,2,0,L|417:157,2,37.5,0|8|8,0:0|0:0|0:0,0:0:0:0:
342,81,70074,2,0,P|304:76|267:70,1,75,0|8,0:0|0:0,0:0:0:0:
186,84,70431,6,0,P|144:131|155:215,1,150,4|0,0:0|0:0,0:0:0:0:
213,269,70967,2,0,P|233:238|240:200,1,75,8|0,0:0|0:0,0:0:0:0:
311,161,71324,2,0,L|390:152,1,75,8|0,0:0|0:0,0:0:0:0:
439,215,71681,1,8,0:0:0:0:
421,295,71860,1,0,0:0:0:0:
421,295,71949,1,8,0:0:0:0:
421,295,72038,6,0,P|366:340|283:320,1,150,6|8,0:0|0:0,0:0:0:0:
219,288,72574,2,0,P|154:251|80:249,1,150,0|0,0:0|0:0,0:0:0:0:
27,185,73110,1,8,0:0:0:0:
101,150,73288,6,0,P|109:114|115:77,1,75,4|0,0:0|0:0,0:0:0:0:
232,52,73646,2,0,P|223:88|217:125,1,75,0|8,0:0|0:0,0:0:0:0:
279,179,74003,2,0,B|342:159|366:190|428:165,1,150,0|0,0:0|0:0,0:0:0:0:
490,217,74538,1,8,0:0:0:0:
499,299,74717,1,0,0:0:0:0:
438,355,74896,6,0,L|356:348,1,75,8|0,0:0|0:0,0:0:0:0:
250,282,75253,2,0,L|168:275,1,75,8|8,0:0|0:0,0:0:0:0:
323,235,75610,1,8,0:0:0:0:
279,165,75788,1,0,0:0:0:0:
318,92,75967,1,8,0:0:0:0:
247,45,76146,6,0,P|320:55|382:16,1,150,8|8,0:0|0:0,0:0:0:0:
448,65,76681,1,8,0:0:0:0:
387,147,76860,2,0,L|363:299,1,150,8|0,0:0|0:0,0:0:0:0:
285,329,77396,2,0,P|280:292|274:255,1,75,8|0,0:0|0:0,0:0:0:0:
274,255,77753,6,0,L|182:250,1,75,6|0,0:0|0:0,0:0:0:0:
137,166,78110,2,0,B|212:137|222:183|284:158,1,150,8|8,0:0|0:0,0:0:0:0:
365,172,78646,2,0,P|382:138|383:101,1,75,0|8,0:0|0:0,0:0:0:0:
330,36,79003,6,0,P|260:17|201:60,1,150,4|0,0:0|0:0,0:0:0:0:
157,129,79538,1,8,0:0:0:0:
208,208,79717,1,0,0:0:0:0:
208,208,79806,1,0,0:0:0:0:
208,208,79896,2,0,L|210:289,1,75,8|0,0:0|0:0,0:0:0:0:
307,298,80253,2,0,L|308:223,1,75,8|0,0:0|0:0,0:0:0:0:
345,148,80610,5,6,0:0:0:0:
422,175,80788,2,0,P|459:175|497:164,1,75,0|8,0:0|0:0,0:0:0:0:
489,81,81146,2,0,L|502:29,2,37.5,0|8|8,0:0|0:0|0:0,0:0:0:0:
412,48,81503,2,0,L|328:42,1,75,0|8,0:0|0:0,0:0:0:0:
260,74,81860,6,0,L|89:85,1,150,4|0,0:0|0:0,0:0:0:0:
37,44,82396,2,0,P|31:81|29:118,1,75,8|0,0:0|0:0,0:0:0:0:
29,118,82663,1,8,0:0:0:0:
29,118,82753,1,8,0:0:0:0:
108,168,82931,1,0,0:0:0:0:
63,241,83110,2,0,P|31:258|-3:273,1,75,8|8,0:0|0:0,0:0:0:0:
156,244,83467,6,0,P|231:239|292:297,1,150,6|8,0:0|0:0,0:0:0:0:
360,244,84003,2,0,P|401:198|386:96,1,150
341,54,84538,1,8,0:0:0:0:
260,71,84717,6,0,L|172:67,1,75,4|0,0:0|0:0,0:0:0:0:
143,181,85074,1,0,0:0:0:0:
143,181,85253,1,8,0:0:0:0:
143,181,85431,2,0,L|217:184,1,75,0|8,0:0|0:0,0:0:0:0:
298,165,85788,1,0,0:0:0:0:
341,235,85967,2,0,L|345:324,1,75,8|0,0:0|0:0,0:0:0:0:
384,163,86324,6,0,L|380:88,1,75,8|0,0:0|0:0,0:0:0:0:
224,36,86681,2,0,L|227:110,1,75,8|8,0:0|0:0,0:0:0:0:
221,193,87038,1,8,0:0:0:0:
184,266,87217,1,0,0:0:0:0:
266,266,87396,1,8,0:0:0:0:
133,193,87574,6,0,L|96:186,2,37.5,8|8|8,0:0|0:0|0:0,0:0:0:0:
211,166,87931,2,0,P|248:167|284:159,1,75,0|8,0:0|0:0,0:0:0:0:
365,139,88288,2,0,P|406:162|432:265,1,150,8|0,0:0|0:0,0:0:0:0:
457,335,88824,2,0,P|419:337|383:327,1,75,8|8,0:0|0:0,0:0:0:0:
303,296,89181,6,0,P|252:275|196:279,1,112.500004291535,6|8,0:0|0:0,0:0:0:0:
112,271,89717,2,0,P|56:267|4:288,1,112.500004291535,2|8,0:0|0:0,0:0:0:0:
25,186,90253,1,2,0:0:0:0:
106,179,90431,6,0,B|136:104|83:81|110:13,1,168.750006437302,4|0,0:0|0:0,0:0:0:0:
187,49,91146,1,0,0:0:0:0:
266,75,91324,2,0,P|342:65|389:45,1,112.500004291535,0|0,0:0|0:0,0:0:0:0:
452,85,91860,1,0,0:0:0:0:
404,152,92038,6,0,L|395:238,1,75,6|0,0:0|0:0,0:0:0:0:
432,301,92396,2,0,P|370:259|297:265,1,150,8|2,0:0|0:0,0:0:0:0:
230,313,92931,2,0,P|215:278|214:241,1,75,0|8,0:0|0:0,0:0:0:0:
246,165,93288,6,0,P|281:100|270:27,1,150,4|0,0:0|0:0,0:0:0:0:
188,21,93824,1,8,0:0:0:0:
115,60,94003,2,0,L|106:156,1,75,0|2,0:0|0:0,0:0:0:0:
139,211,94360,1,0,0:0:0:0:
215,181,94538,2,0,L|294:172,1,75,12|0,0:0|0:0,0:0:0:0:
370,153,94896,6,0,P|362:189|357:226,1,75,6|0,0:0|0:0,0:0:0:0:
437,301,95253,2,0,L|452:151,1,150,8|2,0:0|0:0,0:0:0:0:
427,73,95788,2,0,L|505:64,1,75,0|8,0:0|0:0,0:0:0:0:
353,140,96146,6,0,P|313:110|192:120,1,150,4|0,0:0|0:0,0:0:0:0:
158,165,96681,2,0,P|142:198|140:235,1,75,8|0,0:0|0:0,0:0:0:0:
250,320,97038,2,0,P|265:286|267:249,1,75,2|0,0:0|0:0,0:0:0:0:
298,172,97396,2,0,L|382:162,1,75,12|0,0:0|0:0,0:0:0:0:
368,80,97753,6,0,L|293:88,1,75,6|0,0:0|0:0,0:0:0:0:
211,98,98110,2,0,B|150:80|131:118|48:87,1,150,8|2,0:0|0:0,0:0:0:0:
10,156,98646,2,0,P|17:192|23:229,1,75,0|8,0:0|0:0,0:0:0:0:
75,294,99003,6,0,P|114:255|211:263,1,150,4|0,0:0|0:0,0:0:0:0:
267,310,99538,1,8,0:0:0:0:
337,266,99717,2,0,P|387:283|474:239,1,150,0|0,0:0|0:0,0:0:0:0:
464,161,100253,2,0,L|484:86,1,75,12|0,0:0|0:0,0:0:0:0:
427,27,100610,6,0,P|390:36|354:44,1,75,6|0,0:0|0:0,0:0:0:0:
291,97,100967,2,0,L|175:84,1,112.5,0|8,0:0|0:0,0:0:0:0:
163,69,101324,2,0,L|173:154,1,75,8|0,0:0|0:0,0:0:0:0:
137,218,101681,1,8,0:0:0:0:
178,289,101860,6,0,P|114:241|22:256,1,150,4|0,0:0|0:0,0:0:0:0:
95,323,102396,1,8,0:0:0:0:
248,230,102574,2,0,L|403:217,1,150,4|0,0:0|0:0,0:0:0:0:
463,266,103110,1,8,0:0:0:0:
476,184,103288,1,0,0:0:0:0:
318,268,103646,6,0,L|308:336,2,56.2500021457673,2|2|2,0:0|0:0|0:0,0:0:0:0:
250,205,104181,2,0,L|241:149,2,56.2500021457673,2|2|2,0:0|0:0|0:0,0:0:0:0:
187,270,104717,6,0,L|24:260,1,150,0|0,1:0|1:0,0:0:0:0:
86,182,105253,1,0,1:0:0:0:
140,347,105431,1,4,1:2:0:0:
256,192,105521,12,0,107038,0:0:0:0:
