osu file format v14

[General]
AudioFilename: jump.mp3
AudioLeadIn: 0
PreviewTime: 65699
Countdown: 0
SampleSet: Soft
StackLeniency: 0.7
Mode: 0
LetterboxInBreaks: 0
WidescreenStoryboard: 1

[Editor]
DistanceSpacing: 2.5
BeatDivisor: 4
GridSize: 4
TimelineZoom: 1.5

[Metadata]
Title:Koujou Joujou High Jump (Short Ver.)
TitleUnicode:向上上々ハイジャンプ↑↑↑↑ (Short Ver.)
Artist:fourfolium
ArtistUnicode:fourfolium
Creator:Doormat
Version:Kibb's Extra
Source:NEW GAME! -THE CHALLENGE STAGE!-
Tags:Kibbleru [C_u_r_i] Curi フォーフォリウム ニューゲーム ザ チャレンジステージ ending ed game size takada yuuki 高田憂希 suzukaze aoba 涼風青葉 yamaguchi megumi 山口愛 takimoto hifumi 滝本ひふみ toda megumi 戸田めぐみ shinoda hazime 篠田はじめ ayumi takeo 竹尾歩美 iizima yun 飯島ゆん
BeatmapID:1217670
BeatmapSetID:569697

[Difficulty]
HPDrainRate:6
CircleSize:4
OverallDifficulty:8
ApproachRate:9
SliderMultiplier:1.72
SliderTickRate:1

[Events]
//Background and Video events
0,0,"newgame_background.jpg",0,0
//Break Periods
//Storyboard Layer 0 (Background)
//Storyboard Layer 1 (Fail)
//Storyboard Layer 2 (Pass)
//Storyboard Layer 3 (Foreground)
//Storyboard Sound Samples

[TimingPoints]
2039,357.142857142857,4,2,1,60,1,0
2039,-133.333333333333,4,2,1,60,0,0
4539,-83.3333333333333,4,2,1,60,0,0
4896,-133.333333333333,4,2,1,60,0,0
5967,-83.3333333333333,4,2,1,60,0,0
7753,-100,4,2,1,70,0,1
12931,-83.3333333333333,4,2,1,70,0,1
13467,-100,4,2,1,70,0,1
17396,-83.3333333333333,4,2,1,70,0,1
17574,-100,4,2,1,70,0,1
17931,-83.3333333333333,4,2,1,70,0,1
19181,-111.111111111111,4,2,1,60,0,0
30610,-111.111111111111,4,2,1,40,0,0
41324,-83.3333333333333,4,2,1,40,0,0
42038,-100,4,2,1,50,0,0
53467,-133.333333333333,4,2,1,40,0,0
59181,-111.111111111111,4,2,1,60,0,0
60610,-111.111111111111,4,2,1,60,0,0
62038,-111.111111111111,4,2,1,60,0,0
63467,-133.333333333333,4,2,1,60,0,0
66146,-83.3333333333333,4,2,1,60,0,0
66324,-100,4,2,1,60,0,1
66681,-83.3333333333333,4,2,1,60,0,1
67038,-100,4,2,1,60,0,1
68824,-83.3333333333333,4,2,1,60,0,1
69181,-100,4,2,1,60,0,1
70967,-83.3333333333333,4,2,1,60,0,1
71324,-100,4,2,1,60,0,1
76146,-83.3333333333333,4,2,1,60,0,1
77663,-100,4,2,1,60,0,0
77753,-100,4,2,1,60,0,1
78110,-83.3333333333333,4,2,1,60,0,1
78824,-100,4,2,1,60,0,1
80253,-83.3333333333333,4,2,1,60,0,1
80610,-100,4,2,1,60,0,1
82396,-83.3333333333333,4,2,1,60,0,1
82753,-100,4,2,1,60,0,1
87038,-83.3333333333333,4,2,1,60,0,1
89181,-133.333333333333,4,2,1,60,0,0
92038,-111.111111111111,4,2,1,60,0,0
102931,-83.3333333333333,4,2,1,60,0,0
103646,-133.333333333333,4,2,2,30,0,0
104717,-83.3333333333333,4,2,1,60,0,0
105431,-1000,4,2,1,60,0,0
107038,-1000,4,2,1,10,0,0

[Colours]
Combo1 : 236,164,22
Combo2 : 84,171,80
Combo3 : 238,43,22
Combo4 : 62,172,199
Combo5 : 229,147,122

[HitObjects]
256,192,610,12,0,1860,0:0:0:0:
115,101,2039,5,2,0:0:0:0:
133,265,2217,2,0,L|127:201,1,64.5000024604798,0|0,0:0|0:0,0:0:0:0:
303,115,2574,2,0,L|291:230,1,96.7500036907198,2|0,0:0|0:0,0:0:0:0:
292,211,2931,2,0,L|358:202,1,64.5000024604798,4|2,0:3|0:3,0:0:0:0:
236,286,3288,1,0,0:0:0:0:
65,31,3467,5,2,0:0:0:0:
230,53,3646,2,0,L|151:43,1,64.5000024604798,0|0,0:0|0:0,0:0:0:0:
43,197,4003,2,0,P|100:169|166:180,1,129.00000492096,2|4,0:0|0:3,0:0:0:0:
162,178,4539,6,0,L|165:244,1,51.599998425293,8|0,0:0|0:0,0:0:0:0:
276,345,4717,2,0,L|274:294,1,51.599998425293,0|0,0:0|0:0,0:0:0:0:
276,196,4896,5,2,0:0:0:0:
170,320,5074,1,0,0:0:0:0:
277,170,5253,1,0,0:0:0:0:
385,303,5431,2,0,P|413:312|449:312,1,64.5000024604798,2|8,0:0|0:0,0:0:0:0:
181,219,5788,1,0,0:0:0:0:
428,211,5967,6,0,L|377:205,1,51.599998425293,8|0,0:0|0:0,0:0:0:0:
232,225,6146,2,0,L|181:219,1,51.599998425293,0|0,0:0|0:0,0:0:0:0:
104,143,6324,5,8,0:0:0:0:
212,330,6503,1,0,0:0:0:0:
303,128,6681,1,8,0:0:0:0:
214,345,6859,1,0,0:0:0:0:
216,360,6948,1,0,0:0:0:0:
218,375,7038,1,8,0:0:0:0:
286,238,7217,5,0,0:0:0:0:
194,229,7396,1,8,0:0:0:0:
102,220,7574,1,0,0:0:0:0:
234,327,7753,5,6,0:0:0:0:
154,137,7931,1,0,0:0:0:0:
236,72,8110,2,0,L|336:66,1,86,8|0,0:0|0:0,0:0:0:0:
322,67,8378,1,8,0:0:0:0:
322,67,8467,2,0,P|310:106|310:150,1,86,8|0,0:0|0:0,0:0:0:0:
429,128,8824,1,8,0:0:0:0:
392,336,9003,5,4,0:0:0:0:
388,315,9092,1,0,0:0:0:0:
385,293,9181,1,2,0:0:0:0:
182,213,9360,1,0,0:0:0:0:
290,176,9538,2,0,L|285:218,1,43,8|0,0:0|0:0,0:0:0:0:
224,315,9717,2,0,L|228:357,1,43,0|8,0:0|0:0,0:0:0:0:
182,213,9896,1,8,0:0:0:0:
329,316,10074,1,0,0:0:0:0:
182,213,10253,2,0,L|42:206,1,129,8|0,0:0|0:0,0:0:0:0:
29,206,10610,5,6,0:0:0:0:
152,107,10788,1,0,0:0:0:0:
131,335,10967,2,0,L|233:327,1,86,8|0,0:0|0:0,0:0:0:0:
308,318,11235,1,8,0:0:0:0:
329,316,11324,1,8,0:0:0:0:
237,138,11503,1,0,0:0:0:0:
323,64,11681,1,8,0:0:0:0:
241,235,11860,5,4,0:0:0:0:
219,235,11949,1,0,0:0:0:0:
198,229,12038,1,0,0:0:0:0:
345,180,12217,1,0,0:0:0:0:
225,2,12396,2,0,L|229:55,1,43,8|0,0:0|0:0,0:0:0:0:
341,137,12574,2,0,L|345:190,1,43,0|8,0:0|0:0,0:0:0:0:
237,330,12753,1,8,0:0:0:0:
408,301,12931,5,0,0:0:0:0:
408,301,13021,1,0,0:0:0:0:
408,301,13110,2,0,L|340:292,1,51.599998425293,8|8,0:0|0:0,0:0:0:0:
221,208,13288,2,0,L|153:217,1,51.599998425293,8|8,0:0|0:0,0:0:0:0:
83,317,13467,5,6,0:0:0:0:
94,143,13646,1,0,0:0:0:0:
73,292,13824,2,0,B|77:243|77:243|91:217|91:217|95:167,1,129,8|8,0:0|0:0,0:0:0:0:
94,143,14181,2,0,L|6:134,1,86,8|0,0:0|0:0,0:0:0:0:
182,80,14538,1,8,0:0:0:0:
184,281,14717,6,0,L|272:272,1,86,4|0,0:0|0:0,0:0:0:0:
349,203,15074,1,0,0:0:0:0:
266,29,15253,2,0,L|270:71,1,43,8|0,0:0|0:0,0:0:0:0:
349,203,15431,2,0,L|344:160,1,43,0|8,0:0|0:0,0:0:0:0:
372,63,15610,1,8,0:0:0:0:
246,170,15788,1,0,0:0:0:0:
372,63,15967,2,0,P|435:58|488:92,1,129,8|0,0:0|0:0,0:0:0:0:
496,118,16324,5,8,0:0:0:0:
246,170,16503,1,0,0:0:0:0:
377,338,16681,2,0,L|366:241,1,86,8|8,0:0|0:0,0:0:0:0:
354,170,16949,1,8,0:0:0:0:
351,148,17038,1,8,0:0:0:0:
247,265,17217,1,0,0:0:0:0:
512,215,17396,2,0,L|461:208,1,51.599998425293,8|0,0:0|0:0,0:0:0:0:
242,109,17574,6,0,L|245:151,3,43,8|8|8|0,0:0|0:0|0:0|0:0,0:0:0:0:
221,88,17931,6,0,L|160:80,1,51.599998425293,0|0,0:0|0:0,0:0:0:0:
331,231,18110,2,0,L|392:223,1,51.599998425293,8|0,0:0|0:0,0:0:0:0:
125,317,18288,2,0,L|64:309,1,51.599998425293,8|8,0:0|0:0,0:0:0:0:
227,375,18467,5,8,0:0:0:0:
144,209,18646,1,0,0:0:0:0:
331,231,18824,1,8,0:0:0:0:
144,209,19003,1,8,0:0:0:0:
129,212,19092,1,8,0:0:0:0:
116,214,19181,1,6,0:0:0:0:
212,68,19360,5,0,0:0:0:0:
131,99,19538,2,0,L|292:113,1,154.799995275879,8|2,0:0|0:0,0:0:0:0:
411,144,20074,2,0,P|420:107|417:69,1,77.3999976379395,0|8,0:0|0:0,0:0:0:0:
330,215,20431,1,4,0:0:0:0:
330,215,20521,1,0,0:0:0:0:
330,215,20610,6,0,P|320:251|323:293,1,77.3999976379395,2|0,0:0|0:0,0:0:0:0:
423,328,20967,1,8,0:0:0:0:
232,343,21146,2,0,L|168:338,1,38.6999988189698,0|0,0:0|0:0,0:0:0:0:
105,369,21324,1,2,0:0:0:0:
84,195,21503,1,0,0:0:0:0:
97,292,21681,2,0,L|106:387,1,77.3999976379395,12|0,0:0|0:0,0:0:0:0:
233,248,22038,6,0,L|247:120,1,116.099996456909,6|0,0:0|0:0,0:0:0:0:
245,132,22396,2,0,P|283:142|321:136,1,77.3999976379395,8|0,0:0|0:0,0:0:0:0:
127,42,22753,2,0,L|88:38,2,38.6999988189698,2|0|0,0:0|0:0|0:0,0:0:0:0:
235,24,23110,1,8,0:0:0:0:
137,147,23288,1,4,0:0:0:0:
137,147,23378,1,0,0:0:0:0:
137,147,23467,6,0,L|34:153,1,77.3999976379395,0|0,0:0|0:0,0:0:0:0:
234,239,23824,2,0,P|283:265|343:257,1,116.099996456909,8|0,0:0|0:0,0:0:0:0:
420,163,24181,1,2,0:0:0:0:
418,182,24271,1,0,0:0:0:0:
416,200,24360,1,0,0:0:0:0:
261,12,24538,2,0,L|265:77,1,38.6999988189698,12|0,0:0|0:0,0:0:0:0:
222,139,24717,1,0,0:0:0:0:
299,143,24896,6,0,L|203:137,1,77.3999976379395,6|0,0:0|0:0,0:0:0:0:
44,260,25253,2,0,P|114:233|187:259,1,154.799995275879,8|2,0:0|0:0,0:0:0:0:
331,300,25788,2,0,P|335:337|323:374,1,77.3999976379395,0|8,0:0|0:0,0:0:0:0:
283,207,26146,1,4,0:0:0:0:
283,207,26235,1,0,0:0:0:0:
283,207,26324,6,0,L|389:200,1,77.3999976379395,2|0,0:0|0:0,0:0:0:0:
174,69,26681,1,8,0:0:0:0:
328,87,26860,2,0,L|274:82,1,38.6999988189698,0|0,0:0|0:0,0:0:0:0:
174,69,27038,1,2,0:0:0:0:
185,242,27217,1,0,0:0:0:0:
174,69,27396,2,0,L|179:164,1,77.3999976379395,12|0,0:0|0:0,0:0:0:0:
191,339,27753,5,6,0:0:0:0:
191,339,27931,1,0,0:0:0:0:
277,179,28110,1,8,0:0:0:0:
86,197,28288,1,0,0:0:0:0:
86,197,28378,1,8,0:0:0:0:
86,197,28467,1,8,0:0:0:0:
185,242,28646,1,0,0:0:0:0:
170,15,28824,1,8,0:0:0:0:
89,74,29003,6,0,P|148:117|228:99,1,154.799995275879,4|0,0:0|0:0,0:0:0:0:
336,50,29538,2,0,L|384:46,1,38.6999988189698,8|0,0:0|0:0,0:0:0:0:
470,41,29717,2,0,L|459:143,1,77.3999976379395,4|0,0:0|0:0,0:0:0:0:
472,17,30074,1,0,0:0:0:0:
368,270,30253,2,0,L|363:231,1,38.6999988189698,8|0,0:0|0:0,0:0:0:0:
360,206,30431,1,0,0:0:0:0:
442,351,30610,6,0,P|378:313|299:326,1,154.799995275879,6|2,0:0|0:0,0:0:0:0:
198,327,31146,2,0,P|185:291|186:253,1,77.3999976379395,0|2,0:0|0:0,0:0:0:0:
268,191,31503,2,0,L|345:197,1,77.3999976379395,0|2,0:0|0:0,0:0:0:0:
164,151,31860,6,0,B|106:157|106:157|77:181|77:181|16:186,1,154.799995275879,0|0,0:0|0:0,0:0:0:0:
36,86,32396,1,2,0:0:0:0:
150,255,32574,2,0,L|142:332,1,77.3999976379395,0|2,0:0|0:0,0:0:0:0:
267,166,32931,1,0,0:0:0:0:
276,264,33110,2,0,L|269:187,1,77.3999976379395,2|0,0:0|0:0,0:0:0:0:
173,75,33467,6,0,P|247:85|311:37,1,154.799995275879,2|2,0:0|0:0,0:0:0:0:
405,87,34003,2,0,P|422:120|422:160,1,77.3999976379395,0|2,0:0|0:0,0:0:0:0:
386,251,34360,2,0,L|377:342,1,77.3999976379395,0|2,0:0|0:0,0:0:0:0:
326,172,34717,6,0,P|260:135|182:152,1,154.799995275879,0|0,0:0|0:0,0:0:0:0:
95,249,35253,1,2,0:0:0:0:
87,150,35431,2,0,L|92:229,1,77.3999976379395,0|2,0:0|0:0,0:0:0:0:
244,245,35788,1,0,0:0:0:0:
236,344,35967,2,0,L|241:267,1,77.3999976379395,2|0,0:0|0:0,0:0:0:0:
200,149,36324,6,0,L|311:141,1,77.3999976379395,2|0,0:0|0:0,0:0:0:0:
393,112,36681,2,0,P|429:154|418:251,1,154.799995275879,2|2,0:0|0:0,0:0:0:0:
319,298,37217,2,0,P|281:295|246:279,1,77.3999976379395,0|2,0:0|0:0,0:0:0:0:
114,214,37574,6,0,B|169:209|169:209|200:181|200:181|258:177,1,154.799995275879,0|0,0:0|0:0,0:0:0:0:
245,278,38110,1,2,0:0:0:0:
124,111,38288,2,0,P|122:73|117:31,1,77.3999976379395,0|2,0:0|0:0,0:0:0:0:
358,151,38646,1,0,0:0:0:0:
358,151,38824,2,0,P|354:189|351:232,1,77.3999976379395,2|0,0:0|0:0,0:0:0:0:
268,72,39181,6,0,P|328:27|408:43,1,154.799995275879,6|0,0:0|0:0,0:0:0:0:
415,52,39717,2,0,L|426:170,1,116.099996456909
425,167,40074,2,0,L|335:161,1,77.3999976379395,0|0,0:0|0:0,0:0:0:0:
439,278,40431,6,0,B|376:254|359:294|287:269,1,154.799995275879,4|0,0:0|0:0,0:0:0:0:
274,256,40967,2,0,L|281:335,1,77.3999976379395,8|0,0:0|0:0,0:0:0:0:
173,361,41235,1,8,0:0:0:0:
173,361,41324,6,0,L|169:305,1,51.599998425293,8|0,0:0|0:0,0:0:0:0:
109,197,41503,2,0,L|51:191,1,51.599998425293,0|0,0:0|0:0,0:0:0:0:
227,132,41681,2,0,B|301:115|301:166|377:150,1,154.799995275879,8|0,0:0|0:0,0:0:0:0:
436,44,42038,6,0,L|350:48,1,86,6|0,0:0|0:0,0:0:0:0:
121,235,42396,2,0,L|265:228,1,129,8|8,0:0|0:0,0:0:0:0:
250,229,42753,2,0,L|243:296,1,43,8|0,0:0|0:0,0:0:0:0:
232,367,42931,1,0,0:0:0:0:
317,127,43110,1,8,0:0:0:0:
210,133,43288,6,0,L|306:128,1,86,0|2,0:0|0:0,0:0:0:0:
358,228,43646,1,0,0:0:0:0:
248,35,43824,1,8,0:0:0:0:
138,220,44003,1,0,0:0:0:0:
138,220,44092,1,8,0:0:0:0:
138,220,44181,1,8,0:0:0:0:
249,10,44360,1,0,0:0:0:0:
274,153,44538,2,0,L|231:147,1,43,8|0,0:0|0:0,0:0:0:0:
137,104,44717,2,0,L|94:109,1,43,0|0,0:0|0:0,0:0:0:0:
0,153,44896,5,2,0:0:0:0:
101,9,45074,1,0,0:0:0:0:
182,219,45253,2,0,P|190:260|185:305,1,86,8|0,0:0|0:0,0:0:0:0:
186,304,45521,1,8,0:0:0:0:
186,304,45610,2,0,L|240:297,1,43,8|0,0:0|0:0,0:0:0:0:
323,285,45788,1,0,0:0:0:0:
92,261,45967,2,0,L|7:251,1,86,8|0,0:0|0:0,0:0:0:0:
115,145,46324,6,0,P|170:115|232:127,1,129,2|0,0:0|0:0,0:0:0:0:
232,127,46681,1,8,0:0:0:0:
398,65,46860,2,0,L|394:107,1,43,0|8,0:0|0:0,0:0:0:0:
318,195,47038,2,0,L|321:237,1,43,8|0,0:0|0:0,0:0:0:0:
385,342,47217,1,0,0:0:0:0:
299,347,47396,2,0,L|387:341,1,86,8|0,0:0|0:0,0:0:0:0:
220,265,47753,6,0,P|180:250|138:254,1,86,2|0,0:0|0:0,0:0:0:0:
321,237,48110,2,0,P|353:183|346:120,1,129,8|8,0:0|0:0,0:0:0:0:
314,38,48467,2,0,L|252:33,1,43,8|0,0:0|0:0,0:0:0:0:
179,23,48646,1,0,0:0:0:0:
413,50,48824,1,8,0:0:0:0:
160,167,49003,6,0,L|249:160,1,86,0|2,0:0|0:0,0:0:0:0:
332,230,49360,1,0,0:0:0:0:
413,50,49538,1,8,0:0:0:0:
491,238,49717,1,0,0:0:0:0:
493,254,49806,1,8,0:0:0:0:
495,270,49896,1,8,0:0:0:0:
332,119,50074,1,0,0:0:0:0:
482,148,50253,2,0,L|439:151,1,43,8|0,0:0|0:0,0:0:0:0:
332,119,50431,2,0,L|289:115,1,43,0|0,0:0|0:0,0:0:0:0:
178,63,50610,6,0,L|190:203,1,129,2|0,0:0|0:0,0:0:0:0:
191,213,50967,1,8,0:0:0:0:
323,351,51146,2,0,L|329:297,1,43,0|8,0:0|0:0,0:0:0:0:
348,213,51324,1,8,0:0:0:0:
105,199,51503,1,0,0:0:0:0:
218,341,51681,1,8,0:0:0:0:
348,213,51860,6,0,B|285:217|285:217|249:247|249:247|185:251,1,172,4|0,0:0|0:0,0:0:0:0:
327,308,52396,1,8,0:0:0:0:
189,23,52574,2,0,L|195:87,1,43,0|8,0:0|0:0,0:0:0:0:
206,154,52753,1,8,0:0:0:0:
387,18,52931,1,0,0:0:0:0:
362,219,53110,2,0,L|372:128,1,86,8|0,0:0|0:0,0:0:0:0:
371,134,53378,1,0,0:0:0:0:
371,134,53467,6,0,L|241:148,1,129.00000492096,6|8,0:0|0:0,0:0:0:0:
118,74,54003,2,0,P|168:35|231:35,1,129.00000492096,2|0,0:0|0:0,0:0:0:0:
242,147,54538,2,0,L|232:225,1,64.5000024604798,8|2,0:0|0:0,0:0:0:0:
231,229,55074,5,0,0:0:0:0:
402,313,55253,2,0,L|410:249,1,64.5000024604798,2|0,0:0|0:0,0:0:0:0:
382,145,55610,2,0,B|423:95|423:95|457:150,1,129.00000492096,8|2,0:0|0:0,0:0:0:0:
457,150,56324,6,0,L|329:142,1,129.00000492096,2|8,0:0|0:0,0:0:0:0:
220,83,56860,2,0,L|236:211,1,129.00000492096,2|0,0:0|0:0,0:0:0:0:
349,310,57396,2,0,P|343:278|338:247,1,64.5000024604798,8|0,0:0|0:0,0:0:0:0:
334,230,57931,5,0,0:0:0:0:
129,147,58110,2,0,P|134:178|140:211,1,64.5000024604798,2|0,0:0|0:0,0:0:0:0:
90,291,58467,1,8,0:0:0:0:
254,174,58824,1,2,0:0:0:0:
73,71,59181,5,2,0:0:0:0:
276,170,59360,1,2,0:0:0:0:
90,291,59538,2,0,L|101:206,1,77.3999976379395,8|0,0:0|0:0,0:0:0:0:
69,51,59896,5,2,0:0:0:0:
298,166,60074,1,2,0:0:0:0:
111,232,60253,2,0,L|100:311,1,77.3999976379395,8|0,0:0|0:0,0:0:0:0:
65,31,60610,5,2,0:0:0:0:
320,162,60788,1,2,0:0:0:0:
112,323,60967,2,0,L|122:245,1,77.3999976379395,8|0,0:0|0:0,0:0:0:0:
41,155,61324,5,2,0:0:0:0:
203,77,61503,1,2,0:0:0:0:
92,63,61681,1,8,0:0:0:0:
225,181,61860,1,0,0:0:0:0:
115,234,62038,5,8,0:0:0:0:
450,43,62217,1,2,0:0:0:0:
450,43,62396,1,2,0:0:0:0:
174,50,62574,5,8,0:0:0:0:
493,269,62753,1,2,0:0:0:0:
493,269,62931,1,2,0:0:0:0:
263,350,63110,5,8,0:0:0:0:
268,312,63199,1,8,0:0:0:0:
274,274,63288,1,8,0:0:0:0:
280,236,63378,1,8,0:0:0:0:
286,198,63467,5,8,0:0:0:0:
92,121,63646,2,0,P|102:151|104:185,1,64.5000024604798,2|0,0:0|0:0,0:0:0:0:
114,290,64003,5,0,0:0:0:0:
279,220,64181,1,8,0:0:0:0:
104,183,64360,1,0,0:0:0:0:
224,314,64538,1,8,0:0:0:0:
204,137,64717,1,0,0:0:0:0:
27,328,64896,5,8,0:0:0:0:
426,165,65074,1,0,0:0:0:0:
109,66,65253,1,8,0:0:0:0:
440,272,65431,1,0,0:0:0:0:
440,272,65521,1,0,0:0:0:0:
440,272,65610,1,8,0:0:0:0:
39,188,65788,6,0,L|106:182,1,64.5000024604798,0|8,0:0|0:0,0:0:0:0:
314,228,66146,2,0,L|320:177,1,51.599998425293,0|0,0:0|0:0,0:0:0:0:
217,133,66324,6,0,L|203:248,1,86,6|0,0:0|0:0,0:0:0:0:
100,332,66681,2,0,B|160:323|160:323|195:341|195:341|252:334,1,154.799995275879,8|8,0:0|0:0,0:0:0:0:
274,330,67038,1,8,0:0:0:0:
79,323,67217,1,0,0:0:0:0:
216,69,67396,2,0,L|218:122,1,43,8|0,0:0|0:0,0:0:0:0:
235,221,67574,1,4,0:0:0:0:
213,218,67663,1,0,0:0:0:0:
191,215,67753,5,2,0:0:0:0:
325,143,67931,1,0,0:0:0:0:
91,233,68110,1,8,0:0:0:0:
259,369,68288,2,0,L|254:326,1,43,0|0,0:0|0:0,0:0:0:0:
235,221,68467,1,8,0:0:0:0:
154,346,68646,1,0,0:0:0:0:
358,200,68824,6,0,P|353:225|350:250,1,51.599998425293,8|0,0:0|0:0,0:0:0:0:
154,346,69003,2,0,L|90:337,1,51.599998425293,0|0,0:0|0:0,0:0:0:0:
154,204,69181,6,0,P|195:201|235:221,1,86,6|0,0:0|0:0,0:0:0:0:
405,100,69538,2,0,P|344:85|288:114,1,129,8|8,0:0|0:0,0:0:0:0:
234,220,69896,2,0,L|237:311,1,86,8|0,0:0|0:0,0:0:0:0:
406,364,70253,2,0,L|410:321,1,43,8|0,0:0|0:0,0:0:0:0:
453,216,70431,1,4,0:0:0:0:
453,216,70521,1,0,0:0:0:0:
453,216,70610,6,0,L|352:225,1,86,0|0,0:0|0:0,0:0:0:0:
87,284,70967,2,0,B|165:270|159:318|239:302,1,154.799995275879,8|8,0:0|0:0,0:0:0:0:
262,295,71324,1,8,0:0:0:0:
63,297,71503,1,0,0:0:0:0:
217,192,71681,2,0,L|221:149,1,43,8|0,0:0|0:0,0:0:0:0:
122,88,71860,2,0,L|117:45,1,43,0|8,0:0|0:0,0:0:0:0:
71,168,72038,6,8,P|140:123|220:148,1,172,6|8,0:0|0:0,0:0:0:0:
335,354,72574,2,0,L|332:311,1,43,0|8,0:0|0:0,0:0:0:0:
326,195,72753,1,8,0:0:0:0:
454,251,72931,1,0,0:0:0:0:
213,274,73110,1,8,0:0:0:0:
328,35,73288,1,4,0:0:0:0:
327,56,73378,1,0,0:0:0:0:
327,77,73467,5,0,0:0:0:0:
209,161,73646,1,0,0:0:0:0:
437,138,73824,1,8,0:0:0:0:
333,279,74003,2,0,L|329:236,1,43,0|8,0:0|0:0,0:0:0:0:
213,118,74181,2,0,L|209:160,1,43,8|0,0:0|0:0,0:0:0:0:
104,253,74360,1,0,0:0:0:0:
220,272,74538,2,0,P|165:240|104:252,1,129,8|0,0:0|0:0,0:0:0:0:
88,274,74896,5,8,0:0:0:0:
354,150,75074,1,0,0:0:0:0:
104,38,75253,1,8,0:0:0:0:
396,153,75431,6,0,L|331:147,1,43,8|8,0:0|0:0,0:0:0:0:
248,118,75610,1,8,0:0:0:0:
249,143,75699,1,0,0:0:0:0:
250,168,75788,1,0,0:0:0:0:
440,44,75967,1,8,0:0:0:0:
490,333,76146,6,0,L|486:281,1,51.599998425293,8|8,0:0|0:0,0:0:0:0:
337,6,76324,1,8,0:0:0:0:
337,6,76503,6,0,L|332:60,1,51.599998425293,8|8,0:0|0:0,0:0:0:0:
235,325,76681,1,8,0:0:0:0:
235,325,76860,6,0,L|231:273,1,51.599998425293,8|8,0:0|0:0,0:0:0:0:
57,34,77038,1,8,0:0:0:0:
57,34,77217,6,0,L|52:86,1,51.599998425293
60,367,77396,2,0,L|66:316,1,51.599998425293,8|0,0:0|0:0,0:0:0:0:
1,206,77574,1,0,0:0:0:0:
1,206,77663,1,0,0:0:0:0:
1,206,77753,6,0,L|87:212,1,86,6|0,0:0|0:0,0:0:0:0:
222,310,78110,2,0,B|219:251|219:251|232:216|232:216|227:155,1,154.799995275879,8|8,0:0|0:0,0:0:0:0:
225,133,78467,1,8,0:0:0:0:
229,330,78646,1,0,0:0:0:0:
363,276,78824,2,0,L|320:271,1,43,8|0,0:0|0:0,0:0:0:0:
127,205,79003,1,4,0:0:0:0:
120,225,79092,1,0,0:0:0:0:
119,246,79181,5,2,0:0:0:0:
324,179,79360,1,0,0:0:0:0:
137,109,79538,1,8,0:0:0:0:
220,347,79717,2,0,L|218:290,1,43,0|0,0:0|0:0,0:0:0:0:
216,202,79896,1,8,0:0:0:0:
93,332,80074,1,0,0:0:0:0:
40,194,80253,6,0,P|64:201|93:203,1,51.599998425293,8|0,0:0|0:0,0:0:0:0:
216,202,80431,2,0,P|241:200|266:192,1,51.599998425293,0|0,0:0|0:0,0:0:0:0:
365,150,80610,6,0,L|356:236,1,86,6|0,0:0|0:0,0:0:0:0:
93,332,80967,2,0,L|89:204,1,129,8|8,0:0|0:0,0:0:0:0:
88,203,81324,2,0,P|47:216|4:211,1,86,8|0,0:0|0:0,0:0:0:0:
207,8,81681,2,0,L|204:71,1,43,8|0,0:0|0:0,0:0:0:0:
39,113,81860,1,4,0:0:0:0:
39,113,81949,1,0,0:0:0:0:
39,113,82038,6,0,L|125:110,1,86,0|0,0:0|0:0,0:0:0:0:
350,212,82396,2,0,B|282:193|277:242|195:222,1,154.799995275879,8|8,0:0|0:0,0:0:0:0:
176,211,82753,1,8,0:0:0:0:
326,352,82931,1,0,0:0:0:0:
326,352,83021,1,0,0:0:0:0:
326,352,83110,2,0,L|322:304,1,43,8|8,0:0|0:0,0:0:0:0:
229,77,83288,2,0,L|232:119,1,43,8|8,0:0|0:0,0:0:0:0:
244,248,83467,6,0,P|298:214|360:220,1,129,6|0,0:0|0:0,0:0:0:0:
446,278,83824,2,0,L|504:276,1,43,8|0,0:0|0:0,0:0:0:0:
484,146,84003,1,0,0:0:0:0:
461,146,84092,1,8,0:0:0:0:
439,147,84181,1,8,0:0:0:0:
322,309,84360,1,0,0:0:0:0:
238,123,84538,1,8,0:0:0:0:
351,209,84717,2,0,L|296:206,1,43,4|0,0:0|0:0,0:0:0:0:
168,198,84896,5,0,0:0:0:0:
338,100,85074,1,0,0:0:0:0:
178,24,85253,1,8,0:0:0:0:
433,77,85431,2,0,L|429:119,1,43,0|8,0:0|0:0,0:0:0:0:
287,224,85610,2,0,L|290:266,1,43,8|0,0:0|0:0,0:0:0:0:
397,335,85788,1,0,0:0:0:0:
398,249,85967,2,0,L|396:336,1,86,8|0,0:0|0:0,0:0:0:0:
126,242,86324,5,8,0:0:0:0:
362,154,86503,1,0,0:0:0:0:
134,66,86681,1,8,0:0:0:0:
391,154,86860,1,8,0:0:0:0:
391,154,86949,1,8,0:0:0:0:
391,154,87038,6,0,L|454:149,1,51.599998425293,8|0,0:0|0:0,0:0:0:0:
111,57,87217,2,0,L|60:61,1,51.599998425293,0|0,0:0|0:0,0:0:0:0:
253,113,87396,1,8,0:0:0:0:
236,336,87574,5,8,0:0:0:0:
236,336,87663,2,0,L|243:234,1,103.199996850586,8|0,0:0|0:0,0:0:0:0:
253,113,87931,1,0,0:0:0:0:
132,263,88110,2,0,L|136:212,1,51.599998425293,8|0,0:0|0:0,0:0:0:0:
370,103,88288,2,0,L|364:156,1,51.599998425293,8|8,0:0|0:0,0:0:0:0:
359,253,88467,5,8,0:0:0:0:
129,184,88646,1,0,0:0:0:0:
250,61,88824,2,0,L|252:112,1,51.599998425293,8|0,0:0|0:0,0:0:0:0:
129,184,89003,2,0,L|71:177,1,51.599998425293,8|8,0:0|0:0,0:0:0:0:
231,260,89181,6,0,L|359:251,1,129.00000492096,6|8,0:0|0:0,0:0:0:0:
252,355,89717,2,0,P|220:356|188:350,1,64.5000024604798,2|0,0:0|0:0,0:0:0:0:
210,160,90074,2,0,P|241:158|273:164,1,64.5000024604798,8|2,0:0|0:0,0:0:0:0:
112,246,90431,1,4,0:0:0:0:
112,246,92038,5,6,0:0:0:0:
261,63,92217,1,0,0:0:0:0:
330,117,92396,2,0,L|177:100,1,154.799995275879,8|2,0:0|0:0,0:0:0:0:
53,66,92931,2,0,L|58:152,1,77.3999976379395,0|8,0:0|0:0,0:0:0:0:
116,322,93288,1,4,0:0:0:0:
116,322,93378,1,0,0:0:0:0:
116,322,93467,6,0,L|111:245,1,77.3999976379395,2|0,0:0|0:0,0:0:0:0:
0,247,93824,1,8,0:0:0:0:
176,101,94003,2,0,L|171:144,1,38.6999988189698,0|0,0:0|0:0,0:0:0:0:
199,240,94181,1,2,0:0:0:0:
57,142,94360,1,0,0:0:0:0:
123,232,94538,2,0,L|202:241,1,77.3999976379395,12|0,0:0|0:0,0:0:0:0:
396,179,94896,6,0,P|341:164|289:186,1,116.099996456909,6|0,0:0|0:0,0:0:0:0:
289,186,95253,2,0,P|301:221|301:263,1,77.3999976379395,8|0,0:0|0:0,0:0:0:0:
190,117,95610,2,0,L|192:78,2,38.6999988189698,2|0|0,0:0|0:0|0:0,0:0:0:0:
83,221,95967,1,8,0:0:0:0:
188,325,96146,1,4,0:0:0:0:
188,325,96235,1,0,0:0:0:0:
188,325,96324,6,0,L|192:248,1,77.3999976379395,0|0,0:0|0:0,0:0:0:0:
347,57,96681,2,0,L|342:171,1,77.3999976379395,8|0,0:0|0:0,0:0:0:0:
314,261,97038,1,2,0:0:0:0:
332,265,97128,1,0,0:0:0:0:
350,266,97217,1,0,0:0:0:0:
226,132,97396,2,0,L|187:133,1,38.6999988189698,12|0,0:0|0:0,0:0:0:0:
94,157,97574,1,0,0:0:0:0:
103,84,97753,6,0,P|90:119|94:160,1,77.3999976379395,6|0,0:0|0:0,0:0:0:0:
151,378,98110,2,0,P|185:311|171:234,1,154.799995275879,8|2,0:0|0:0,0:0:0:0:
0,298,98646,2,0,L|77:294,1,77.3999976379395,0|8,0:0|0:0,0:0:0:0:
140,127,99003,1,4,0:0:0:0:
140,127,99092,1,0,0:0:0:0:
140,127,99181,6,0,L|220:131,1,77.3999976379395,2|0,0:0|0:0,0:0:0:0:
307,66,99538,1,8,0:0:0:0:
442,202,99717,2,0,L|403:200,1,38.6999988189698,0|0,0:0|0:0,0:0:0:0:
310,247,99896,1,2,0:0:0:0:
307,66,100074,1,0,0:0:0:0:
308,171,100253,2,0,L|311:257,1,77.3999976379395,12|0,0:0|0:0,0:0:0:0:
105,310,100610,6,0,L|102:233,1,77.3999976379395,6|0,0:0|0:0,0:0:0:0:
204,93,100967,2,0,L|206:209,1,116.099996456909,0|8,0:0|0:0,0:0:0:0:
208,235,101324,1,8,0:0:0:0:
343,51,101503,1,0,0:0:0:0:
439,243,101681,1,8,0:0:0:0:
343,27,101860,1,4,0:0:0:0:
343,27,102217,5,0,0:0:0:0:
333,207,102396,1,8,0:0:0:0:
496,127,102574,1,4,0:0:0:0:
496,127,102931,6,0,L|436:120,1,51.599998425293,0|0,0:0|0:0,0:0:0:0:
258,110,103110,2,0,L|198:117,1,51.599998425293,8|0,0:0|0:0,0:0:0:0:
167,121,103288,1,0,0:0:0:0:
167,121,103646,5,2,0:0:0:0:
230,216,103824,1,2,0:0:0:0:
286,115,104003,1,2,0:0:0:0:
117,223,104181,1,2,0:0:0:0:
292,306,104360,1,2,0:0:0:0:
286,115,104538,1,2,0:0:0:0:
230,216,104717,5,0,1:0:0:0:
351,206,105074,6,0,P|375:199|399:189,1,51.599998425293,0|0,1:0|0:0,0:0:0:0:
181,314,105253,2,0,P|173:338|170:364,1,51.599998425293,0|0,1:0|0:0,0:0:0:0:
161,115,105431,6,0,P|140:82|109:60,1,77.4,4|0,1:2|0:0,0:0:0:0:
