osu file format v14

[General]
AudioFilename: jump.mp3
AudioLeadIn: 0
PreviewTime: 65699
Countdown: 0
SampleSet: Soft
StackLeniency: 0.7
Mode: 0
LetterboxInBreaks: 0
WidescreenStoryboard: 1

[Editor]
DistanceSpacing: 0.9
BeatDivisor: 4
GridSize: 4
TimelineZoom: 1.5

[Metadata]
Title:Koujou Joujou High Jump (Short Ver.)
TitleUnicode:向上上々ハイジャンプ↑↑↑↑ (Short Ver.)
Artist:fourfolium
ArtistUnicode:fourfolium
Creator:Doormat
Version:Insane
Source:NEW GAME! -THE CHALLENGE STAGE!-
Tags:Kibbleru [C_u_r_i] Curi フォーフォリウム ニューゲーム ザ チャレンジステージ ending ed game size takada yuuki 高田憂希 suzukaze aoba 涼風青葉 yamaguchi megumi 山口愛 takimoto hifumi 滝本ひふみ toda megumi 戸田めぐみ shinoda hazime 篠田はじめ ayumi takeo 竹尾歩美 iizima yun 飯島ゆん
BeatmapID:1207691
BeatmapSetID:569697

[Difficulty]
HPDrainRate:6
CircleSize:4
OverallDifficulty:8
ApproachRate:9
SliderMultiplier:1.7
SliderTickRate:1

[Events]
//Background and Video events
0,0,"newgame_background.jpg",0,0
//Break Periods
//Storyboard Layer 0 (Background)
//Storyboard Layer 1 (Fail)
//Storyboard Layer 2 (Pass)
//Storyboard Layer 3 (Foreground)
//Storyboard Sound Samples

[TimingPoints]
2039,357.142857142857,4,2,1,70,1,0
2039,-133.333333333333,4,2,1,70,0,0
7753,-100,4,2,1,80,0,1
19181,-100,4,2,1,70,0,0
30610,-111.111111111111,4,2,1,50,0,0
42038,-100,4,2,1,60,0,0
53467,-133.333333333333,4,2,1,50,0,0
59181,-111.111111111111,4,2,1,70,0,0
60610,-111.111111111111,4,2,1,75,0,0
62038,-111.111111111111,4,2,1,80,0,0
63467,-133.333333333333,4,2,1,70,0,0
66324,-100,4,2,1,80,0,1
77663,-100,4,2,1,80,0,0
77753,-100,4,2,1,80,0,1
89181,-133.333333333333,4,2,1,60,0,0
92038,-100,4,2,1,70,0,0
103646,-100,4,2,2,50,0,0
104717,-100,4,2,1,70,0,0
107038,-100,4,2,1,10,0,0

[Colours]
Combo1 : 236,164,22
Combo2 : 84,171,80
Combo3 : 238,43,22
Combo4 : 62,172,199
Combo5 : 229,147,122

[HitObjects]
196,144,2039,5,6,0:0:0:0:
248,256,2217,1,0,0:0:0:0:
318,154,2396,1,0,0:0:0:0:
112,84,2574,2,0,L|251:34,1,127.500004863739,2|4,0:0|0:3,0:0:0:0:
232,41,3110,1,2,0:3:0:0:
388,308,3467,5,6,0:0:0:0:
348,192,3646,1,0,0:0:0:0:
267,284,3824,1,0,0:0:0:0:
428,228,4003,2,0,P|433:164|384:109,1,127.500004863739,2|4,0:0|0:3,0:0:0:0:
220,76,4539,1,8,0:0:0:0:
368,20,4717,1,0,0:0:0:0:
348,192,4896,5,6,0:0:0:0:
308,76,5074,1,0,0:0:0:0:
144,192,5253,1,0,0:0:0:0:
348,192,5431,1,2,0:0:0:0:
252,276,5610,5,8,0:0:0:0:
348,192,5788,1,0,0:0:0:0:
148,284,5967,1,8,0:0:0:0:
236,376,6146,1,0,0:0:0:0:
264,160,6324,5,8,0:0:0:0:
84,212,6503,1,0,0:0:0:0:
288,292,6681,1,8,0:0:0:0:
168,108,6860,1,0,0:0:0:0:
168,108,6949,1,0,0:0:0:0:
168,108,7038,1,8,0:0:0:0:
148,284,7217,5,0,0:0:0:0:
308,116,7396,1,8,0:0:0:0:
288,292,7575,1,0,0:0:0:0:
85,125,7753,6,0,P|125:112|167:107,1,85,6|0,0:0|0:0,0:0:0:0:
424,156,8110,2,0,P|383:168|341:173,1,85,8|0,0:0|0:0,0:0:0:0:
280,132,8378,1,8,0:0:0:0:
280,132,8467,1,8,0:0:0:0:
368,64,8646,1,0,0:0:0:0:
308,264,8824,1,8,0:0:0:0:
112,148,9003,1,4,0:0:0:0:
200,12,9181,6,0,L|192:120,1,85,2|0,0:0|0:0,0:0:0:0:
370,182,9538,1,8,0:0:0:0:
384,154,9628,1,0,0:0:0:0:
389,123,9717,1,0,0:0:0:0:
383,91,9806,1,8,0:0:0:0:
367,63,9896,2,0,L|456:56,1,85,8|0,0:0|0:0,0:0:0:0:
280,132,10253,2,0,L|191:139,1,85,8|0,0:0|0:0,0:0:0:0:
0,232,10610,5,6,0:0:0:0:
176,272,10788,1,0,0:0:0:0:
19,97,10967,1,8,0:0:0:0:
195,138,11145,1,0,0:0:0:0:
195,138,11235,1,8,0:0:0:0:
195,138,11324,1,8,0:0:0:0:
80,288,11503,1,0,0:0:0:0:
120,64,11681,1,8,0:0:0:0:
348,224,11860,6,0,P|268:201|202:250,1,170,4|0,0:0|0:0,0:0:0:0:
356,364,12396,2,0,L|448:348,1,85,8|0,0:0|0:0,0:0:0:0:
512,336,12663,1,8,0:0:0:0:
512,336,12753,1,8,0:0:0:0:
324,244,12931,1,0,0:0:0:0:
497,127,13110,2,0,L|492:192,1,42.5,8|8,0:0|0:0,0:0:0:0:
440,240,13288,2,0,L|435:305,1,42.5,8|8,0:0|0:0,0:0:0:0:
382,352,13467,6,0,P|308:320|216:360,1,170,6|8,0:0|0:0,0:0:0:0:
56,236,14003,1,0,0:0:0:0:
56,236,14092,1,8,0:0:0:0:
56,236,14181,1,8,0:0:0:0:
256,224,14360,1,0,0:0:0:0:
92,348,14538,1,8,0:0:0:0:
0,155,14717,6,0,P|86:144|148:202,1,170,4|0,0:0|0:0,0:0:0:0:
332,116,15253,1,8,0:0:0:0:
104,40,15431,1,0,0:0:0:0:
104,40,15521,1,8,0:0:0:0:
104,40,15610,1,8,0:0:0:0:
312,0,15788,1,0,0:0:0:0:
124,155,15967,2,0,P|81:153|39:145,1,85,8|0,0:0|0:0,0:0:0:0:
214,52,16324,5,8,0:0:0:0:
264,240,16503,1,0,0:0:0:0:
384,16,16681,1,8,0:0:0:0:
239,146,16860,1,8,0:0:0:0:
239,146,16949,1,8,0:0:0:0:
239,146,17038,2,0,L|291:139,1,42.5,8|0,0:0|0:0,0:0:0:0:
358,130,17217,1,0,0:0:0:0:
176,40,17396,1,8,0:0:0:0:
248,260,17574,5,8,0:0:0:0:
248,260,17663,1,8,0:0:0:0:
248,260,17753,1,8,0:0:0:0:
294,65,17931,1,0,0:0:0:0:
72,152,18110,1,8,0:0:0:0:
360,184,18288,5,8,0:0:0:0:
360,184,18378,1,8,0:0:0:0:
360,184,18467,1,8,0:0:0:0:
176,40,18646,1,0,0:0:0:0:
264,296,18824,1,8,0:0:0:0:
72,152,19003,1,8,0:0:0:0:
72,152,19092,1,8,0:0:0:0:
72,152,19181,5,6,0:0:0:0:
254,170,19360,1,0,0:0:0:0:
152,12,19538,2,0,L|158:96,1,85,8|0,0:0|0:0,0:0:0:0:
312,0,19896,1,2,0:0:0:0:
420,152,20074,2,0,L|320:140,1,85,0|8,0:0|0:0,0:0:0:0:
112,320,20431,6,0,L|212:308,1,85,4|2,0:0|0:0,0:0:0:0:
368,284,20788,1,0,0:0:0:0:
168,188,20967,1,8,0:0:0:0:
324,72,21146,2,0,P|336:120|324:168,1,85,0|2,0:0|0:0,0:0:0:0:
196,309,21503,1,0,0:0:0:0:
244,120,21681,1,12,0:0:0:0:
356,252,21860,1,0,0:0:0:0:
139,220,22038,6,0,P|179:204|221:207,1,85,6|0,0:0|0:0,0:0:0:0:
412,120,22396,2,0,P|369:123|330:107,1,85,8|0,0:0|0:0,0:0:0:0:
196,12,22753,1,2,0:0:0:0:
384,28,22931,1,0,0:0:0:0:
188,136,23110,1,8,0:0:0:0:
448,180,23288,6,0,P|371:150|300:192,1,170,4|0,0:0|0:0,0:0:0:0:
512,264,23824,1,8,0:0:0:0:
472,64,24003,1,0,0:0:0:0:
312,292,24181,1,2,0:0:0:0:
312,68,24360,1,0,0:0:0:0:
512,264,24538,1,12,0:0:0:0:
512,264,24896,5,6,0:0:0:0:
312,292,25074,1,0,0:0:0:0:
416,132,25253,2,0,L|410:216,1,85,8|0,0:0|0:0,0:0:0:0:
280,148,25611,1,2,0:0:0:0:
152,300,25789,2,0,L|252:288,1,85,0|8,0:0|0:0,0:0:0:0:
152,128,26146,6,0,L|52:116,1,85,4|2,0:0|0:0,0:0:0:0:
204,12,26503,1,0,0:0:0:0:
240,220,26681,1,8,0:0:0:0:
392,92,26860,2,0,P|350:82|309:92,1,85,0|2,0:0|0:0,0:0:0:0:
152,128,27217,1,0,0:0:0:0:
352,180,27396,1,12,0:0:0:0:
140,268,27574,1,0,0:0:0:0:
415,262,27753,6,0,P|336:283|266:238,1,170,6|8,0:0|0:0,0:0:0:0:
440,132,28288,1,0,0:0:0:0:
440,132,28378,1,8,0:0:0:0:
440,132,28467,1,8,0:0:0:0:
224,44,28646,1,0,0:0:0:0:
352,180,28824,1,8,0:0:0:0:
136,268,29003,6,0,L|144:84,1,170,4|0,0:0|0:0,0:0:0:0:
280,188,29538,1,8,0:0:0:0:
200,352,29717,2,0,P|119:371|49:327,1,170,4|0,0:0|0:0,0:0:0:0:
208,228,30253,1,8,0:0:0:0:
20,192,30431,1,0,0:0:0:0:
135,63,30610,6,0,P|137:112|126:142,1,76.4999976654053,6|0,0:0|0:0,0:0:0:0:
272,168,30967,2,0,P|270:119|281:89,1,76.4999976654053,2|0,0:0|0:0,0:0:0:0:
370,11,31324,1,2,0:0:0:0:
441,145,31502,2,0,L|366:135,1,76.4999976654053,0|2,0:0|0:0,0:0:0:0:
192,280,31860,6,0,L|267:269,1,76.4999976654053,0|2,0:0|0:0,0:0:0:0:
448,248,32217,1,0,0:0:0:0:
272,168,32396,1,2,0:0:0:0:
441,145,32574,1,0,0:0:0:0:
364,288,32753,2,0,P|355:250|362:213,1,76.4999976654053,2|0,0:0|0:0,0:0:0:0:
432,64,33110,1,2,0:0:0:0:
291,138,33288,1,0,0:0:0:0:
472,184,33467,5,2,0:0:0:0:
308,231,33646,2,0,P|269:229|232:210,1,76.4999976654053,0|2,0:0|0:0,0:0:0:0:
144,84,34003,2,0,P|161:118|163:160,1,76.4999976654053,0|2,0:0|0:0,0:0:0:0:
97,300,34360,2,0,P|118:267|153:244,1,76.4999976654053,0|2,0:0|0:0,0:0:0:0:
308,231,34717,6,0,L|320:332,1,76.4999976654053,0|2,0:0|0:0,0:0:0:0:
416,204,35074,1,0,0:0:0:0:
296,136,35253,1,2,0:0:0:0:
193,230,35431,2,0,P|143:234|106:216,1,76.4999976654053,0|2,0:0|0:0,0:0:0:0:
48,128,35788,1,0,0:0:0:0:
171,63,35967,2,0,L|164:140,1,76.4999976654053,2|0,0:0|0:0,0:0:0:0:
308,236,36324,5,2,0:0:0:0:
296,136,36503,1,0,0:0:0:0:
468,114,36681,1,2,0:0:0:0:
376,75,36860,1,0,0:0:0:0:
480,214,37038,1,2,0:0:0:0:
308,236,37217,2,0,P|271:234|237:216,1,76.4999976654053,0|2,0:0|0:0,0:0:0:0:
24,296,37574,6,0,P|57:279|95:277,1,76.4999976654053,0|2,0:0|0:0,0:0:0:0:
236,311,37931,1,0,0:0:0:0:
104,188,38110,1,2,0:0:0:0:
81,372,38288,1,0,0:0:0:0:
183,235,38467,2,0,P|195:198|190:160,1,76.4999976654053,2|0,0:0|0:0,0:0:0:0:
112,28,38824,1,2,0:0:0:0:
256,72,39003,1,0,0:0:0:0:
24,141,39181,5,6,0:0:0:0:
12,152,40431,2,0,L|176:139,1,152.999995330811,4|0,0:0|0:0,0:0:0:0:
340,123,40967,1,8,0:0:0:0:
132,239,41146,1,0,0:0:0:0:
132,239,41235,1,8,0:0:0:0:
132,239,41324,1,8,0:0:0:0:
252,131,41503,1,0,0:0:0:0:
296,344,41681,1,8,0:0:0:0:
296,344,42038,6,0,L|192:332,1,85,6|0,0:0|0:0,0:0:0:0:
344,176,42396,2,0,L|448:164,1,85,8|0,0:0|0:0,0:0:0:0:
504,156,42663,1,8,0:0:0:0:
504,156,42753,1,8,0:0:0:0:
324,80,42931,1,0,0:0:0:0:
400,280,43110,1,8,0:0:0:0:
220,204,43288,1,0,0:0:0:0:
350,91,43467,6,0,L|344:176,1,85,2|0,0:0|0:0,0:0:0:0:
216,56,43824,1,8,0:0:0:0:
416,8,44003,1,0,0:0:0:0:
416,8,44092,1,8,0:0:0:0:
416,8,44181,1,8,0:0:0:0:
260,128,44360,1,0,0:0:0:0:
496,144,44538,1,8,0:0:0:0:
316,32,44717,1,0,0:0:0:0:
316,32,44806,1,0,0:0:0:0:
316,32,44896,5,2,0:0:0:0:
215,211,45074,2,0,P|256:224|297:214,1,85,0|8,0:0|0:0,0:0:0:0:
428,56,45431,1,0,0:0:0:0:
428,56,45521,1,8,0:0:0:0:
428,56,45610,1,8,0:0:0:0:
512,172,45788,2,0,L|498:255,1,85,0|8,0:0|0:0,0:0:0:0:
260,128,46146,1,0,0:0:0:0:
400,32,46324,6,0,L|484:38,1,85,2|0,0:0|0:0,0:0:0:0:
360,232,46681,2,0,L|275:225,1,85,8|0,0:0|0:0,0:0:0:0:
196,220,46949,1,8,0:0:0:0:
196,220,47038,1,8,0:0:0:0:
372,328,47217,1,0,0:0:0:0:
260,128,47396,1,8,0:0:0:0:
216,376,47574,1,0,0:0:0:0:
216,376,47663,1,0,0:0:0:0:
216,376,47753,5,2,0:0:0:0:
316,228,47931,1,0,0:0:0:0:
112,176,48110,2,0,P|104:228|120:272,1,85,8|0,0:0|0:0,0:0:0:0:
152,324,48378,1,8,0:0:0:0:
152,324,48467,1,8,0:0:0:0:
252,160,48646,2,0,L|244:76,1,85,0|8,0:0|0:0,0:0:0:0:
28,152,49003,1,0,0:0:0:0:
212,244,49181,6,0,L|304:236,1,85,2|0,0:0|0:0,0:0:0:0:
480,72,49538,2,0,L|395:64,1,85,8|0,0:0|0:0,0:0:0:0:
316,56,49806,1,8,0:0:0:0:
316,56,49895,1,8,0:0:0:0:
500,152,50074,1,0,0:0:0:0:
296,236,50253,1,8,0:0:0:0:
480,332,50431,1,0,0:0:0:0:
480,332,50521,1,0,0:0:0:0:
480,332,50610,6,0,P|436:312|328:368,1,170,2|8,0:0|0:0,0:0:0:0:
128,300,51146,1,0,0:0:0:0:
128,300,51235,1,8,0:0:0:0:
128,300,51324,1,8,0:0:0:0:
299,151,51503,2,0,L|296:236,1,85,0|8,0:0|0:0,0:0:0:0:
24,168,51860,6,0,P|96:120|196:156,1,170,4|0,0:0|0:0,0:0:0:0:
312,264,52396,1,8,0:0:0:0:
116,232,52574,1,0,0:0:0:0:
116,232,52663,1,8,0:0:0:0:
116,232,52753,1,8,0:0:0:0:
316,136,52931,1,0,0:0:0:0:
120,104,53110,1,8,0:0:0:0:
312,264,53288,1,0,0:0:0:0:
312,264,53378,1,0,0:0:0:0:
312,264,53467,6,0,L|176:280,1,127.500004863739,6|8,0:0|0:0,0:0:0:0:
337,350,54002,2,0,P|387:313|400:248,1,127.500004863739,2|0,0:0|0:0,0:0:0:0:
312,96,54538,1,8,0:0:0:0:
184,200,54717,6,0,L|320:184,1,127.500004863739,2|0,0:0|0:0,0:0:0:0:
159,114,55253,2,0,P|109:151|96:216,2,127.500004863739,2|8|2,0:0|0:0|0:0,0:0:0:0:
372,168,56324,6,0,L|360:320,1,127.500004863739,2|8,0:0|0:0,0:0:0:0:
464,200,56860,2,0,P|468:156|416:80,1,127.500004863739,2|0,0:0|0:0,0:0:0:0:
320,79,57396,2,0,P|294:99|280:127,1,63.7500024318696,8|0,0:0|0:0,0:0:0:0:
240,228,57753,6,0,L|332:216,1,63.7500024318696,2|0,0:0|0:0,0:0:0:0:
220,316,58110,2,0,L|312:304,1,63.7500024318696,2|0,0:0|0:0,0:0:0:0:
145,191,58467,2,0,L|157:283,1,63.7500024318696,8|0,0:0|0:0,0:0:0:0:
57,171,58824,2,0,L|69:263,1,63.7500024318696,2|0,0:0|0:0,0:0:0:0:
240,228,59181,5,2,0:0:0:0:
72,344,59360,1,2,0:0:0:0:
284,364,59538,2,0,P|322:365|360:361,1,76.4999976654053,8|0,0:0|0:0,0:0:0:0:
240,228,59896,5,2,0:0:0:0:
428,252,60074,1,2,0:0:0:0:
260,68,60253,1,8,0:0:0:0:
156,284,60431,1,0,0:0:0:0:
156,284,60521,1,8,0:0:0:0:
156,284,60610,5,2,0:0:0:0:
324,168,60789,1,2,0:0:0:0:
112,148,60967,2,0,P|74:147|36:151,1,76.4999976654053,8|0,0:0|0:0,0:0:0:0:
156,284,61324,5,2,0:0:0:0:
224,100,61503,1,2,0:0:0:0:
284,344,61681,1,8,0:0:0:0:
100,180,61860,1,0,0:0:0:0:
100,180,61949,1,8,0:0:0:0:
100,180,62038,5,8,0:0:0:0:
376,120,62217,1,2,0:0:0:0:
376,120,62396,1,2,0:0:0:0:
252,332,62574,5,8,0:0:0:0:
172,60,62753,1,2,0:0:0:0:
172,60,62931,1,2,0:0:0:0:
456,108,63110,5,8,0:0:0:0:
456,108,63199,1,8,0:0:0:0:
456,108,63288,1,8,0:0:0:0:
456,108,63378,1,8,0:0:0:0:
456,108,63467,5,8,0:0:0:0:
377,39,63646,2,0,P|434:12|497:31,1,127.500004863739,2|0,0:0|0:0,0:0:0:0:
392,172,64181,2,0,L|328:164,1,63.7500024318696,8|0,0:0|0:0,0:0:0:0:
152,72,64538,2,0,L|215:64,1,63.7500024318696,8|0,0:0|0:0,0:0:0:0:
390,38,64896,5,8,0:0:0:0:
208,140,65074,1,0,0:0:0:0:
428,176,65253,1,8,0:0:0:0:
220,32,65431,1,0,0:0:0:0:
220,32,65521,1,0,0:0:0:0:
220,32,65610,1,8,0:0:0:0:
464,92,65788,5,0,0:0:0:0:
180,148,65967,1,8,0:0:0:0:
424,208,66146,1,0,0:0:0:0:
324,16,66324,6,0,P|316:57|318:100,1,85,6|0,0:0|0:0,0:0:0:0:
160,248,66681,2,0,P|162:205|154:163,1,85,8|0,0:0|0:0,0:0:0:0:
116,96,66949,1,8,0:0:0:0:
116,96,67038,1,8,0:0:0:0:
272,188,67217,1,0,0:0:0:0:
48,264,67396,1,8,0:0:0:0:
204,356,67574,1,4,0:0:0:0:
272,188,67753,6,0,P|224:188|176:196,1,85,2|0,0:0|0:0,0:0:0:0:
295,323,68110,1,8,0:0:0:0:
327,327,68199,1,0,0:0:0:0:
359,327,68288,1,0,0:0:0:0:
391,323,68377,1,0,0:0:0:0:
421,315,68467,2,0,B|464:304|464:304|503:315,1,85,8|0,0:0|0:0,0:0:0:0:
320,192,68824,2,0,B|277:203|277:203|238:191,1,85,8|0,0:0|0:0,0:0:0:0:
54,67,69181,5,6,0:0:0:0:
234,51,69360,1,0,0:0:0:0:
58,207,69538,1,8,0:0:0:0:
238,191,69717,1,0,0:0:0:0:
238,191,69806,1,8,0:0:0:0:
238,191,69896,1,8,0:0:0:0:
140,16,70074,1,0,0:0:0:0:
152,256,70253,1,8,0:0:0:0:
360,139,70431,6,0,P|284:171|205:119,1,170,4|0,0:0|0:0,0:0:0:0:
336,8,70967,2,0,L|432:16,1,85,8|0,0:0|0:0,0:0:0:0:
500,24,71235,1,8,0:0:0:0:
500,24,71324,1,8,0:0:0:0:
448,224,71503,1,0,0:0:0:0:
289,73,71681,1,8,0:0:0:0:
499,143,71860,1,0,0:0:0:0:
499,143,71949,1,8,0:0:0:0:
499,143,72038,6,0,P|419:131|355:211,1,170,6|8,0:0|0:0,0:0:0:0:
144,136,72574,1,0,0:0:0:0:
144,136,72663,1,8,0:0:0:0:
144,136,72753,1,8,0:0:0:0:
324,64,72931,1,0,0:0:0:0:
280,232,73110,1,8,0:0:0:0:
120,52,73288,6,0,L|106:221,1,170,4|0,0:0|0:0,0:0:0:0:
252,324,73824,1,8,0:0:0:0:
308,148,74003,1,0,0:0:0:0:
308,148,74092,1,8,0:0:0:0:
308,148,74181,2,0,P|266:142|227:159,1,85,8|0,0:0|0:0,0:0:0:0:
356,348,74538,2,0,P|397:356|436:342,1,85,8|0,0:0|0:0,0:0:0:0:
448,116,74896,5,8,0:0:0:0:
276,224,75074,1,0,0:0:0:0:
512,268,75253,1,8,0:0:0:0:
340,376,75431,1,8,0:0:0:0:
340,376,75521,1,8,0:0:0:0:
340,376,75610,2,0,L|404:380,1,42.5,8|0,0:0|0:0,0:0:0:0:
460,384,75788,1,0,0:0:0:0:
362,170,75967,1,8,0:0:0:0:
200,348,76146,5,8,0:0:0:0:
200,348,76235,1,8,0:0:0:0:
200,348,76324,1,8,0:0:0:0:
411,277,76503,1,8,0:0:0:0:
411,277,76592,1,8,0:0:0:0:
411,277,76681,1,8,0:0:0:0:
176,192,76860,1,8,0:0:0:0:
176,192,76949,1,8,0:0:0:0:
176,192,77038,1,8,0:0:0:0:
387,121,77217,5,0,0:0:0:0:
308,316,77396,1,8,0:0:0:0:
208,68,77574,1,0,0:0:0:0:
416,143,77753,6,0,P|375:155|332:154,1,85,6|0,0:0|0:0,0:0:0:0:
96,228,78110,2,0,P|138:223|179:229,1,85,8|0,0:0|0:0,0:0:0:0:
252,256,78378,1,8,0:0:0:0:
252,256,78467,1,8,0:0:0:0:
104,144,78646,1,0,0:0:0:0:
135,350,78824,1,8,0:0:0:0:
256,156,79003,1,4,0:0:0:0:
372,272,79181,6,0,L|369:356,1,85,2|0,0:0|0:0,0:0:0:0:
144,264,79538,1,8,0:0:0:0:
169,244,79627,1,0,0:0:0:0:
199,234,79716,1,0,0:0:0:0:
231,235,79805,1,0,0:0:0:0:
260,245,79896,2,0,L|268:160,1,85,8|0,0:0|0:0,0:0:0:0:
72,64,80253,2,0,L|78:148,1,85,8|0,0:0|0:0,0:0:0:0:
212,316,80610,5,6,0:0:0:0:
176,136,80788,1,0,0:0:0:0:
84,336,80967,1,8,0:0:0:0:
48,156,81146,1,0,0:0:0:0:
48,156,81235,1,8,0:0:0:0:
48,156,81324,1,8,0:0:0:0:
252,212,81503,1,0,0:0:0:0:
8,260,81681,1,8,0:0:0:0:
164,48,81860,6,0,P|108:84|8:28,1,170,4|0,0:0|0:0,0:0:0:0:
264,8,82396,2,0,L|256:132,1,85,8|0,0:0|0:0,0:0:0:0:
252,172,82663,1,8,0:0:0:0:
252,172,82753,1,8,0:0:0:0:
392,76,82931,1,0,0:0:0:0:
460,248,83110,2,0,L|417:251,1,42.5,8|8,0:0|0:0,0:0:0:0:
340,296,83288,2,0,L|297:299,1,42.5,8|8,0:0|0:0,0:0:0:0:
220,344,83467,6,0,P|176:304|60:328,1,170,6|8,0:0|0:0,0:0:0:0:
8,128,84003,1,0,0:0:0:0:
8,128,84092,1,8,0:0:0:0:
8,128,84181,1,8,0:0:0:0:
200,168,84360,1,0,0:0:0:0:
0,268,84538,1,8,0:0:0:0:
136,84,84717,6,0,P|217:64|285:108,1,170,4|0,0:0|0:0,0:0:0:0:
380,304,85253,1,8,0:0:0:0:
200,168,85431,1,0,0:0:0:0:
200,168,85521,1,8,0:0:0:0:
200,168,85610,1,8,0:0:0:0:
420,172,85788,1,0,0:0:0:0:
220,308,85967,2,0,P|164:308|104:300,1,85,8|0,0:0|0:0,0:0:0:0:
310,170,86324,5,8,0:0:0:0:
104,116,86503,1,0,0:0:0:0:
344,24,86681,1,8,0:0:0:0:
200,168,86860,1,8,0:0:0:0:
200,168,86949,1,8,0:0:0:0:
200,168,87038,2,0,L|196:224,1,42.5,8|0,0:0|0:0,0:0:0:0:
192,288,87217,1,0,0:0:0:0:
316,136,87396,1,8,0:0:0:0:
384,356,87574,5,8,0:0:0:0:
384,356,87663,1,8,0:0:0:0:
384,356,87753,1,8,0:0:0:0:
224,216,87931,1,0,0:0:0:0:
484,124,88110,1,8,0:0:0:0:
308,292,88288,5,8,0:0:0:0:
308,292,88378,1,8,0:0:0:0:
308,292,88467,1,8,0:0:0:0:
328,84,88646,1,0,0:0:0:0:
480,308,88824,1,8,0:0:0:0:
260,180,89003,1,8,0:0:0:0:
260,180,89092,1,8,0:0:0:0:
260,180,89181,6,0,P|212:168|148:208,1,127.500004863739,6|8,0:0|0:0,0:0:0:0:
260,340,89717,2,0,L|322:326,1,63.7500024318696,2|0,0:0|0:0,0:0:0:0:
496,288,90074,1,8,0:0:0:0:
260,180,90253,1,2,0:0:0:0:
340,324,90431,5,4,0:0:0:0:
256,192,90521,12,0,91681,0:0:0:0:
84,100,92038,5,6,0:0:0:0:
68,280,92217,1,0,0:0:0:0:
240,192,92396,2,0,P|198:183|156:190,1,85,8|0,0:0|0:0,0:0:0:0:
284,308,92753,1,2,0:0:0:0:
392,184,92931,2,0,L|378:100,1,85,0|8,0:0|0:0,0:0:0:0:
196,16,93288,6,0,L|182:99,1,85,4|2,0:0|0:0,0:0:0:0:
152,272,93646,1,0,0:0:0:0:
72,96,93824,1,8,0:0:0:0:
268,168,94003,2,0,P|316:176|364:168,1,85,0|2,0:0|0:0,0:0:0:0:
508,40,94360,1,0,0:0:0:0:
316,72,94538,1,12,0:0:0:0:
508,168,94717,1,0,0:0:0:0:
323,282,94895,6,0,P|311:242|316:200,1,85,6|0,0:0|0:0,0:0:0:0:
176,56,95253,2,0,P|180:98|168:138,1,85,8|0,0:0|0:0,0:0:0:0:
40,284,95610,1,2,0:0:0:0:
84,88,95788,1,0,0:0:0:0:
160,324,95967,1,8,0:0:0:0:
332,116,96145,6,0,P|253:140|183:96,1,170,4|0,0:0|0:0,0:0:0:0:
384,32,96681,1,8,0:0:0:0:
372,228,96860,1,0,0:0:0:0:
172,64,97038,1,2,0:0:0:0:
188,264,97217,1,0,0:0:0:0:
448,128,97396,1,12,0:0:0:0:
448,128,97753,5,6,0:0:0:0:
268,112,97932,1,0,0:0:0:0:
356,284,98111,2,0,P|365:242|358:200,1,85,8|0,0:0|0:0,0:0:0:0:
248,320,98468,1,2,0:0:0:0:
408,376,98646,2,0,L|492:362,1,85,0|8,0:0|0:0,0:0:0:0:
512,184,99003,6,0,L|429:170,1,85,4|2,0:0|0:0,0:0:0:0:
224,136,99360,1,0,0:0:0:0:
408,48,99538,1,8,0:0:0:0:
312,224,99717,2,0,P|307:266|312:308,1,85,0|2,0:0|0:0,0:0:0:0:
132,368,100074,1,0,0:0:0:0:
152,192,100253,1,12,0:0:0:0:
332,340,100431,1,0,0:0:0:0:
71,302,100610,6,0,P|155:281|215:333,1,170,6|0,0:0|0:0,0:0:0:0:
396,232,101146,1,0,0:0:0:0:
396,232,101235,1,8,0:0:0:0:
396,232,101324,1,8,0:0:0:0:
184,200,101503,1,0,0:0:0:0:
364,360,101681,1,8,0:0:0:0:
468,128,101860,6,0,P|384:149|324:97,1,170,4|0,0:0|0:0,0:0:0:0:
156,192,102396,1,8,0:0:0:0:
256,364,102574,2,0,L|263:194,1,170,4|0,0:0|0:0,0:0:0:0:
392,348,103110,1,8,0:0:0:0:
132,300,103288,1,0,0:0:0:0:
132,300,103646,5,2,0:0:0:0:
199,364,103824,1,2,0:0:0:0:
243,183,104003,1,2,0:0:0:0:
153,208,104181,1,2,0:0:0:0:
288,338,104360,1,2,0:0:0:0:
310,247,104538,1,2,0:0:0:0:
132,300,104717,1,0,1:0:0:0:
132,300,105074,5,0,1:0:0:0:
376,312,105253,1,0,1:0:0:0:
264,92,105431,1,4,1:2:0:0:
256,192,105521,12,0,107038,0:0:0:0:
