osu file format v14

[General]
AudioFilename: jump.mp3
AudioLeadIn: 0
PreviewTime: 65699
Countdown: 0
SampleSet: Soft
StackLeniency: 0.4
Mode: 0
LetterboxInBreaks: 0
WidescreenStoryboard: 1

[Editor]
DistanceSpacing: 0.6
BeatDivisor: 4
GridSize: 4
TimelineZoom: 1.5

[Metadata]
Title:Koujou Joujou High Jump (Short Ver.)
TitleUnicode:向上上々ハイジャンプ↑↑↑↑ (Short Ver.)
Artist:fourfolium
ArtistUnicode:fourfolium
Creator:Doormat
Version:Curi's Insane
Source:NEW GAME! -THE CHALLENGE STAGE!-
Tags:Kibbleru [C_u_r_i] Curi フォーフォリウム ニューゲーム ザ チャレンジステージ ending ed game size takada yuuki 高田憂希 suzukaze aoba 涼風青葉 yamaguchi megumi 山口愛 takimoto hifumi 滝本ひふみ toda megumi 戸田めぐみ shinoda hazime 篠田はじめ ayumi takeo 竹尾歩美 iizima yun 飯島ゆん
BeatmapID:1343645
BeatmapSetID:569697

[Difficulty]
HPDrainRate:6
CircleSize:4
OverallDifficulty:7.7
ApproachRate:9
SliderMultiplier:1.6
SliderTickRate:1

[Events]
//Background and Video events
0,0,"newgame_background.jpg",0,0
//Break Periods
//Storyboard Layer 0 (Background)
//Storyboard Layer 1 (Fail)
//Storyboard Layer 2 (Pass)
//Storyboard Layer 3 (Foreground)
//Storyboard Sound Samples

[TimingPoints]
2039,357.142857142857,4,2,1,60,1,0
2039,-111.111111111111,4,2,1,60,0,0
7753,-90.9090909090909,4,2,1,70,0,1
19181,-100,4,2,1,60,0,0
30610,-111.111111111111,4,2,1,40,0,0
41949,-111.111111111111,4,2,1,40,0,0
42038,-100,4,2,1,50,0,0
53467,-133.333333333333,4,2,1,40,0,0
59181,-111.111111111111,4,2,1,60,0,0
60610,-111.111111111111,4,2,1,60,0,0
62038,-111.111111111111,4,2,1,60,0,0
63467,-111.111111111111,4,2,1,60,0,0
66324,-90.9090909090909,4,2,1,60,0,1
77663,-90.9090909090909,4,2,1,60,0,0
77753,-90.9090909090909,4,2,1,60,0,1
89181,-133.333333333333,4,2,1,60,0,0
92038,-100,4,2,1,60,0,0
103646,-133.333333333333,4,2,2,30,0,0
104717,-100,4,2,1,60,0,0
107753,-100,4,2,1,10,0,0

[Colours]
Combo1 : 236,164,22
Combo2 : 84,171,80
Combo3 : 238,43,22
Combo4 : 62,172,199
Combo5 : 229,147,122

[HitObjects]
200,96,2039,5,6,0:0:0:0:
185,246,2217,2,0,L|195:150,1,71.9999978027344,0|0,0:0|0:0,0:0:0:0:
119,297,2574,2,0,P|177:329|258:290,1,143.999995605469,2|4,0:0|0:3,0:0:0:0:
112,219,3110,1,2,0:3:0:0:
112,219,3467,5,6,0:0:0:0:
130,68,3646,2,0,L|122:139,1,71.9999978027344,0|0,0:0|0:0,0:0:0:0:
119,297,4003,2,0,P|177:329|258:290,1,143.999995605469,2|4,0:0|0:3,0:0:0:0:
311,141,4539,1,8,0:0:0:0:
185,246,4717,1,0,0:0:0:0:
332,317,4896,5,6,0:0:0:0:
256,203,5074,2,0,L|263:293,1,71.9999978027344,0|0,0:0|0:0,0:0:0:0:
412,359,5431,2,0,L|402:215,1,143.999995605469,2|0,0:0|0:0,0:0:0:0:
332,317,5967,1,8,0:0:0:0:
481,241,6146,1,0,0:0:0:0:
326,97,6324,6,0,L|333:187,1,71.9999978027344,8|0,0:0|0:0,0:0:0:0:
199,342,6681,2,0,P|154:343|112:310,1,71.9999978027344,8|0,0:0|0:0,0:0:0:0:
178,269,6949,1,0,0:0:0:0:
178,269,7038,1,8,0:0:0:0:
171,185,7217,2,0,L|176:240,1,35.9999989013672,0|0,0:0|0:0,0:0:0:0:
78,127,7396,2,0,L|83:72,1,35.9999989013672,8|0,0:0|0:0,0:0:0:0:
159,28,7574,1,0,0:0:0:0:
89,207,7753,6,0,P|133:206|170:184,1,88.000002685547,6|0,0:0|0:0,0:0:0:0:
275,37,8110,2,0,P|318:38|356:60,1,88.000002685547,8|0,0:0|0:0,0:0:0:0:
382,136,8378,1,8,0:0:0:0:
382,136,8467,1,8,0:0:0:0:
308,247,8646,2,0,L|297:153,1,88.000002685547,0|8,0:0|0:0,0:0:0:0:
417,273,9003,1,4,0:0:0:0:
230,325,9181,6,0,P|173:321|134:280,1,88.000002685547,2|0,0:0|0:0,0:0:0:0:
286,166,9538,2,0,P|311:217|295:271,1,88.000002685547,8|0,0:0|0:0,0:0:0:0:
233,226,9806,1,8,0:0:0:0:
233,226,9896,2,0,L|110:212,1,88.000002685547,8|0,0:0|0:0,0:0:0:0:
339,104,10253,2,0,L|426:94,1,88.000002685547,8|0,0:0|0:0,0:0:0:0:
504,83,10521,1,0,0:0:0:0:
504,83,10610,5,6,0:0:0:0:
509,219,10788,2,0,P|460:199|421:194,1,88.000002685547,0|8,0:0|0:0,0:0:0:0:
339,104,11146,1,0,0:0:0:0:
339,104,11235,1,8,0:0:0:0:
339,104,11324,2,0,P|382:96|422:79,1,88.000002685547,8|0,0:0|0:0,0:0:0:0:
248,72,11681,1,8,0:0:0:0:
88,146,11860,6,0,P|61:243|115:298,1,176.000005371094,4|0,0:0|0:0,0:0:0:0:
268,269,12396,2,0,P|227:280|172:291,1,88.000002685547,8|0,0:0|0:0,0:0:0:0:
105,293,12663,1,8,0:0:0:0:
105,293,12753,1,8,0:0:0:0:
216,157,12931,1,0,0:0:0:0:
216,157,13021,1,0,0:0:0:0:
216,157,13110,2,0,L|205:224,1,44.0000013427735,8|8,0:0|0:0,0:0:0:0:
98,250,13288,2,0,L|109:317,1,44.0000013427735,8|8,0:0|0:0,0:0:0:0:
257,359,13467,6,0,B|295:378|348:351|348:351|399:325|438:346,1,176.000005371094,6|8,0:0|0:0,0:0:0:0:
347,214,14003,1,0,0:0:0:0:
347,214,14092,1,8,0:0:0:0:
347,214,14181,2,0,P|355:272|361:323,1,88.000002685547,8|0,0:0|0:0,0:0:0:0:
409,143,14538,1,8,0:0:0:0:
268,61,14717,6,0,P|204:51|144:152,1,176.000005371094,4|0,0:0|0:0,0:0:0:0:
264,260,15253,2,0,P|204:245|154:246,1,88.000002685547,8|0,0:0|0:0,0:0:0:0:
105,265,15521,1,8,0:0:0:0:
105,265,15610,1,8,0:0:0:0:
224,133,15788,1,0,0:0:0:0:
50,177,15967,2,0,P|93:173|135:161,1,88.000002685547,8|0,0:0|0:0,0:0:0:0:
283,54,16324,5,8,0:0:0:0:
117,45,16503,1,0,0:0:0:0:
310,44,16681,2,0,P|353:47|395:59,1,88.000002685547,8|8,0:0|0:0,0:0:0:0:
463,105,16949,1,8,0:0:0:0:
463,105,17038,2,0,L|476:170,2,44.0000013427735,8|0|0,0:0|0:0|0:0,0:0:0:0:
324,159,17396,1,8,0:0:0:0:
442,261,17574,1,8,0:0:0:0:
442,261,17663,1,8,0:0:0:0:
442,261,17753,5,8,0:0:0:0:
319,136,17931,1,0,0:0:0:0:
277,304,18110,1,8,0:0:0:0:
140,186,18288,1,8,0:0:0:0:
140,186,18378,1,8,0:0:0:0:
140,186,18467,1,8,0:0:0:0:
253,57,18646,1,0,0:0:0:0:
304,219,18824,2,0,P|234:201|200:199,1,88.000002685547,8|8,0:0|0:0,0:0:0:0:
140,186,19092,1,8,0:0:0:0:
140,186,19181,5,6,0:0:0:0:
159,332,19360,1,0,0:0:0:0:
46,216,19538,2,0,L|35:327,1,80,8|0,0:0|0:0,0:0:0:0:
58,102,19896,1,2,0:0:0:0:
218,199,20074,2,0,P|261:192|298:179,1,80,0|8,0:0|0:0,0:0:0:0:
369,59,20431,1,4,0:0:0:0:
496,220,20610,6,0,P|458:207|418:201,1,80,2|0,0:0|0:0,0:0:0:0:
475,341,20967,1,8,0:0:0:0:
339,244,21146,2,0,P|326:281|320:321,1,80,0|2,0:0|0:0,0:0:0:0:
418,201,21503,1,0,0:0:0:0:
320,321,21681,1,12,0:0:0:0:
259,166,21860,1,0,0:0:0:0:
125,291,22038,6,0,L|232:307,1,80,6|0,0:0|0:0,0:0:0:0:
339,156,22396,2,0,L|259:167,1,80,8|0,0:0|0:0,0:0:0:0:
120,72,22753,1,2,0:0:0:0:
201,225,22931,1,0,0:0:0:0:
285,82,23110,1,8,0:0:0:0:
96,66,23288,6,0,P|84:127|75:236,1,160,0|0,0:0|0:0,0:0:0:0:
190,29,23824,2,0,P|196:101|202:132,1,80,8|0,0:0|0:0,0:0:0:0:
366,121,24181,2,0,P|360:193|354:224,1,80,2|0,0:0|0:0,0:0:0:0:
184,252,24538,1,12,0:0:0:0:
282,158,24717,1,0,0:0:0:0:
360,322,24896,5,6,0:0:0:0:
184,252,25074,1,0,0:0:0:0:
358,200,25253,2,0,L|451:183,1,80,8|0,0:0|0:0,0:0:0:0:
269,288,25610,1,2,0:0:0:0:
145,335,25788,2,0,L|66:320,1,80,0|8,0:0|0:0,0:0:0:0:
360,322,26146,6,0,P|382:240|317:180,1,160,4|0,0:0|0:0,0:0:0:0:
187,172,26681,2,0,P|184:222|184:275,1,80,8|0,0:0|0:0,0:0:0:0:
360,322,27038,2,0,P|359:282|356:242,1,80,2|0,0:0|0:0,0:0:0:0:
206,79,27396,1,12,0:0:0:0:
350,106,27574,1,0,0:0:0:0:
176,76,27753,6,0,L|94:89,1,80,6|0,0:0|0:0,0:0:0:0:
289,13,28110,2,0,L|368:25,1,80,8|0,0:0|0:0,0:0:0:0:
448,41,28378,1,8,0:0:0:0:
448,41,28467,1,8,0:0:0:0:
316,105,28646,1,0,0:0:0:0:
436,191,28824,1,8,0:0:0:0:
305,318,29003,6,0,B|277:333|230:315|230:315|180:292|137:315,1,160,4|0,0:0|0:0,0:0:0:0:
84,360,29538,1,8,0:0:0:0:
161,149,29717,2,0,P|152:229|149:309,1,160,4|0,0:0|0:0,0:0:0:0:
245,191,30253,1,8,0:0:0:0:
305,318,30431,1,0,0:0:0:0:
411,219,30610,6,0,P|373:223|326:232,1,71.9999978027344,6|0,0:0|0:0,0:0:0:0:
173,181,30967,2,0,P|208:187|244:190,1,71.9999978027344,2|0,0:0|0:0,0:0:0:0:
357,132,31324,1,2,0:0:0:0:
277,16,31503,2,0,P|270:51|267:87,1,71.9999978027344,0|2,0:0|0:0,0:0:0:0:
478,174,31860,6,0,P|427:126|358:132,1,143.999995605469,0|0,0:0|0:0,0:0:0:0:
244,190,32396,1,2,0:0:0:0:
244,190,32574,2,0,P|174:195|124:147,1,143.999995605469,0|0,0:0|0:0,0:0:0:0:
90,1,33110,1,2,0:0:0:0:
203,122,33288,1,0,0:0:0:0:
54,220,33467,5,2,0:0:0:0:
112,76,33646,2,0,P|124:143|124:176,1,71.9999978027344,0|2,0:0|0:0,0:0:0:0:
36,316,34003,2,0,P|39:280|48:245,1,71.9999978027344,0|2,0:0|0:0,0:0:0:0:
243,282,34360,2,0,P|210:296|175:306,1,71.9999978027344,0|2,0:0|0:0,0:0:0:0:
124,146,34717,6,0,P|206:147|290:172,1,143.999995605469,0|0,0:0|0:0,0:0:0:0:
183,221,35253,1,2,0:0:0:0:
274,356,35431,2,0,P|356:355|440:330,1,143.999995605469,0|0,0:0|0:0,0:0:0:0:
410,208,35967,2,0,P|362:227|324:254,1,71.9999978027344,2|0,0:0|0:0,0:0:0:0:
331,254,36235,1,0,0:0:0:0:
331,254,36324,5,2,0:0:0:0:
476,281,36503,1,0,0:0:0:0:
400,136,36681,2,0,L|413:237,1,71.9999978027344,2|0,0:0|0:0,0:0:0:0:
485,84,37038,1,2,0:0:0:0:
341,58,37217,2,0,P|298:57|258:61,1,71.9999978027344,0|2,0:0|0:0,0:0:0:0:
109,173,37574,6,0,P|177:185|230:125,1,143.999995605469,0|0,0:0|0:0,0:0:0:0:
77,103,38110,1,2,0:0:0:0:
77,103,38288,2,0,P|33:156|50:224,1,143.999995605469,0|0,0:0|0:0,0:0:0:0:
126,341,38824,2,0,L|213:334,1,71.9999978027344,2|0,0:0|0:0,0:0:0:0:
226,136,39181,6,0,L|378:147,1,143.999995605469,6|0,0:0|0:0,0:0:0:0:
488,260,39717,2,0,P|439:249|405:247,1,71.9999978027344,0|0,0:0|0:0,0:0:0:0:
298,159,40074,2,0,P|333:155|368:146,1,71.9999978027344,0|0,0:0|0:0,0:0:0:0:
485,343,40431,6,0,P|429:326|328:314,1,143.999995605469,4|0,0:0|0:0,0:0:0:0:
488,260,40967,1,8,0:0:0:0:
322,325,41146,1,0,0:0:0:0:
322,325,41235,1,8,0:0:0:0:
322,325,41324,1,8,0:0:0:0:
453,177,41503,1,0,0:0:0:0:
272,230,41681,2,0,P|220:228|146:208,1,107.999996704102,8|0,0:0|0:0,0:0:0:0:
142,207,42038,6,0,L|156:309,1,80,6|0,0:0|0:0,0:0:0:0:
15,375,42396,2,0,L|29:273,1,80,8|0,0:0|0:0,0:0:0:0:
38,225,42663,1,8,0:0:0:0:
38,225,42753,1,8,0:0:0:0:
0,126,42931,2,0,P|47:146|91:156,1,80,0|8,0:0|0:0,0:0:0:0:
272,60,43288,6,0,P|166:48|124:111,1,160,0|0,0:0|0:0,0:0:0:0:
36,236,43824,1,8,0:0:0:0:
36,236,44003,2,0,P|142:224|184:287,1,160
69,129,44538,1,8,0:0:0:0:
103,302,44717,1,0,0:0:0:0:
103,302,44806,1,0,0:0:0:0:
103,302,44896,5,2,0:0:0:0:
224,174,45074,2,0,P|153:180|108:189,1,80,0|8,0:0|0:0,0:0:0:0:
260,333,45431,2,0,P|220:330|198:329,2,40,0|8|8,0:0|0:0|0:0,0:0:0:0:
400,242,45788,2,0,P|329:248|284:257,1,80,0|8,0:0|0:0,0:0:0:0:
470,304,46146,6,0,P|492:252|447:162,1,160,0|0,0:0|0:0,0:0:0:0:
299,148,46681,2,0,L|317:242,1,80,8|0,0:0|0:0,0:0:0:0:
331,302,46949,1,8,0:0:0:0:
331,302,47038,1,8,0:0:0:0:
383,97,47217,1,0,0:0:0:0:
218,94,47396,2,0,P|159:84|106:73,1,80,8|0,0:0|0:0,0:0:0:0:
68,67,47663,1,0,0:0:0:0:
68,67,47753,5,2,0:0:0:0:
171,183,47931,1,0,0:0:0:0:
136,323,48110,2,0,P|175:315|214:309,1,80,8|0,0:0|0:0,0:0:0:0:
292,314,48378,1,8,0:0:0:0:
292,314,48467,1,8,0:0:0:0:
444,352,48646,2,0,P|404:345|365:338,1,80,0|8,0:0|0:0,0:0:0:0:
508,150,49003,6,0,P|534:223|477:291,1,160,0|0,0:0|0:0,0:0:0:0:
307,233,49538,1,8,0:0:0:0:
307,233,49717,2,0,B|350:199|350:199|454:210,1,160
246,289,50253,2,0,P|225:230|235:194,1,80,8|0,0:0|0:0,0:0:0:0:
262,145,50521,1,0,0:0:0:0:
262,145,50610,6,0,P|275:95|179:38,1,160,2|8,0:0|0:0,0:0:0:0:
108,156,51146,2,0,P|147:144|178:138,2,40,0|8|8,0:0|0:0|0:0,0:0:0:0:
279,40,51503,2,0,P|234:38|181:28,1,80,0|8,0:0|0:0,0:0:0:0:
21,123,51860,6,0,P|77:175|146:144,1,160,4|0,0:0|0:0,0:0:0:0:
291,297,52396,2,0,L|275:209,1,80,8|0,0:0|0:0,0:0:0:0:
262,145,52663,1,8,0:0:0:0:
262,145,52753,1,8,0:0:0:0:
133,251,52931,1,0,0:0:0:0:
248,366,53110,2,0,P|321:371|349:349,1,80,8|0,0:0|0:0,0:0:0:0:
373,307,53378,1,0,0:0:0:0:
373,307,53467,6,0,L|348:171,1,120.000004577637,6|8,0:0|0:0,0:0:0:0:
468,104,54003,2,0,L|446:222,1,120.000004577637,2|0,0:0|0:0,0:0:0:0:
382,107,54538,1,8,0:0:0:0:
311,46,54717,6,0,P|254:38|199:86,1,120.000004577637,2|0,0:0|0:0,0:0:0:0:
51,117,55253,2,0,P|98:151|156:143,2,120.000004577637,2|8|2,0:0|0:0|0:0,0:0:0:0:
273,113,56324,6,0,P|268:177|265:253,1,120.000004577637,2|8,0:0|0:0,0:0:0:0:
187,341,56860,2,0,P|184:281|179:221,1,120.000004577637,2|0,0:0|0:0,0:0:0:0:
268,316,57396,1,8,0:0:0:0:
341,359,57574,6,0,P|387:359|419:347,1,60.0000022888184,0|2,0:0|0:0,0:0:0:0:
393,226,57931,2,0,P|370:265|364:299,1,60.0000022888184,0|2,0:0|0:0,0:0:0:0:
484,338,58288,2,0,P|461:298|434:276,1,60.0000022888184,0|8,0:0|0:0,0:0:0:0:
366,278,58646,1,0,0:0:0:0:
500,226,58824,1,2,0:0:0:0:
500,226,58913,1,0,0:0:0:0:
500,226,59003,1,0,0:0:0:0:
365,72,59181,5,2,0:0:0:0:
365,72,59360,1,2,0:0:0:0:
267,153,59538,2,0,L|280:250,1,71.9999978027344,8|0,0:0|0:0,0:0:0:0:
148,78,59896,1,2,0:0:0:0:
148,78,60074,1,2,0:0:0:0:
49,159,60253,2,0,L|36:256,1,71.9999978027344,8|0,0:0|0:0,0:0:0:0:
33,308,60521,1,8,0:0:0:0:
33,308,60610,5,2,0:0:0:0:
117,282,60788,1,2,0:0:0:0:
166,354,60967,2,0,P|225:344|249:326,1,71.9999978027344,8|0,0:0|0:0,0:0:0:0:
117,282,61324,1,2,0:0:0:0:
117,282,61503,1,2,0:0:0:0:
297,283,61681,2,0,P|327:231|328:201,1,71.9999978027344,8|0,0:0|0:0,0:0:0:0:
325,148,61949,1,8,0:0:0:0:
325,148,62038,5,8,0:0:0:0:
232,186,62217,1,2,0:0:0:0:
325,148,62396,1,2,0:0:0:0:
178,106,62574,1,8,0:0:0:0:
369,75,62753,1,2,0:0:0:0:
178,106,62931,1,2,0:0:0:0:
413,147,63110,1,8,0:0:0:0:
156,192,63288,1,8,0:0:0:0:
156,192,63378,1,8,0:0:0:0:
156,192,63467,5,8,0:0:0:0:
341,290,63646,2,0,L|327:216,1,71.9999978027344,2|0,0:0|0:0,0:0:0:0:
142,343,64003,2,0,P|214:366|278:317,1,143.999995605469,0|0,0:0|0:0,0:0:0:0:
399,222,64538,2,0,P|337:220|319:218,1,71.9999978027344,8|0,0:0|0:0,0:0:0:0:
430,305,64896,5,8,0:0:0:0:
410,136,65074,1,0,0:0:0:0:
342,298,65253,1,8,0:0:0:0:
512,281,65431,1,0,0:0:0:0:
512,281,65521,1,0,0:0:0:0:
512,281,65610,1,8,0:0:0:0:
410,136,65788,2,0,L|418:195,1,35.9999989013672,0|0,0:0|0:0,0:0:0:0:
501,77,65967,2,0,L|505:41,1,35.9999989013672,8|0,0:0|0:0,0:0:0:0:
355,6,66146,2,0,L|363:65,1,35.9999989013672,0|0,0:0|0:0,0:0:0:0:
504,41,66324,5,6,0:0:0:0:
359,41,66503,2,0,L|252:34,1,88.000002685547,0|8,0:0|0:0,0:0:0:0:
410,136,66860,1,0,0:0:0:0:
410,136,66949,1,8,0:0:0:0:
410,136,67038,1,8,0:0:0:0:
294,234,67217,2,0,P|286:185|299:146,1,88.000002685547,0|8,0:0|0:0,0:0:0:0:
512,245,67574,6,0,B|443:258|443:258|420:280|420:280|341:295,1,176.000005371094,4|0,0:0|0:0,0:0:0:0:
209,222,68110,2,0,B|252:217|252:217|294:234,1,88.000002685547,8|0,0:0|0:0,0:0:0:0:
347,293,68378,1,0,0:0:0:0:
347,293,68467,1,8,0:0:0:0:
252,307,68646,1,0,0:0:0:0:
283,147,68824,1,8,0:0:0:0:
367,204,69003,1,0,0:0:0:0:
209,222,69181,5,6,0:0:0:0:
285,59,69360,2,0,L|282:156,1,88.000002685547,0|8,0:0|0:0,0:0:0:0:
204,16,69717,1,0,0:0:0:0:
204,16,69806,1,8,0:0:0:0:
204,16,69896,1,8,0:0:0:0:
368,23,70074,2,0,P|417:29|463:66,1,88.000002685547,0|8,0:0|0:0,0:0:0:0:
405,281,70431,6,0,B|401:209|401:209|386:186|386:186|380:104,1,176.000005371094,4|0,0:0|0:0,0:0:0:0:
489,273,70967,2,0,P|472:335|441:357,1,88.000002685547,8|0,0:0|0:0,0:0:0:0:
379,363,71235,1,8,0:0:0:0:
379,363,71324,1,8,0:0:0:0:
434,201,71503,1,0,0:0:0:0:
291,354,71681,2,0,L|185:339,1,88.000002685547,8|0,0:0|0:0,0:0:0:0:
128,359,71949,1,8,0:0:0:0:
128,359,72038,6,0,P|139:299|157:180,1,176.000005371094,6|8,0:0|0:0,0:0:0:0:
22,309,72574,1,0,0:0:0:0:
22,309,72663,1,8,0:0:0:0:
22,309,72753,1,8,0:0:0:0:
0,134,72931,2,0,P|8:201|13:232,1,88.000002685547,0|8,0:0|0:0,0:0:0:0:
105,50,73288,6,0,B|145:26|193:50|193:50|241:73|282:49,1,176.000005371094,4|0,0:0|0:0,0:0:0:0:
246,279,73824,2,0,P|234:200|248:172,1,88.000002685547,8|0,0:0|0:0,0:0:0:0:
284,138,74092,1,8,0:0:0:0:
284,138,74181,1,8,0:0:0:0:
375,222,74360,1,0,0:0:0:0:
436,80,74538,2,0,P|441:123|425:164,1,88.000002685547,8|0,0:0|0:0,0:0:0:0:
273,53,74896,5,8,0:0:0:0:
375,222,75074,1,0,0:0:0:0:
273,53,75253,2,0,L|163:68,1,88.000002685547,8|8,0:0|0:0,0:0:0:0:
111,93,75521,1,8,0:0:0:0:
111,93,75610,2,0,L|101:26,2,44.0000013427735,8|0|0,0:0|0:0|0:0,0:0:0:0:
235,194,75967,1,8,0:0:0:0:
49,202,76146,6,0,L|59:135,2,44.0000013427735,8|8|8,0:0|0:0|0:0,0:0:0:0:
176,316,76503,2,0,L|263:327,1,88.000002685547,8|8,0:0|0:0,0:0:0:0:
143,199,76860,1,8,0:0:0:0:
143,199,76949,1,8,0:0:0:0:
143,199,77038,1,8,0:0:0:0:
329,189,77217,2,0,L|322:232,1,44.0000013427735,0|0,0:0|0:0,0:0:0:0:
262,327,77396,2,0,L|256:284,1,44.0000013427735,8|0,0:0|0:0,0:0:0:0:
407,230,77574,2,0,L|414:274,1,44.0000013427735,0|0,0:0|0:0,0:0:0:0:
242,370,77753,6,0,L|256:278,1,88.000002685547,6|0,0:0|0:0,0:0:0:0:
422,356,78110,1,8,0:0:0:0:
329,189,78288,1,0,0:0:0:0:
329,189,78378,1,8,0:0:0:0:
329,189,78467,1,8,0:0:0:0:
432,49,78646,2,0,L|445:135,1,88.000002685547,0|8,0:0|0:0,0:0:0:0:
307,25,79003,1,4,0:0:0:0:
195,193,79181,6,0,P|131:192|87:157,1,88.000002685547,2|0,0:0|0:0,0:0:0:0:
215,44,79538,2,0,P|246:99|237:155,1,88.000002685547,8|0,0:0|0:0,0:0:0:0:
166,113,79806,1,0,0:0:0:0:
166,113,79896,2,0,L|78:104,1,88.000002685547,8|0,0:0|0:0,0:0:0:0:
246,122,80253,1,8,0:0:0:0:
91,23,80431,1,0,0:0:0:0:
307,25,80610,5,6,0:0:0:0:
156,200,80788,2,0,L|166:109,1,88.000002685547,0|8,0:0|0:0,0:0:0:0:
274,279,81146,1,0,0:0:0:0:
274,279,81235,1,8,0:0:0:0:
274,279,81324,1,8,0:0:0:0:
93,323,81503,2,0,P|129:298|172:290,1,88.000002685547,0|8,0:0|0:0,0:0:0:0:
444,288,81860,6,0,B|370:278|370:278|352:290|352:290|273:278,1,176.000005371094,4|0,0:0|0:0,0:0:0:0:
69,214,82396,2,0,L|155:199,1,88.000002685547,8|0,0:0|0:0,0:0:0:0:
232,187,82663,1,8,0:0:0:0:
232,187,82753,1,8,0:0:0:0:
388,158,82931,1,0,0:0:0:0:
388,158,83021,1,0,0:0:0:0:
388,158,83110,2,0,L|316:146,1,44.0000013427735,8|8,0:0|0:0,0:0:0:0:
221,90,83288,2,0,L|293:78,1,44.0000013427735,8|8,0:0|0:0,0:0:0:0:
457,89,83467,6,0,P|482:182|421:251,1,176.000005371094,6|8,0:0|0:0,0:0:0:0:
321,150,84003,1,0,0:0:0:0:
321,150,84092,1,8,0:0:0:0:
321,150,84181,1,8,0:0:0:0:
355,323,84360,2,0,P|354:253|351:224,1,88.000002685547,0|8,0:0|0:0,0:0:0:0:
264,82,84717,6,0,B|236:70|184:94|184:94|125:120|77:84,1,176.000005371094,4|0,0:0|0:0,0:0:0:0:
207,199,85253,1,8,0:0:0:0:
103,329,85431,1,0,0:0:0:0:
103,329,85521,1,8,0:0:0:0:
103,329,85610,1,8,0:0:0:0:
44,162,85788,1,0,0:0:0:0:
173,281,85967,2,0,L|307:264,1,132.00000402832,8|0,0:0|0:0,0:0:0:0:
383,251,86324,5,8,0:0:0:0:
271,350,86503,1,0,0:0:0:0:
444,325,86681,1,8,0:0:0:0:
303,264,86860,1,8,0:0:0:0:
303,264,86949,1,8,0:0:0:0:
303,264,87038,2,0,L|293:211,1,44.0000013427735,8|0,0:0|0:0,0:0:0:0:
410,126,87217,2,0,L|401:169,1,44.0000013427735,0|0,0:0|0:0,0:0:0:0:
275,83,87396,1,8,0:0:0:0:
415,34,87574,2,0,L|472:27,2,44.0000013427735,8|8|8,0:0|0:0|0:0,0:0:0:0:
275,83,87931,5,0,0:0:0:0:
410,126,88110,1,8,0:0:0:0:
240,172,88288,1,8,0:0:0:0:
240,172,88378,1,8,0:0:0:0:
240,172,88467,1,8,0:0:0:0:
318,11,88646,1,0,0:0:0:0:
337,191,88824,1,8,0:0:0:0:
161,212,89003,1,8,0:0:0:0:
135,30,89181,6,0,P|221:55|251:81,1,120.000004577637,6|8,0:0|0:0,0:0:0:0:
395,183,89717,2,0,P|349:186|325:195,1,60.0000022888184,2|0,0:0|0:0,0:0:0:0:
161,212,90074,2,0,P|207:215|231:224,1,60.0000022888184,8|2,0:0|0:0,0:0:0:0:
340,309,90431,1,4,0:0:0:0:
340,309,92038,5,6,0:0:0:0:
238,331,92217,1,0,0:0:0:0:
424,369,92396,2,0,P|431:320|440:270,1,80,8|0,0:0|0:0,0:0:0:0:
331,341,92753,1,2,0:0:0:0:
365,210,92931,2,0,P|319:228|271:245,1,80,0|8,0:0|0:0,0:0:0:0:
78,255,93288,6,0,P|115:268|152:283,1,80,4|2,0:0|0:0,0:0:0:0:
15,320,93646,1,0,0:0:0:0:
140,204,93824,2,0,P|146:243|152:283,1,80,8|0,0:0|0:0,0:0:0:0:
0,138,94181,2,0,P|5:98|12:58,1,80,2|0,0:0|0:0,0:0:0:0:
0,217,94538,1,12,0:0:0:0:
135,117,94717,1,0,0:0:0:0:
228,296,94896,6,0,P|166:290|138:272,1,80,6|0,0:0|0:0,0:0:0:0:
212,83,95253,2,0,P|248:68|288:69,1,80,8|0,0:0|0:0,0:0:0:0:
387,259,95610,1,2,0:0:0:0:
265,150,95788,1,0,0:0:0:0:
417,91,95967,1,8,0:0:0:0:
263,305,96146,6,0,B|269:240|269:240|256:216|256:216|264:149,1,160,0|0,0:0|0:0,0:0:0:0:
387,259,96681,2,0,L|377:177,1,80,8|0,0:0|0:0,0:0:0:0:
253,384,97038,2,0,L|262:304,1,80,2|0,0:0|0:0,0:0:0:0:
401,356,97396,1,12,0:0:0:0:
262,304,97574,1,0,0:0:0:0:
420,272,97753,5,6,0:0:0:0:
253,384,97931,1,0,0:0:0:0:
331,188,98110,2,0,P|338:249|342:294,1,80,8|0,0:0|0:0,0:0:0:0:
235,148,98467,1,2,0:0:0:0:
405,69,98646,2,0,P|412:130|416:175,1,80,0|8,0:0|0:0,0:0:0:0:
157,120,99003,6,0,P|206:69|300:93,1,160,4|0,0:0|0:0,0:0:0:0:
184,214,99538,1,8,0:0:0:0:
65,92,99717,2,0,P|75:159|78:192,1,80,0|2,0:0|0:0,0:0:0:0:
152,45,100074,1,0,0:0:0:0:
75,198,100253,1,12,0:0:0:0:
0,39,100431,1,0,0:0:0:0:
235,148,100610,6,0,L|365:133,1,120,6|0,0:0|0:0,0:0:0:0:
431,120,100967,1,0,0:0:0:0:
289,212,101146,1,0,0:0:0:0:
297,221,101235,1,8,0:0:0:0:
297,221,101324,1,8,0:0:0:0:
460,238,101503,2,0,L|380:228,1,80,0|8,0:0|0:0,0:0:0:0:
163,321,101860,6,0,B|234:313|234:313|250:325|250:325|334:317,1,160,4|0,0:0|0:0,0:0:0:0:
402,311,102396,1,8,0:0:0:0:
354,134,102574,2,0,P|408:193|484:180,1,160,4|0,0:0|0:0,0:0:0:0:
220,241,103110,2,0,P|269:236|300:218,1,80,8|0,0:0|0:0,0:0:0:0:
295,221,103646,5,2,0:0:0:0:
240,162,103824,1,2,0:0:0:0:
220,241,104003,1,2,0:0:0:0:
314,146,104181,1,2,0:0:0:0:
166,176,104360,1,2,0:0:0:0:
275,299,104538,1,2,0:0:0:0:
224,74,104717,5,8,0:0:0:0:
224,74,105074,1,0,1:0:0:0:
275,299,105253,1,0,1:0:0:0:
55,231,105431,1,4,1:2:0:0:
256,192,105610,12,0,107753,0:0:0:0:
