osu file format v14

[General]
AudioFilename: jump.mp3
AudioLeadIn: 0
PreviewTime: 63228
Countdown: 0
SampleSet: Soft
StackLeniency: 0.7
Mode: 0
LetterboxInBreaks: 0
WidescreenStoryboard: 1

[Editor]
Bookmarks: 19689,22547,42547
DistanceSpacing: 1.7
BeatDivisor: 6
GridSize: 32
TimelineZoom: 2.2

[Metadata]
Title:JUMPin' JUMP UP!!!!
TitleUnicode:JUMPin' JUMP UP!!!!
Artist:fourfolium
ArtistUnicode:fourfolium
Creator:Doormat
Version:Kisses' Insane
Source:NEW GAME!!
Tags:Akitoshi Corinn Karen StarrStyx alacat Kisses フォーフォリウム ニューゲーム season 2 two ending ed tv size takada yuuki 高田憂希 suzukaze aoba 涼風青葉 yamaguchi megumi 山口愛 takimoto hifumi 滝本ひふみ toda megumi 戸田めぐみ shinoda hazime 篠田はじめ ayumi takeo 竹尾歩美 iizima yun 飯島ゆん
BeatmapID:1385083
BeatmapSetID:641695

[Difficulty]
HPDrainRate:6
CircleSize:4
OverallDifficulty:8
ApproachRate:9
SliderMultiplier:2.4
SliderTickRate:1

[Events]
//Background and Video events
0,0,"newgame_background.jpg",0,0
Video,0,"newgame_ed.avi"
//Break Periods
//Storyboard Layer 0 (Background)
//Storyboard Layer 1 (Fail)
//Storyboard Layer 2 (Pass)
//Storyboard Layer 3 (Foreground)
//Storyboard Sound Samples

[TimingPoints]
-283,357.142857142857,4,2,0,100,1,0
1145,-111.111111111111,4,2,0,100,0,0
6859,-142.857142857143,4,2,0,100,0,0
7216,-83.3333333333333,4,2,0,100,0,0
7574,-142.857142857143,4,2,0,100,0,0
7931,-83.3333333333333,4,2,0,100,0,0
8288,-142.857142857143,4,2,0,100,0,0
8645,-83.3333333333334,4,2,0,100,0,0
9002,-100,4,2,0,100,0,0
9716,-142.857142857143,4,2,0,100,0,0
10074,-83.3333333333333,4,2,0,100,0,0
10431,-142.857142857143,4,2,0,100,0,0
10788,-83.3333333333333,4,2,0,100,0,0
11145,-100,4,2,0,100,0,0
11859,-200,4,2,0,100,0,0
12216,-83.3333333333333,4,2,0,100,0,0
12574,-136.986301369863,4,2,0,100,0,0
14716,-100,4,2,0,100,0,0
16859,-83.3333333333333,4,2,0,100,0,0
19359,-62.5,4,2,0,100,0,0
19716,-133.333333333333,4,2,0,85,0,0
22574,-200,4,2,0,85,0,0
24002,-125,4,2,0,85,0,0
25431,-142.857142857143,4,2,0,85,0,0
31502,-117.647058823529,4,2,0,85,0,0
32574,-117.647058823529,4,2,0,85,0,0
32931,-100,4,2,0,85,0,0
33288,-86.9565217391302,4,2,0,85,0,0
33645,-133.333333333333,4,2,0,85,0,0
40074,-166.666666666667,4,2,0,85,0,0
40431,-133.333333333333,4,2,0,85,0,0
40788,-166.666666666667,4,2,0,85,0,0
41145,-133.333333333333,4,2,0,85,0,0
42574,-125,4,2,0,85,0,0
45431,-153.846153846153,4,2,0,85,0,0
51145,-111.111111111111,4,2,0,85,0,0
51740,-76.9230769230769,4,2,0,85,0,0
52216,-166.666666666667,4,2,0,85,0,0
52455,-76.9230769230769,4,2,0,85,0,0
52931,-166.666666666667,4,2,0,85,0,0
53169,-76.9230769230769,4,2,0,85,0,0
53645,-166.666666666667,4,2,0,85,0,0
54002,-111.111111111111,4,2,0,85,0,0
54538,-76.9230769230769,4,2,0,85,0,0
55074,-153.846153846153,4,2,0,85,0,0
55431,-125,4,2,0,85,0,0
58288,-100,4,2,0,85,0,0
60431,-100,4,2,0,85,0,0
61145,-100,4,2,0,85,0,0
62097,-83.3333333333333,4,2,0,85,0,0
62455,-100,4,2,0,85,0,0
63288,-200,4,2,0,85,0,0
63645,-83.3333333333333,4,2,0,85,0,0
64002,-83.3333333333333,4,2,0,100,0,1
64359,-142.857142857143,4,2,0,100,0,1
64716,-83.3333333333333,4,2,0,100,0,1
65431,-71.4285714285715,4,2,0,100,0,1
66859,-100,4,2,0,100,0,1
71145,-71.4285714285714,4,2,0,100,0,1
72574,-142.857142857143,4,2,0,100,0,1
72931,-83.3333333333333,4,2,0,100,0,1
73288,-142.857142857143,4,2,0,100,0,1
73645,-83.3333333333333,4,2,0,100,0,1
74002,-100,4,2,0,100,0,1
74716,-100,4,2,0,100,0,0
75431,-142.857142857143,4,2,0,100,0,1
75788,-83.3333333333333,4,2,0,100,0,1
76145,-142.857142857143,4,2,0,100,0,1
76859,-71.4285714285714,4,2,0,100,0,1
78288,-100,4,2,0,100,0,1
85074,-142.857142857143,4,2,0,100,0,1
85431,-100,4,2,0,100,0,1
87931,-111.111111111111,4,2,0,100,0,0

[Colours]
Combo1 : 241,142,86
Combo2 : 245,24,24
Combo3 : 170,170,170
Combo4 : 136,236,94
Combo5 : 195,123,177
Combo6 : 149,208,183
Combo7 : 237,121,128
Combo8 : 129,205,219

[HitObjects]
152,17,1145,38,0,B|175:156|175:156|198:111|245:105,1,215.999993408203,4|0,0:0|0:0,0:0:0:0:
449,245,1859,2,0,P|354:283|281:212,1,215.999993408203,4|0,0:0|0:0,0:0:0:0:
23,330,2574,6,0,B|58:302|118:308|118:308|160:359|233:347,2,215.999993408203,4|6|6,0:0|0:0|0:0,0:0:0:0:
181,186,3645,1,2,0:0:0:0:
320,251,3883,1,2,0:0:0:0:
320,251,4002,6,0,L|475:241,1,143.999995605469,2|0,1:2|0:0,0:0:0:0:
490,154,4359,1,2,0:0:0:0:
276,343,4597,1,2,0:0:0:0:
276,343,4716,2,0,L|431:333,1,143.999995605469,2|0,1:2|0:0,0:0:0:0:
463,241,5074,1,2,0:0:0:0:
216,156,5431,6,0,P|195:131|191:79,2,71.9999978027344,0|0|0,3:3|3:3|3:3,3:0:0:0:
196,246,5788,2,0,P|228:251|275:229,2,71.9999978027344,0|0|0,0:3|0:3|3:3,0:0:0:0:
129,312,6145,2,0,P|103:247|135:176,1,143.999995605469,0|0,1:0|0:0,0:0:0:0:
186,53,6502,2,0,L|182:1,4,35.9999989013672,2|0|0|0|0,0:0|0:0|0:0|0:0|0:0,0:0:0:0:
241,141,6859,54,0,L|365:126,1,111.999996582031,2|0,0:0|0:0,0:0:0:0:
512,142,7216,102,0,P|467:71|375:103,1,191.999994140625,0|0,1:0|0:0,0:0:0:0:
366,212,7574,6,0,L|477:225,1,111.999996582031,2|0,0:0|0:0,0:0:0:0:
320,302,7931,102,0,P|262:369|173:329,1,191.999994140625,0|0,1:0|0:0,0:0:0:0:
150,198,8288,6,0,L|159:333,1,111.999996582031,2|0,0:0|0:0,0:0:0:0:
45,356,8645,102,0,P|-2:300|50:195,1,191.999994140625,0|0,1:0|0:0,0:0:0:0:
103,116,9002,22,0,P|143:101|181:108,1,80,2|0,0:0|0:0,0:0:0:0:
187,210,9240,1,2,0:0:0:0:
276,156,9359,2,0,L|438:141,1,160,2|2,1:2|0:0,0:0:0:0:
512,287,9716,102,0,P|458:302|402:278,1,111.999996582031,2|0,0:0|0:0,0:0:0:0:
230,346,10074,102,0,B|433:324,1,191.999994140625,0|0,1:0|0:0,0:0:0:0:
467,207,10431,6,0,P|415:187|362:201,1,111.999996582031,2|0,0:0|0:0,0:0:0:0:
292,92,10788,102,0,B|482:111,1,191.999994140625,0|0,1:0|0:0,0:0:0:0:
469,220,11145,21,2,0:0:0:0:
388,239,11264,1,2,0:0:0:0:
410,158,11383,1,2,0:0:0:0:
466,250,11502,21,2,0:0:0:0:
366,244,11621,1,2,0:0:0:0:
425,163,11740,1,2,0:0:0:0:
463,281,11859,70,0,L|471:369,1,80,2|0,0:0|0:0,0:0:0:0:
392,384,12216,102,0,P|329:329|236:372,1,191.999994140625,0|0,1:0|0:0,0:0:0:0:
102,282,12574,6,0,B|82:97|82:97|102:149|157:165,1,292.00000802002,4|0,0:0|0:0,0:0:0:0:
261,61,13288,2,0,B|245:143|245:143|393:118|393:118|365:63,1,292.00000802002,4|0,0:0|0:0,0:0:0:0:
498,112,14002,2,0,B|458:237|458:237|395:267|395:267|425:360,1,292.00000802002,4|0,0:0|0:0,0:0:0:0:
313,371,14716,6,0,L|216:380,1,80,2|0,0:0|0:0,0:0:0:0:
164,309,14955,1,2,0:0:0:0:
232,241,15074,2,0,P|279:236|318:256,2,80,2|0|0,0:0|0:0|0:0,0:0:0:0:
85,262,15431,5,2,0:0:0:0:
41,185,15550,1,2,0:0:0:0:
62,99,15669,1,2,0:0:0:0:
132,45,15788,2,0,L|211:55,2,80,2|0|0,0:0|0:0|0:0,0:0:0:0:
294,28,16145,5,2,0:0:0:0:
338,105,16264,1,2,0:0:0:0:
317,191,16383,1,2,0:0:0:0:
248,245,16502,2,0,L|167:234,2,80,2|0|0,0:0|0:0|0:0,0:0:0:0:
398,342,16859,6,0,L|389:247,1,95.9999970703126,2|0,1:2|0:0,0:0:0:0:
422,156,17097,2,0,P|460:129|507:133,1,95.9999970703126,4|0,0:3|0:0,0:0:0:0:
498,232,17336,2,0,B|456:259|456:259|403:249,1,95.9999970703126,8|0,0:3|0:0,0:0:0:0:
238,206,17574,6,0,L|333:193,1,95.9999970703126,0|0,1:0|0:0,0:0:0:0:
344,97,17812,2,0,B|299:73|299:73|247:88,1,95.9999970703126,8|0,0:3|0:0,0:0:0:0:
188,153,18050,2,0,L|197:259,1,95.9999970703126,4|0,0:3|0:0,0:0:0:0:
122,90,18288,5,0,1:0:0:0:
283,218,18645,2,0,L|289:161,6,47.9999985351563
40,355,19359,37,2,0:0:0:0:
288,170,19716,5,2,0:0:0:0:
322,347,19955,1,2,0:0:0:0:
322,347,20074,1,2,0:0:0:0:
423,153,20312,1,2,0:0:0:0:
423,153,20431,1,2,0:0:0:0:
453,330,20669,1,2,0:0:0:0:
453,330,20788,1,2,0:0:0:0:
288,170,21026,5,2,0:0:0:0:
288,170,21145,1,2,0:0:0:0:
322,347,21383,1,2,0:0:0:0:
322,347,21502,1,2,0:0:0:0:
353,86,21740,1,2,0:0:0:0:
353,86,21859,1,2,0:0:0:0:
453,330,22216,5,0,0:0:0:0:
259,205,22574,54,0,B|175:194|175:194|144:211|144:211|55:199,1,200,4|0,0:0|0:0,0:0:0:0:
118,24,23288,2,0,P|183:84|280:57,1,200,4|0,0:0|0:0,0:0:0:0:
259,205,24002,5,2,0:0:0:0:
366,318,24240,1,2,0:0:0:0:
366,318,24359,2,0,L|496:303,1,128,0|0,1:0|0:0,0:0:0:0:
491,195,24716,2,0,B|436:165|436:165|360:190,1,128,2|0,0:0|0:0,0:0:0:0:
442,58,25074,1,0,1:0:0:0:
288,113,25312,1,2,0:0:0:0:
288,113,25431,6,0,P|259:166|272:230,1,111.999996582031,2|0,0:0|0:0,0:0:0:0:
270,360,25788,2,0,L|283:240,1,111.999996582031,0|0,1:0|0:0,0:0:0:0:
171,266,26145,2,0,B|113:280|113:280|59:253,1,111.999996582031,2|0,0:0|0:0,0:0:0:0:
35,139,26502,1,0,1:0:0:0:
238,125,26740,1,2,0:0:0:0:
238,125,26859,6,0,P|289:120|328:75,1,111.999996582031,2|0,0:0|0:0,0:0:0:0:
442,28,27216,2,0,P|391:19|342:52,1,111.999996582031,0|0,1:0|0:0,0:0:0:0:
496,106,27574,1,2,0:0:0:0:
343,196,27812,1,2,0:0:0:0:
343,196,27931,2,0,L|454:187,1,111.999996582031,0|0,1:0|0:0,0:0:0:0:
500,267,28288,5,2,0:0:0:0:
385,114,28526,1,2,0:0:0:0:
385,114,28645,1,2,0:0:0:0:
325,282,28883,1,2,0:0:0:0:
325,282,29002,1,2,0:0:0:0:
192,137,29240,1,0,0:0:0:0:
192,137,29359,2,0,B|242:112|242:112|299:131,1,111.999996582031
330,42,29716,5,2,0:0:0:0:
243,222,29955,1,2,0:0:0:0:
243,222,30074,1,2,0:0:0:0:
135,61,30312,1,2,0:0:0:0:
135,61,30431,1,2,0:0:0:0:
56,237,30669,1,2,0:0:0:0:
56,237,30788,2,0,B|106:262|106:262|163:243,1,111.999996582031
212,315,31145,5,2,0:0:0:0:
343,187,31383,1,2,0:0:0:0:
343,187,31502,2,0,P|300:148|228:162,1,136.000002593994,0|0,1:0|0:0,0:0:0:0:
297,57,31859,1,2,0:0:0:0:
368,220,32097,1,2,0:0:0:0:
368,220,32216,2,0,P|425:224|474:168,1,136.000002593994,0|0,1:0|0:0,0:0:0:0:
459,67,32574,38,0,L|322:77,1,136.000002593994,2|0,0:0|0:0,0:0:0:0:
158,141,32931,6,0,B|221:184|221:184|301:162,1,160,2|0,0:0|0:0,0:0:0:0:
421,179,33288,6,0,B|410:252|410:252|426:282|426:282|417:357,1,184.000003509522,2|0,0:0|0:0,0:0:0:0:
259,323,33645,1,8,0:3:0:0:
223,329,33764,1,8,0:3:0:0:
187,335,33883,1,8,0:3:0:0:
151,342,34002,6,0,P|110:274|161:185,1,180.000006866455,4|0,0:0|0:0,0:0:0:0:
374,63,34716,2,0,L|182:45,1,180.000006866455,2|2,0:0|0:0,0:0:0:0:
339,212,35431,1,2,0:0:0:0:
468,140,35669,1,2,0:0:0:0:
468,140,35788,2,0,B|500:190|500:190|483:252,1,120.000004577637,2|0,0:0|0:0,0:0:0:0:
319,361,36145,2,0,P|386:312|468:348,1,180.000006866455,2|0,0:0|1:0,0:0:0:0:
401,197,36740,1,2,0:0:0:0:
401,197,36859,6,0,L|273:187,1,120.000004577637,4|0,0:0|0:0,0:0:0:0:
150,229,37216,2,0,B|213:244|213:244|269:202,1,120.000004577637,0|0,1:0|0:0,0:0:0:0:
256,87,37574,2,0,P|313:63|369:82,1,120.000004577637,2|0,0:0|0:0,0:0:0:0:
475,23,37931,1,0,1:0:0:0:
494,182,38169,1,2,0:0:0:0:
494,182,38288,6,0,L|475:308,1,120.000004577637,2|0,0:0|0:0,0:0:0:0:
336,340,38645,2,0,B|397:361|397:361|461:327,1,120.000004577637,0|0,1:0|0:0,0:0:0:0:
387,247,39002,2,0,L|377:175,2,60.0000022888184,2|2|2,0:0|0:0|0:0,0:0:0:0:
242,183,39359,2,0,P|299:150|365:167,1,120.000004577637,0|0,1:0|0:0,0:0:0:0:
439,84,39716,6,0,L|514:94,2,60.0000022888184,2|0|0,0:0|0:0|0:0,0:0:0:0:
464,297,40074,6,0,P|487:256|484:209,1,95.9999970703126,4|0,0:3|0:0,0:0:0:0:
350,157,40431,102,0,L|343:216,2,60.0000022888184,2|0|0,0:0|0:0|0:0,0:0:0:0:
190,54,40788,6,0,P|231:30|278:33,1,95.9999970703126,4|0,0:3|0:0,0:0:0:0:
163,168,41145,6,0,B|105:182|105:182|55:147,1,120.000004577637,2|0,0:0|0:0,0:0:0:0:
0,247,41502,2,0,L|9:316,1,60.0000022888184,2|0,0:0|0:0,0:0:0:0:
87,380,41740,1,2,0:0:0:0:
161,304,41859,2,0,B|234:260|263:357|336:307,1,180.000006866455,2|0,0:0|1:0,0:0:0:0:
500,205,42455,1,2,0:0:0:0:
500,205,42574,6,0,L|492:60,1,128,4|0,0:0|0:0,0:0:0:0:
298,30,42931,2,0,P|359:51|407:13,1,128,0|0,1:0|0:0,0:0:0:0:
205,110,43288,2,0,L|55:97,1,128,2|0,0:0|0:0,0:0:0:0:
31,190,43645,1,0,1:0:0:0:
203,16,43883,1,2,0:0:0:0:
203,16,44002,6,0,B|266:2|266:2|326:38,1,128,2|0,0:0|0:0,0:0:0:0:
398,212,44359,2,0,L|390:77,1,128,0|0,1:0|0:0,0:0:0:0:
503,23,44716,2,0,L|435:13,1,64,2|0,0:0|0:0,0:0:0:0:
298,113,44955,1,2,0:0:0:0:
298,113,45074,2,0,P|241:134|177:102,1,128,0|0,1:0|0:0,0:0:0:0:
53,305,45431,6,0,P|120:226|259:273,1,259.999988098145,4|0,0:0|0:0,0:0:0:0:
282,351,46145,2,0,P|332:360|378:337,1,103.999995239258,2|0,1:2|0:0,0:0:0:0:
388,250,46502,2,0,P|427:228|488:238,1,103.999995239258,2|0,0:2|0:0,0:0:0:0:
318,188,46859,6,0,L|309:115,1,51.999997619629,2|0,0:0|0:0,0:0:0:0:
361,60,47097,2,0,P|439:40|498:83,1,155.999992858887,0|0,1:0|0:0,0:0:0:0:
254,23,47574,2,0,P|200:66|119:42,1,155.999992858887,2|0,1:2|0:0,0:0:0:0:
127,221,48169,1,2,0:0:0:0:
127,221,48288,6,0,L|236:207,1,103.999995239258,2|0,0:0|0:0,0:0:0:0:
311,254,48645,2,0,P|366:241|415:266,1,103.999995239258,2|0,0:2|0:0,0:0:0:0:
501,344,49002,2,0,P|454:362|404:349,1,103.999995239258,2|0,1:2|0:0,0:0:0:0:
491,226,49359,2,0,L|500:122,1,103.999995239258,2|0,1:2|0:0,0:0:0:0:
439,31,49716,53,2,0:0:0:0:
314,133,49955,2,0,L|418:124,1,103.999995239258,2|0,0:0|0:0,0:0:0:0:
474,202,50312,1,2,0:0:0:0:
474,202,50431,2,0,L|361:216,1,103.999995239258,2|0,1:2|0:0,0:0:0:0:
264,49,50788,1,0,1:0:0:0:
136,185,51145,38,0,L|143:256,1,71.9999978027344,0|0,1:0|0:0,0:0:0:0:
57,86,51383,1,8,0:3:0:0:
57,86,51502,1,4,0:3:0:0:
57,86,51740,22,0,B|114:32|190:69|190:69|204:43|173:6,1,207.999990478516,4|0,0:0|0:0,0:0:0:0:
292,0,52097,5,0,1:0:0:0:
292,0,52216,2,0,L|281:54,1,47.9999985351563,0|0,1:0|0:0,0:0:0:0:
364,197,52455,102,0,B|406:188|416:154|416:154|343:117|383:26,1,207.999990478516,4|0,0:0|0:0,0:0:0:0:
451,85,52812,5,0,1:0:0:0:
451,85,52931,2,0,L|498:75,1,47.9999985351563,0|0,1:0|0:0,0:0:0:0:
481,255,53169,102,0,L|255:222,1,207.999990478516,4|0,0:0|0:0,0:0:0:0:
147,335,53526,5,0,1:0:0:0:
147,335,53645,2,0,P|183:307|198:250,1,95.9999970703126,0|0,1:0|0:0,0:0:0:0:
159,177,54002,70,0,L|156:105,1,71.9999978027344,0|0,1:0|0:0,0:0:0:0:
112,256,54240,1,0,0:3:0:0:
112,256,54359,1,4,0:3:0:0:
112,256,54597,22,0,B|57:263|40:218|40:218|89:180|64:104,1,207.999990478516,4|0,0:0|0:0,0:0:0:0:
163,6,54955,5,0,1:0:0:0:
163,6,55074,2,0,L|105:16,1,51.999997619629,0|0,1:0|0:0,0:0:0:0:
156,105,55312,1,2,0:0:0:0:
156,105,55431,6,0,P|248:84|313:153,1,192,2|0,0:0|1:0,0:0:0:0:
403,354,56026,1,2,0:0:0:0:
403,354,56145,2,0,L|393:226,1,128,2|0,0:0|0:0,0:0:0:0:
482,131,56502,2,0,L|491:258,1,128,0|0,1:0|0:0,0:0:0:0:
299,184,56859,6,0,P|247:270|290:342,1,192,2|0,0:0|1:0,0:0:0:0:
227,117,57455,1,2,0:0:0:0:
227,117,57574,2,0,L|77:104,1,128,2|0,0:0|0:0,0:0:0:0:
0,197,57931,2,0,L|127:208,1,128,0|0,1:0|0:0,0:0:0:0:
294,316,58288,6,0,P|282:365|256:283,1,240,6|0,0:0|1:0,0:0:0:0:
249,280,58883,1,2,0:0:0:0:
199,147,59002,6,0,P|187:97|161:179,1,240,2|0,0:0|1:0,0:0:0:0:
151,179,59597,1,2,0:0:0:0:
284,110,59716,6,0,P|292:73|311:133,1,160,2|0,0:0|0:0,0:0:0:0:
249,244,60074,2,0,B|313:289|313:289|392:259,1,160,0|0,1:0|0:0,0:0:0:0:
452,215,60431,5,0,3:3:0:0:
478,147,60550,1,0,3:3:0:0:
443,82,60669,1,0,3:3:0:0:
374,58,60788,37,0,3:3:0:0:
314,100,60907,1,0,3:3:0:0:
241,110,61026,1,0,3:3:0:0:
176,75,61145,6,0,P|155:44|159:-6,1,80,4|0,0:0|0:0,0:0:0:0:
25,133,61383,1,8,0:3:0:0:
25,133,61502,2,0,L|134:122,1,80,0|0,1:0|0:0,0:0:0:0:
266,241,61740,6,0,P|214:195|126:219,1,160,4|0,0:3|0:0,0:0:0:0:
298,359,62097,6,0,B|306:286|306:286|289:253|289:253|301:172,1,191.999994140625,0|0,1:0|0:0,0:0:0:0:
476,121,62455,6,0,P|424:167|336:143,1,160,4|0,0:0|0:0,0:0:0:0:
398,84,62812,5,2,0:0:0:0:
385,11,62931,1,2,0:0:0:0:
293,55,63050,37,2,0:0:0:0:
304,0,63169,1,2,0:0:0:0:
192,11,63288,102,0,L|111:25,1,80,0|0,1:0|0:0,0:0:0:0:
0,167,63645,6,0,P|92:191|150:120,1,191.999994140625,4|0,1:2|0:0,0:0:0:0:
254,134,64002,86,0,L|64:108,1,191.999994140625,4|0,0:0|0:0,0:0:0:0:
55,245,64359,6,0,P|103:220|166:230,1,111.999996582031,0|0,1:0|0:0,0:0:0:0:
273,317,64716,102,0,B|318:237|318:237|291:127,1,191.999994140625,2|0,0:0|0:0,0:0:0:0:
243,40,65074,5,0,1:0:0:0:
243,40,65312,1,2,0:0:0:0:
347,2,65431,102,0,B|364:161|364:161|347:130|294:114,1,223.999993164063,4|0,0:0|0:0,0:0:0:0:
137,84,65788,2,0,P|173:9|180:92,1,223.999993164063,2|0,1:2|0:0,0:0:0:0:
0,196,66145,2,0,L|225:175,1,223.999993164063,2|0,0:0|0:0,0:0:0:0:
315,121,66502,1,2,1:2:0:0:
396,305,66740,1,2,0:0:0:0:
396,305,66859,22,0,P|437:237|411:164,1,160,2|0,0:0|0:0,0:0:0:0:
346,229,67216,1,0,1:0:0:0:
480,354,67455,1,2,0:0:0:0:
480,354,67574,2,0,L|309:339,1,160,2|0,0:0|0:0,0:0:0:0:
190,170,67931,1,0,1:0:0:0:
44,316,68169,1,2,0:0:0:0:
44,316,68288,6,0,P|110:272|190:300,1,160,2|0,0:0|0:0,0:0:0:0:
269,240,68645,2,0,L|286:79,1,160,2|0,1:2|0:0,0:0:0:0:
181,0,69002,2,0,L|189:79,1,80,2|0,0:0|0:0,0:0:0:0:
362,31,69240,1,2,0:0:0:0:
362,31,69359,2,0,L|442:21,1,80,2|0,1:2|0:0,0:0:0:0:
511,102,69597,1,2,0:0:0:0:
455,311,69716,6,0,P|411:246|429:171,1,160,6|0,0:0|0:0,0:0:0:0:
291,93,70074,1,2,1:2:0:0:
54,188,70312,1,2,0:0:0:0:
54,188,70431,2,0,L|226:176,1,160,2|0,0:0|0:0,0:0:0:0:
377,238,70788,2,0,B|294:257|294:257|226:203,1,160,2|0,1:2|0:0,0:0:0:0:
107,332,71145,54,0,P|203:369|263:284,1,223.999993164063,4|0,0:0|0:0,0:0:0:0:
348,113,71502,2,0,B|379:99|398:77|398:77|376:237,1,223.999993164063,2|0,1:2|0:0,0:0:0:0:
262,45,71859,2,0,L|26:68,1,223.999993164063,2|0,0:0|0:0,0:0:0:0:
15,177,72216,21,8,0:3:0:0:
15,177,72336,1,8,0:3:0:0:
15,177,72455,1,8,0:3:0:0:
15,177,72574,102,0,L|126:187,1,111.999996582031,2|0,0:0|0:0,0:0:0:0:
309,189,72931,102,0,P|237:248|141:204,1,191.999994140625,0|0,1:0|0:0,0:0:0:0:
111,307,73288,6,0,L|0:317,1,111.999996582031,2|0,0:0|0:0,0:0:0:0:
0,146,73645,102,0,P|72:87|168:131,1,191.999994140625,0|0,1:0|0:0,0:0:0:0:
262,79,74002,21,0,3:3:0:0:
262,79,74121,2,0,P|243:35|249:-9,1,80,0|0,3:3|3:3,3:3:0:0:
429,85,74359,1,0,3:3:0:0:
429,85,74478,2,0,P|429:124|411:160,1,80,0|0,3:3|3:3,3:3:0:0:
292,266,74716,5,8,0:3:0:0:
234,221,74836,1,8,0:3:0:0:
163,236,74955,1,8,0:3:0:0:
98,268,75074,5,8,0:3:0:0:
34,234,75193,1,8,0:3:0:0:
19,163,75312,1,8,0:3:0:0:
56,98,75431,70,0,L|181:88,1,111.999996582031,6|0,0:0|0:0,0:0:0:0:
362,157,75788,102,0,P|393:70|334:0,1,191.999994140625,2|0,1:2|0:0,0:0:0:0:
218,166,76145,6,0,L|329:177,1,111.999996582031,2|0,0:0|0:0,0:0:0:0:
221,22,76502,1,2,1:2:0:0:
221,22,76740,1,2,0:0:0:0:
103,0,76859,102,0,B|113:92|113:92|91:131|91:131|103:216,1,223.999993164063,4|0,0:0|0:0,0:0:0:0:
2,324,77216,2,0,P|78:252|171:301,1,223.999993164063,2|0,1:2|0:0,0:0:0:0:
296,382,77574,2,0,L|323:157,1,223.999993164063,2|0,0:0|0:0,0:0:0:0:
253,80,77931,1,2,1:2:0:0:
29,116,78169,1,2,0:0:0:0:
29,116,78288,22,0,P|82:160|170:146,1,160,2|0,0:0|0:0,0:0:0:0:
114,67,78645,1,0,1:0:0:0:
2,217,78883,1,2,0:0:0:0:
2,217,79002,2,0,L|13:378,1,160,2|0,0:0|0:0,0:0:0:0:
206,231,79359,1,0,1:0:0:0:
69,93,79597,1,2,0:0:0:0:
69,93,79716,6,0,P|135:139|211:114,1,160,2|0,0:0|0:0,0:0:0:0:
366,69,80074,2,0,P|300:115|224:90,1,160,0|0,1:0|0:0,0:0:0:0:
74,230,80431,2,0,L|235:212,1,160,2|0,0:0|0:0,0:0:0:0:
148,49,80788,1,0,1:0:0:0:
148,49,81026,1,2,0:0:0:0:
288,27,81145,6,0,P|357:70|435:46,1,160,2|0,0:0|0:0,0:0:0:0:
499,150,81502,2,0,L|484:309,1,160,0|0,1:0|0:0,0:0:0:0:
312,350,81859,2,0,P|381:310|465:343,1,160,2|0,0:0|0:0,0:0:0:0:
394,198,82216,1,0,1:0:0:0:
258,248,82455,1,2,0:0:0:0:
258,248,82574,6,0,P|176:270|117:222,1,160,2|0,0:0|0:0,0:0:0:0:
55,72,82931,2,0,P|115:132|102:207,1,160,0|0,1:0|0:0,0:0:0:0:
6,334,83288,2,0,P|27:251|99:224,1,160,2|0,0:0|0:0,0:0:0:0:
198,187,83645,1,0,1:0:0:0:
198,187,83883,1,2,0:0:0:0:
260,344,84002,5,2,1:2:0:0:
422,162,84359,1,2,0:0:0:0:
422,162,84597,1,2,0:0:0:0:
402,329,84716,5,2,1:2:0:0:
198,187,85074,2,0,L|312:177,1,111.999996582031,2|0,0:0|0:0,0:0:0:0:
343,80,85431,38,0,P|309:63|261:70,1,80,2|0,1:2|0:0,0:0:0:0:
87,89,85669,1,4,0:3:0:0:
87,89,85788,2,0,P|122:106|161:102,1,80,4|0,0:3|0:0,0:0:0:0:
42,18,86026,1,4,0:3:0:0:
42,18,86145,6,0,L|53:180,1,160,0|0,1:0|0:0,0:0:0:0:
150,294,86502,1,8,0:3:0:0:
221,277,86621,1,8,0:3:0:0:
293,261,86740,1,8,0:3:0:0:
366,246,86859,5,4,0:0:0:0:
256,192,86919,12,0,87574,1:0:0:0:
