osu file format v14

[General]
AudioFilename: jump.mp3
AudioLeadIn: 0
PreviewTime: 63228
Countdown: 0
SampleSet: Soft
StackLeniency: 0.7
Mode: 0
LetterboxInBreaks: 0
WidescreenStoryboard: 0

[Editor]
DistanceSpacing: 0.3
BeatDivisor: 6
GridSize: 4
TimelineZoom: 2.2

[Metadata]
Title:JUMPin' JUMP UP!!!!
TitleUnicode:JUMPin' JUMP UP!!!!
Artist:fourfolium
ArtistUnicode:fourfolium
Creator:Doormat
Version:Karen's Insane
Source:NEW GAME!!
Tags:Akitoshi Corinn Karen StarrStyx alacat Kisses フォーフォリウム ニューゲーム season 2 two ending ed tv size takada yuuki 高田憂希 suzukaze aoba 涼風青葉 yamaguchi megumi 山口愛 takimoto hifumi 滝本ひふみ toda megumi 戸田めぐみ shinoda hazime 篠田はじめ ayumi takeo 竹尾歩美 iizima yun 飯島ゆん
BeatmapID:1361357
BeatmapSetID:641695

[Difficulty]
HPDrainRate:6
CircleSize:4
OverallDifficulty:8
ApproachRate:9
SliderMultiplier:2.4
SliderTickRate:1

[Events]
//Background and Video events
0,0,"newgame_background.jpg",0,0
Video,0,"newgame_ed.avi"
//Break Periods
//Storyboard Layer 0 (Background)
//Storyboard Layer 1 (Fail)
//Storyboard Layer 2 (Pass)
//Storyboard Layer 3 (Foreground)
//Storyboard Sound Samples

[TimingPoints]
-283,357.142857142857,4,2,1,60,1,0
1145,-133.333333333333,4,2,1,80,0,0
6859,-100,4,2,1,70,0,0
7216,-83.3333333333333,4,2,1,70,0,0
7574,-100,4,2,1,70,0,0
7931,-83.3333333333333,4,2,1,70,0,0
8288,-100,4,2,1,70,0,0
10074,-83.3333333333333,4,2,1,70,0,0
10431,-100,4,2,1,70,0,0
10788,-83.3333333333333,4,2,1,70,0,0
11145,-100,4,2,1,70,0,0
11859,-142.857142857143,4,2,1,70,0,0
12216,-83.3333333333333,4,2,1,80,0,0
12574,-100,4,2,1,70,0,0
12931,-83.3333333333333,4,2,1,70,0,0
13288,-100,4,2,1,70,0,0
13645,-83.3333333333333,4,2,1,70,0,0
14002,-100,4,2,1,70,0,0
16859,-83.3333333333333,4,2,1,70,0,0
17574,-62.5,4,2,1,70,0,0
17812,-71.4285714285714,4,2,1,70,0,0
18050,-83.3333333333333,4,2,1,70,0,0
19062,-83.3333333333333,4,2,1,70,0,0
19359,-83.3333333333333,4,2,1,70,0,0
19419,-83.3333333333333,4,2,1,70,0,0
19716,-133.333333333333,4,2,1,60,0,0
25431,-153.846153846153,4,2,1,60,0,0
28288,-153.846153846153,4,2,1,50,0,0
31145,-153.846153846153,4,2,1,60,0,0
31502,-117.647058823529,4,2,1,60,0,0
31859,-153.846153846153,4,2,1,60,0,0
32216,-117.647058823529,4,2,1,60,0,0
34002,-133.333333333333,4,2,1,50,0,0
36859,-133.333333333333,4,2,1,60,0,0
39716,-133.333333333333,4,2,1,70,0,0
42574,-133.333333333333,4,2,1,80,0,0
45431,-153.846153846153,4,2,1,50,0,0
51145,-83.3333333333333,4,2,1,60,0,0
52216,-153.846153846153,4,2,1,60,0,0
52455,-83.3333333333333,4,2,1,60,0,0
52931,-153.846153846153,4,2,1,60,0,0
53169,-83.3333333333333,4,2,1,60,0,0
53645,-153.846153846153,4,2,1,60,0,0
54002,-83.3333333333333,4,2,1,60,0,0
55074,-153.846153846153,4,2,1,60,0,0
55431,-133.333333333333,4,2,1,70,0,0
58288,-105.263157894737,4,2,1,70,0,0
59002,-86.9565217391303,4,2,1,70,0,0
59716,-74.0740740740741,4,2,1,70,0,0
60074,-74.0740740740741,4,2,1,80,0,0
60431,-100,4,2,1,70,0,0
62097,-83.3333333333333,4,2,1,70,0,0
62455,-71.4285714285714,4,2,1,70,0,0
63288,-133.333333333333,4,2,1,60,0,0
63645,-83.3333333333333,4,2,1,60,0,0
64002,-125,4,2,1,80,0,1
64359,-83.3333333333333,4,2,1,80,0,1
64716,-83.3333333333333,4,2,1,80,0,1
65431,-83.3333333333333,4,2,1,90,0,1
66502,-83.3333333333333,4,2,1,80,0,1
66859,-125,4,2,1,80,0,1
67216,-83.3333333333333,4,2,1,80,0,1
68288,-125,4,2,1,80,0,1
68645,-83.3333333333333,4,2,1,80,0,1
69716,-125,4,2,1,80,0,1
70074,-83.3333333333333,4,2,1,80,0,1
71145,-83.3333333333333,4,2,1,80,0,1
72574,-125,4,2,1,80,0,1
72931,-83.3333333333333,4,2,1,80,0,1
74716,-83.3333333333333,4,2,1,80,0,0
75431,-125,4,2,1,80,0,1
75788,-83.3333333333333,4,2,1,80,0,1
76859,-83.3333333333333,4,2,1,90,0,1
77931,-83.3333333333333,4,2,1,80,0,1
78288,-125,4,2,1,80,0,1
78645,-83.3333333333333,4,2,1,80,0,1
79716,-125,4,2,1,80,0,1
80074,-83.3333333333333,4,2,1,80,0,1
81145,-125,4,2,1,80,0,1
81502,-83.3333333333333,4,2,1,80,0,1
82574,-83.3333333333333,4,2,1,80,0,1
83645,-166.666666666667,4,2,1,80,0,1
84002,-62.5,4,2,1,70,0,1
85074,-100,4,2,1,70,0,1
85431,-83.3333333333333,4,2,1,70,0,1
86859,-90.9090909090909,4,2,1,60,0,1
87574,-111.111111111111,4,2,1,60,0,1
87931,-111.111111111111,4,2,1,60,0,0

[Colours]
Combo1 : 241,142,86
Combo2 : 250,191,27
Combo3 : 149,216,62
Combo4 : 181,178,148
Combo5 : 195,123,177
Combo6 : 149,208,183
Combo7 : 237,121,128
Combo8 : 129,205,219

[HitObjects]
212,215,1145,6,0,B|252:187|295:209|295:209|336:231|400:203,1,180.000006866455,4|0,0:0|0:0,0:0:0:0:
363,20,1859,2,0,B|318:-5|318:-5|333:123,1,180.000006866455,4|0,0:0|0:0,0:0:0:0:
258,291,2574,6,0,L|68:277,2,180.000006866455,4|4|4,0:0|0:0|0:0,0:0:0:0:
141,77,3645,2,0,L|158:200,1,120.000004577637,8|0,0:0|0:0,0:0:0:0:
172,315,4002,5,0,1:0:0:0:
172,315,4716,1,0,1:0:0:0:
183,327,5431,6,0,P|238:309|289:336,1,120.000004577637,4|0,1:2|3:0,0:0:0:0:
289,336,5788,2,0,P|340:308|395:326,1,120.000004577637,0|0,1:0|3:0,0:0:0:0:
395,326,6145,2,0,P|446:298|501:316,1,120.000004577637,0|0,1:0|0:0,0:0:0:0:
501,316,6502,2,0,L|516:275,4,30.0000011444092,12|0|0|0|0,0:0|0:0|0:0|0:0|0:0,0:0:0:0:
448,208,6859,6,0,P|413:124|485:111,1,160,6|0,0:0|0:0,0:0:0:0:
468,212,7216,6,0,L|275:200,1,191.999994140625,8|8,0:0|0:0,0:0:0:0:
130,220,7574,6,0,P|165:136|93:123,1,160,2|0,0:0|0:0,0:0:0:0:
110,224,7931,6,0,L|303:212,1,191.999994140625,8|8,0:0|0:0,0:0:0:0:
282,85,8288,1,2,0:0:0:0:
398,246,8526,1,0,0:0:0:0:
398,246,8645,2,0,P|388:286|397:329,1,80,8|0,0:0|0:0,0:0:0:0:
481,288,8883,1,8,0:0:0:0:
410,335,9002,6,0,P|328:315|261:352,1,160,2|0,0:0|0:0,0:0:0:0:
109,351,9359,2,0,P|191:331|258:368,1,160,8|8,0:0|0:0,0:0:0:0:
249,261,9716,6,0,L|246:97,1,160,2|0,0:0|0:0,0:0:0:0:
169,50,10074,6,0,B|219:63|246:101|246:101|277:65|347:46,1,191.999994140625,8|8,0:0|0:0,0:0:0:0:
258,123,10431,6,0,L|261:287,1,160,2|0,0:0|0:0,0:0:0:0:
338,334,10789,6,0,B|288:321|261:283|261:283|230:319|160:338,1,191.999994140625,8|8,0:0|0:0,0:0:0:0:
71,266,11145,5,2,0:0:0:0:
58,162,11264,1,0,0:0:0:0:
154,200,11383,1,8,0:0:0:0:
75,254,11502,5,10,0:0:0:0:
65,171,11621,1,0,0:0:0:0:
141,201,11740,1,8,0:0:0:0:
79,244,11859,6,0,L|86:358,1,111.999996582031,10|0,0:0|0:0,0:0:0:0:
103,375,12216,6,0,L|89:171,1,191.999994140625,6|0,0:0|0:0,0:0:0:0:
160,44,12574,6,0,P|243:68|237:142,1,160,6|0,0:0|0:0,0:0:0:0:
74,163,12931,6,0,L|279:134,1,191.999994140625,2|0,0:0|0:0,0:0:0:0:
310,44,13288,6,0,P|227:68|233:142,1,160,8|0,0:0|0:0,0:0:0:0:
396,163,13645,6,0,L|191:134,1,191.999994140625,2|0,0:0|0:0,0:0:0:0:
302,230,14002,6,0,P|311:268|311:326,1,80,2|0,0:0|0:0,0:0:0:0:
397,377,14240,1,8,0:0:0:0:
463,317,14359,2,0,P|386:286|317:336,1,160,0|0,0:0|0:0,0:0:0:0:
182,368,14716,2,0,L|171:275,1,80,10|0,0:0|0:0,0:0:0:0:
88,172,14955,1,0,0:0:0:0:
88,172,15074,2,0,L|79:251,1,80,10|0,0:0|0:0,0:0:0:0:
254,235,15312,1,0,0:0:0:0:
254,235,15431,6,0,P|263:191|258:142,1,80,2|0,0:0|0:0,0:0:0:0:
170,55,15669,1,0,0:0:0:0:
84,4,15788,2,0,P|75:48|80:97,1,80,8|0,0:0|0:0,0:0:0:0:
170,185,16026,1,0,0:0:0:0:
84,200,16145,5,2,0:0:0:0:
171,202,16264,1,0,0:0:0:0:
258,202,16383,1,0,0:0:0:0:
273,219,16502,5,8,0:0:0:0:
173,219,16621,1,0,0:0:0:0:
72,216,16740,1,0,0:0:0:0:
11,302,16859,6,0,B|-29:341|-29:341|36:366,1,95.9999970703126,8|0,0:3|0:0,0:0:0:0:
84,228,17097,2,0,B|70:173|70:173|16:217,1,95.9999970703126,8|0,0:3|0:0,0:0:0:0:
105,323,17336,2,0,B|158:338|158:338|147:269,1,95.9999970703126,8|0,0:3|0:0,0:0:0:0:
131,98,17574,6,0,P|67:77|-2:115,1,128,4|0,0:3|0:0,0:0:0:0:
135,118,17812,2,0,P|117:57|77:17,1,111.999996582031,4|0,0:3|0:0,0:0:0:0:
135,141,18050,2,0,P|151:90|190:53,1,95.9999970703126,4|0,0:3|0:0,0:0:0:0:
134,162,18288,5,4,0:3:0:0:
299,222,19002,6,0,L|295:276,1,47.9999985351563,2|0,0:3|0:0,0:0:0:0:
298,221,19359,6,0,L|295:269,1,47.9999985351563,2|0,0:0|0:0,0:0:0:0:
298,221,19716,5,4,0:0:0:0:
240,126,19955,1,0,0:0:0:0:
240,126,20074,2,0,L|379:117,1,120.000004577637,2|0,0:0|0:0,0:0:0:0:
302,226,20431,1,2,0:0:0:0:
239,39,20669,1,0,0:0:0:0:
239,39,20788,2,0,L|378:30,1,120.000004577637,2|0,0:0|0:0,0:0:0:0:
428,185,21145,6,0,P|409:252|425:304,1,120.000004577637,2|0,0:0|0:0,0:0:0:0:
363,117,21502,2,0,P|430:99|467:60,1,120.000004577637,2|0,0:0|0:0,0:0:0:0:
335,208,21859,2,0,P|286:158|233:145,1,120.000004577637,2|0,0:0|0:0,0:0:0:0:
239,145,22216,1,8,0:3:0:0:
275,340,22574,6,0,L|477:322,1,180.000006866455,4|0,0:0|0:0,0:0:0:0:
458,176,23288,2,0,L|256:158,1,180.000006866455,4|0,0:0|0:0,0:0:0:0:
79,193,24002,6,0,P|140:174|203:218,1,120.000004577637,4|0,0:0|0:0,0:0:0:0:
180,328,24359,2,0,P|119:347|56:303,1,120.000004577637,8|8,0:0|0:0,0:0:0:0:
133,262,24716,1,2,0:0:0:0:
133,262,25074,2,0,L|123:121,1,120.000004577637,8|8,0:0|0:0,0:0:0:0:
0,18,25431,6,0,P|60:17|95:62,1,103.999995239258,6|0,0:0|0:0,0:0:0:0:
91,63,25788,2,0,L|202:54,1,103.999995239258,8|8,0:0|0:0,0:0:0:0:
292,9,26145,2,0,L|283:135,1,103.999995239258,2|0,0:0|0:0,0:0:0:0:
268,128,26502,2,0,P|248:183|272:245,1,103.999995239258,8|8,0:0|0:0,0:0:0:0:
328,275,26859,5,2,0:0:0:0:
440,193,27097,1,0,0:0:0:0:
440,193,27216,2,0,L|321:183,1,103.999995239258,8|8,0:0|0:0,0:0:0:0:
347,169,27574,2,0,L|450:177,1,103.999995239258,2|0,0:0|0:0,0:0:0:0:
463,164,27931,2,0,L|344:154,1,103.999995239258,8|8,0:0|0:0,0:0:0:0:
298,106,28288,5,4,0:0:0:0:
199,206,28526,1,0,0:0:0:0:
199,206,28645,1,2,0:0:0:0:
99,106,28883,1,0,0:0:0:0:
99,106,29002,1,10,0:0:0:0:
199,7,29240,1,0,0:0:0:0:
199,7,29359,2,0,P|194:58|193:120,1,103.999995239258,0|0,1:0|0:0,0:0:0:0:
199,206,29716,5,2,0:0:0:0:
298,106,29954,1,0,0:0:0:0:
298,106,30073,1,2,0:0:0:0:
398,206,30311,1,0,0:0:0:0:
398,206,30430,1,10,0:0:0:0:
298,305,30668,1,0,0:0:0:0:
298,305,30787,2,0,P|303:254|304:192,1,103.999995239258,0|0,1:0|0:0,0:0:0:0:
387,116,31145,6,0,P|453:109|497:134,1,103.999995239258,4|0,0:0|0:0,0:0:0:0:
302,82,31502,2,0,P|351:29|426:26,1,136.000002593994,8|8,0:0|0:0,0:0:0:0:
320,179,31859,6,0,P|254:186|210:161,1,103.999995239258,4|0,0:0|0:0,0:0:0:0:
405,213,32216,2,0,P|356:266|281:269,1,136.000002593994,8|8,0:0|0:0,0:0:0:0:
214,256,32574,5,4,0:0:0:0:
321,366,32812,1,8,0:3:0:0:
353,361,32931,1,8,0:3:0:0:
173,334,33169,1,8,0:3:0:0:
141,329,33288,1,8,0:0:0:0:
261,137,33526,1,8,0:3:0:0:
278,165,33645,1,8,0:3:0:0:
283,198,33764,1,8,0:3:0:0:
271,230,33883,1,8,0:3:0:0:
245,252,34002,6,0,L|102:243,1,120.000004577637,4|0,0:0|0:0,0:0:0:0:
125,244,34359,1,0,0:0:0:0:
46,66,34597,1,8,0:3:0:0:
46,66,34716,2,0,P|41:134|54:199,1,120.000004577637,4|0,0:0|0:0,0:0:0:0:
49,184,35074,1,8,0:3:0:0:
0,330,35431,6,0,P|66:312|117:346,1,120.000004577637,4|0,0:0|0:0,0:0:0:0:
108,335,35788,1,0,0:0:0:0:
243,378,36026,1,8,0:0:0:0:
243,378,36145,2,0,L|381:373,1,120.000004577637,8|0,0:0|0:0,0:0:0:0:
440,327,36502,2,0,P|463:261|443:200,1,120.000004577637,2|0,0:0|0:0,0:0:0:0:
356,104,36859,6,0,L|366:253,1,120.000004577637,4|0,0:0|0:0,0:0:0:0:
446,122,37216,2,0,L|455:3,1,120.000004577637,8|8,0:0|0:0,0:0:0:0:
455,3,37574,1,2,0:0:0:0:
285,185,37812,1,0,0:0:0:0:
285,185,37931,2,0,P|224:201|160:170,1,120.000004577637,8|8,0:0|0:0,0:0:0:0:
70,109,38288,6,0,L|197:97,1,120.000004577637,2|0,0:0|0:0,0:0:0:0:
282,30,38645,2,0,L|155:18,1,120.000004577637,12|8,0:0|0:3,0:0:0:0:
136,183,39002,5,0,0:0:0:0:
144,211,39121,1,8,0:3:0:0:
151,239,39240,1,8,0:3:0:0:
160,267,39359,2,0,P|215:284|276:248,1,120.000004577637,4|4,0:3|0:3,0:0:0:0:
294,155,39716,6,0,L|283:300,1,120.000004577637,6|0,0:0|0:0,0:0:0:0:
220,378,40074,2,0,L|136:371,1,60.0000022888184,10|0,0:0|0:0,0:0:0:0:
53,308,40312,1,0,0:0:0:0:
53,308,40431,2,0,P|115:313|153:367,1,120.000004577637,2|0,0:0|0:0,0:0:0:0:
237,378,40788,2,0,L|366:359,1,120.000004577637,10|0,0:0|0:0,0:0:0:0:
418,291,41145,5,2,0:0:0:0:
379,118,41383,1,0,0:0:0:0:
379,118,41502,2,0,L|393:185,1,60.0000022888184,10|0,0:0|0:0,0:0:0:0:
488,227,41740,2,0,P|426:199|336:251,1,180.000006866455,8|0,0:0|0:0,0:0:0:0:
244,283,42216,2,0,L|256:224,1,60.0000022888184,10|0,0:0|0:0,0:0:0:0:
273,116,42455,1,8,0:0:0:0:
167,146,42574,6,0,L|300:135,1,120.000004577637,4|0,0:0|0:0,0:0:0:0:
366,68,42931,2,0,P|340:9|254:-2,1,120.000004577637,8|0,0:0|0:0,0:0:0:0:
175,161,43288,6,0,L|308:150,1,120.000004577637,4|0,0:0|0:0,0:0:0:0:
374,83,43645,2,0,P|348:24|262:13,1,120.000004577637,8|0,0:0|0:0,0:0:0:0:
306,169,44002,6,0,L|297:234,1,60.0000022888184,4|0,0:0|0:0,0:0:0:0:
361,310,44240,1,0,0:0:0:0:
361,310,44359,2,0,L|236:300,1,120.000004577637,8|0,0:0|0:0,0:0:0:0:
166,185,44716,5,8,0:3:0:0:
79,157,44836,1,8,0:3:0:0:
25,229,44955,1,8,0:3:0:0:
67,308,45074,5,4,0:3:0:0:
88,328,45193,1,4,0:3:0:0:
99,355,45312,1,4,0:3:0:0:
14,372,45431,6,0,L|187:359,1,155.999992858887,4|0,0:0|0:0,0:0:0:0:
272,136,46145,2,0,P|264:204|280:248,1,103.999995239258,8|0,0:0|0:0,0:0:0:0:
364,236,46502,2,0,P|375:185|366:134,1,103.999995239258,0|0,0:0|0:0,0:0:0:0:
301,47,46859,6,0,L|229:46,1,51.999997619629,2|0,0:0|0:0,0:0:0:0:
187,149,47097,2,0,P|136:170|84:153,1,103.999995239258,8|0,0:0|0:0,0:0:0:0:
132,72,47455,1,0,0:0:0:0:
132,72,47574,2,0,L|146:251,1,155.999992858887,8|0,0:0|0:0,0:0:0:0:
218,329,48169,1,0,0:0:0:0:
218,329,48288,6,0,B|110:333|110:333|72:292,1,155.999992858887,4|0,0:0|0:0,0:0:0:0:
127,126,49002,2,0,P|143:180|143:233,1,103.999995239258,8|0,0:0|0:0,0:0:0:0:
235,231,49359,2,0,P|236:179|251:129,1,103.999995239258,0|0,0:0|0:0,0:0:0:0:
334,84,49716,5,4,0:3:0:0:
334,84,49955,2,0,L|460:83,1,103.999995239258,8|0,0:3|0:0,0:0:0:0:
387,177,50312,1,8,0:3:0:0:
387,177,50431,2,0,L|392:246,1,51.999997619629,8|0,0:0|0:0,0:0:0:0:
457,326,50669,1,0,0:0:0:0:
457,326,50788,2,0,P|400:311|349:322,1,103.999995239258,2|0,0:0|0:0,0:0:0:0:
286,373,51145,6,0,L|173:363,1,95.9999970703126,8|0,0:0|0:0,0:0:0:0:
157,238,51383,1,8,0:3:0:0:
157,238,51502,1,8,0:3:0:0:
157,238,51740,6,0,B|115:168|146:103|146:103|156:127|190:150,1,191.999994140625,4|0,0:0|0:0,0:0:0:0:
62,217,52097,1,8,0:0:0:0:
62,217,52216,2,0,L|46:152,1,51.999997619629,8|0,0:0|0:0,0:0:0:0:
237,74,52455,6,0,B|286:90|325:69|325:69|372:46|433:74,1,191.999994140625,4|0,0:0|0:0,0:0:0:0:
375,193,52812,1,8,0:0:0:0:
375,193,52931,2,0,P|368:164|369:141,1,51.999997619629,8|0,0:0|0:0,0:0:0:0:
277,0,53169,6,0,P|297:90|269:212,1,191.999994140625,4|0,0:0|0:0,0:0:0:0:
207,296,53526,1,0,0:0:0:0:
207,296,53645,2,0,P|255:277|325:289,1,103.999995239258,8|0,0:0|0:0,0:0:0:0:
426,383,54002,6,0,L|313:370,1,95.9999970703126,8|0,0:0|0:0,0:0:0:0:
387,242,54240,1,8,0:3:0:0:
387,242,54359,1,8,0:3:0:0:
387,242,54597,6,0,B|370:113|370:113|415:51,1,191.999994140625,4|0,0:0|0:0,0:0:0:0:
485,211,54955,1,8,0:0:0:0:
485,211,55074,2,0,L|481:289,1,51.999997619629,8|0,0:0|0:0,0:0:0:0:
294,284,55312,1,8,0:0:0:0:
207,254,55431,6,0,L|401:241,1,180.000006866455,6|8,0:0|0:0,0:0:0:0:
488,79,56026,1,0,0:0:0:0:
488,79,56145,2,0,P|416:65|366:98,1,120.000004577637,2|0,0:0|0:0,0:0:0:0:
310,140,56502,2,0,P|255:162|199:146,1,120.000004577637,8|0,0:0|0:0,0:0:0:0:
77,53,56859,6,0,B|118:28|118:28|110:190,1,180.000006866455,2|8,0:0|0:0,0:0:0:0:
55,346,57455,1,0,0:0:0:0:
55,346,57574,2,0,P|40:271|75:224,1,120.000004577637,2|0,0:0|0:0,0:0:0:0:
149,239,57931,2,0,P|172:292|154:348,1,120.000004577637,8|0,0:0|0:0,0:0:0:0:
280,320,58288,6,0,P|277:245|355:310,1,227.999993911743,6|8,0:0|0:0,0:0:0:0:
406,376,58883,1,0,0:0:0:0:
280,320,59002,6,0,P|296:215|341:321,1,276.000005264282,2|8,0:0|0:0,0:0:0:0:
406,376,59597,1,0,0:0:0:0:
280,320,59716,6,0,P|300:197|333:323,1,324.000001235962,2|4,0:0|0:0,0:0:0:0:
488,80,60312,1,0,0:0:0:0:
488,80,60431,2,0,L|496:168,2,80,8|8|8,3:0|3:0|3:0,0:0:0:0:
413,4,60788,5,8,3:3:0:0:
325,2,60907,1,8,3:3:0:0:
270,70,61026,1,8,3:3:0:0:
297,153,61145,6,0,L|310:244,1,80,4|0,0:0|0:0,0:0:0:0:
292,373,61383,1,8,0:3:0:0:
210,293,61502,2,0,L|221:213,1,80,8|0,0:3|0:0,0:0:0:0:
181,27,61740,6,0,P|99:19|41:88,1,160,0|0,1:0|0:0,0:0:0:0:
181,27,62097,6,0,P|80:52|56:138,1,191.999994140625,0|0,1:0|0:0,0:0:0:0:
181,27,62455,6,0,P|91:66|89:185,1,223.999993164063,4|0,0:0|0:0,0:0:0:0:
125,327,62812,5,8,0:3:0:0:
213,315,62931,1,8,0:3:0:0:
146,344,63050,1,8,0:3:0:0:
189,338,63169,1,8,0:3:0:0:
162,245,63288,6,0,L|160:115,1,120.000004577637,8|0,0:0|0:0,0:0:0:0:
172,102,63645,6,0,L|173:315,1,191.999994140625,4|0,0:0|0:0,0:0:0:0:
316,171,64002,6,0,P|373:151|454:194,1,128,4|0,0:1|0:0,0:0:0:0:
464,0,64359,6,0,L|446:203,1,191.999994140625,8|0,0:0|0:0,0:0:0:0:
381,350,64716,6,0,P|368:299|372:238,1,95.9999970703126,2|0,0:0|0:0,0:0:0:0:
457,210,64955,1,0,0:0:0:0:
352,245,65074,2,0,P|297:251|239:235,1,95.9999970703126,8|0,0:0|0:0,0:0:0:0:
89,109,65312,1,0,0:0:0:0:
199,62,65431,6,0,B|157:95|150:150|185:190|185:190|213:154|245:154,1,191.999994140625,4|0,0:0|0:0,0:0:0:0:
405,195,65788,2,0,B|397:142|353:108|301:118|301:118|318:161|302:188,1,191.999994140625,12|0,0:0|0:0,0:0:0:0:
185,311,66145,2,0,B|234:330|285:309|302:259|302:259|257:252|241:225,1,191.999994140625,12|0,0:0|0:0,0:0:0:0:
138,224,66502,5,8,0:0:0:0:
312,170,66740,1,0,0:0:0:0:
312,170,66859,6,0,L|452:159,1,128,4|0,0:0|0:0,0:0:0:0:
488,45,67216,6,0,P|400:74|448:165,1,191.999994140625,8|0,0:0|0:0,0:0:0:0:
449,268,67574,2,0,L|344:258,1,95.9999970703126,2|0,0:0|0:0,0:0:0:0:
286,331,67812,1,2,0:0:0:0:
180,320,67931,2,0,L|285:310,1,95.9999970703126,8|0,0:0|0:0,0:0:0:0:
367,144,68169,1,0,0:0:0:0:
302,83,68288,6,0,P|275:144|299:207,1,128,2|0,0:0|0:0,0:0:0:0:
466,232,68645,6,0,L|265:218,1,191.999994140625,8|8,0:0|0:0,0:0:0:0:
115,138,69002,2,0,P|162:133|215:160,1,95.9999970703126,2|0,0:0|0:0,0:0:0:0:
260,311,69240,1,8,0:0:0:0:
364,249,69359,2,0,L|352:139,1,95.9999970703126,8|0,0:0|0:0,0:0:0:0:
450,5,69597,1,8,0:0:0:0:
504,89,69716,6,0,B|436:120|366:68,1,128,6|0,0:0|0:0,0:0:0:0:
209,28,70074,6,0,B|265:29|265:29|331:66|331:66|401:62,1,191.999994140625,8|0,0:0|0:0,0:0:0:0:
222,41,70431,2,0,P|118:18|57:77,1,191.999994140625,2|0,0:0|0:0,0:0:0:0:
11,299,70788,5,8,0:0:0:0:
26,329,70907,1,0,0:0:0:0:
57,340,71026,1,0,0:0:0:0:
175,292,71145,6,0,B|251:240|313:283|313:283|256:280,1,191.999994140625,2|0,0:0|0:0,0:0:0:0:
94,252,71502,2,0,B|101:343|32:376|32:376|63:328,1,191.999994140625,8|0,0:0|0:0,0:0:0:0:
170,201,71859,2,0,B|86:161|93:85|93:85|119:136,1,191.999994140625,2|0,0:0|0:0,0:0:0:0:
248,138,72216,2,0,L|343:140,1,95.9999970703126,8|8,0:3|0:3,0:0:0:0:
432,215,72455,1,8,0:3:0:0:
350,273,72574,6,0,P|338:192|361:150,1,128,6|0,0:0|0:0,0:0:0:0:
384,43,72931,6,0,B|325:36|289:65|289:65|258:34|204:37,1,191.999994140625,8|0,0:0|0:0,0:0:0:0:
95,126,73288,2,0,P|87:162|114:224,1,95.9999970703126,2|0,0:0|0:0,0:0:0:0:
196,249,73526,1,0,0:0:0:0:
37,277,73645,2,0,P|64:301|131:309,1,95.9999970703126,8|0,0:0|0:0,0:0:0:0:
182,155,73883,1,8,0:0:0:0:
136,43,74002,5,4,3:2:0:0:
49,41,74121,1,0,3:3:0:0:
2,113,74240,1,0,3:3:0:0:
43,188,74359,2,0,P|58:231|50:291,2,95.9999970703126,0|0|0,3:3|3:3|3:3,0:0:0:0:
161,245,74716,5,8,3:3:0:0:
247,238,74836,1,8,3:3:0:0:
332,228,74955,1,8,3:3:0:0:
397,168,75074,5,4,3:3:0:0:
380,144,75193,1,4,3:3:0:0:
351,139,75312,1,4,3:3:0:0:
325,249,75431,6,0,L|347:381,1,128,4|0,0:1|0:0,0:0:0:0:
512,352,75788,6,0,P|436:309|345:372,1,191.999994140625,8|0,0:0|0:0,0:0:0:0:
153,331,76145,2,0,L|257:321,1,95.9999970703126,2|0,0:0|0:0,0:0:0:0:
431,275,76383,1,0,0:0:0:0:
345,230,76502,2,0,P|330:186|343:133,1,95.9999970703126,8|0,0:0|0:0,0:0:0:0:
432,7,76740,1,0,0:0:0:0:
508,50,76859,6,0,L|315:47,1,191.999994140625,4|0,0:0|0:0,0:0:0:0:
158,60,77216,2,0,L|351:57,1,191.999994140625,12|0,0:0|0:0,0:0:0:0:
191,72,77574,2,0,L|-2:69,1,191.999994140625,12|0,0:0|0:0,0:0:0:0:
93,157,77931,5,8,0:0:0:0:
0,265,78169,1,0,0:0:0:0:
0,265,78288,6,0,P|49:263|97:331,1,128,4|0,0:0|0:0,0:0:0:0:
227,259,78645,6,0,P|121:276|99:361,1,191.999994140625,8|0,0:0|0:0,0:0:0:0:
308,330,79002,2,0,L|318:214,1,95.9999970703126,2|0,0:0|0:0,0:0:0:0:
244,142,79240,1,0,0:0:0:0:
251,26,79359,2,0,L|259:121,1,95.9999970703126,8|0,0:0|0:0,0:0:0:0:
408,217,79597,1,0,0:0:0:0:
471,147,79716,6,0,P|401:122|340:153,1,128,2|0,0:0|0:0,0:0:0:0:
152,169,80074,6,0,P|241:169|367:162,1,191.999994140625,8|0,0:0|0:0,0:0:0:0:
499,249,80431,2,0,P|488:294|486:352,1,95.9999970703126,2|0,0:0|0:0,0:0:0:0:
340,367,80669,1,8,0:0:0:0:
300,267,80788,2,0,P|254:249|199:263,1,95.9999970703126,8|0,0:0|0:0,0:0:0:0:
89,349,81026,1,8,0:0:0:0:
28,255,81145,6,0,P|27:184|17:127,1,128,4|0,0:0|0:0,0:0:0:0:
141,17,81502,6,0,L|127:223,1,191.999994140625,8|0,0:0|0:0,0:0:0:0:
250,293,81859,6,0,P|245:243|268:172,1,95.9999970703126,2|0,0:0|0:0,0:0:0:0:
345,140,82097,1,0,0:0:0:0:
200,96,82216,2,0,P|152:113|91:102,1,95.9999970703126,8|0,0:0|0:0,0:0:0:0:
82,300,82455,1,8,0:0:0:0:
0,251,82574,6,0,P|89:203|169:258,1,191.999994140625,4|0,0:0|0:0,0:0:0:0:
336,252,82931,2,0,P|247:204|167:259,1,191.999994140625,12|0,0:0|0:0,0:0:0:0:
352,252,83288,2,0,P|441:204|521:259,1,191.999994140625,4|0,0:0|0:0,0:0:0:0:
441,91,83645,6,0,L|430:214,1,95.9999970703126,0|0,0:0|0:0,0:0:0:0:
273,297,84002,5,0,1:0:0:0:
273,297,84359,2,0,B|205:196|182:244|182:244|201:300|319:163,1,256,0|0,0:0|0:0,0:0:0:0:
312,31,84716,5,0,1:0:0:0:
312,31,85074,2,0,P|304:68|309:126,1,80,0|0,0:0|0:0,0:0:0:0:
361,258,85312,1,8,0:0:0:0:
473,169,85431,6,0,L|344:166,1,95.9999970703126,8|0,0:0|0:0,0:0:0:0:
213,134,85669,1,8,0:3:0:0:
32,178,85788,2,0,L|127:180,1,95.9999970703126,8|0,0:3|0:0,0:0:0:0:
289,203,86026,1,0,0:0:0:0:
213,370,86145,6,0,B|202:234|202:234|222:272|248:286,1,191.999994140625,8|0,0:0|0:0,0:0:0:0:
383,301,86502,1,8,0:3:0:0:
478,295,86621,1,8,0:3:0:0:
383,301,86740,1,8,0:3:0:0:
430,380,86859,6,0,B|437:218|437:218|380:182|379:138|410:97|456:92|498:113|514:154|505:200|440:220,1,440.000013427735,4|4,0:0|0:3,0:0:0:0:
469,221,87514,5,4,0:3:0:0:
476,229,87574,2,0,L|247:219,1,215.999993408203,4|0,0:0|0:0,0:0:0:0:
