osu file format v14

[General]
AudioFilename: jump.mp3
AudioLeadIn: 0
PreviewTime: 63228
Countdown: 0
SampleSet: Soft
StackLeniency: 0.7
Mode: 0
LetterboxInBreaks: 0
WidescreenStoryboard: 0

[Editor]
DistanceSpacing: 1
BeatDivisor: 3
GridSize: 4
TimelineZoom: 2.2

[Metadata]
Title:JUMPin' JUMP UP!!!!
TitleUnicode:JUMPin' JUMP UP!!!!
Artist:fourfolium
ArtistUnicode:fourfolium
Creator:Doormat
Version:Hard
Source:NEW GAME!!
Tags:Akitoshi Corinn Karen StarrStyx alacat Kisses フォーフォリウム ニューゲーム season 2 two ending ed tv size takada yuuki 高田憂希 suzukaze aoba 涼風青葉 yamaguchi megumi 山口愛 takimoto hifumi 滝本ひふみ toda megumi 戸田めぐみ shinoda hazime 篠田はじめ ayumi takeo 竹尾歩美 iizima yun 飯島ゆん
BeatmapID:1360840
BeatmapSetID:641695

[Difficulty]
HPDrainRate:5.5
CircleSize:4
OverallDifficulty:7
ApproachRate:8
SliderMultiplier:1.4
SliderTickRate:1

[Events]
//Background and Video events
Video,0,"newgame_ed.avi"
0,0,"newgame_background.jpg",0,0
//Break Periods
//Storyboard Layer 0 (Background)
//Storyboard Layer 1 (Fail)
//Storyboard Layer 2 (Pass)
//Storyboard Layer 3 (Foreground)
//Storyboard Sound Samples

[TimingPoints]
-283,357.142857142857,4,2,1,60,1,0
1145,-125,4,2,1,80,0,0
5431,-100,4,2,1,80,0,0
6859,-100,4,2,1,70,0,0
12216,-100,4,2,1,80,0,0
12574,-100,4,2,1,70,0,0
18288,-125,4,2,1,70,0,0
19716,-111.111111111111,4,2,1,60,0,0
22574,-125,4,2,1,60,0,0
25431,-111.111111111111,4,2,1,60,0,0
28288,-125,4,2,1,50,0,0
31145,-111.111111111111,4,2,1,60,0,0
34002,-125,4,2,1,50,0,0
36859,-111.111111111111,4,2,1,60,0,0
39716,-100,4,2,1,70,0,0
42574,-100,4,2,1,80,0,0
45431,-125,4,2,1,50,0,0
51145,-111.111111111111,4,2,1,60,0,0
55431,-111.111111111111,4,2,1,70,0,0
60074,-111.111111111111,4,2,1,80,0,0
60431,-111.111111111111,4,2,1,70,0,0
61145,-100,4,2,1,70,0,0
63288,-100,4,2,1,60,0,0
64002,-90.9090909090909,4,2,1,80,0,1
65431,-90.9090909090909,4,2,1,90,0,1
66502,-90.9090909090909,4,2,1,80,0,1
75371,-90.9090909090909,4,2,1,80,0,0
75431,-90.9090909090909,4,2,1,80,0,1
76859,-90.9090909090909,4,2,1,90,0,1
77931,-90.9090909090909,4,2,1,80,0,1
84002,-100,4,2,1,70,0,0
86859,-125,4,2,1,60,0,0

[Colours]
Combo1 : 241,142,86
Combo2 : 250,191,27
Combo3 : 149,216,62
Combo4 : 181,178,148
Combo5 : 195,123,177
Combo6 : 149,208,183
Combo7 : 237,121,128
Combo8 : 129,205,219

[HitObjects]
384,104,1145,6,0,L|372:228,1,112,4|0,0:0|0:0,0:0:0:0:
204,284,1859,2,0,P|192:236|212:172,1,112,4|0,0:0|0:0,0:0:0:0:
263,48,2455,1,0,0:0:0:0:
263,48,2574,6,0,P|227:55|190:51,1,74.6666666666667,4|0,0:0|0:0,0:0:0:0:
100,24,2931,2,0,P|107:60|103:97,1,74.6666666666667,4|0,0:0|0:0,0:0:0:0:
52,176,3288,1,4,0:0:0:0:
188,320,3645,2,0,L|268:304,1,74.6666666666667,8|0,0:0|0:0,0:0:0:0:
360,244,4002,5,0,1:0:0:0:
360,244,4359,2,0,P|352:208|359:172,1,74.6666666666667,0|0,0:0|0:0,0:0:0:0:
396,60,4716,1,0,1:0:0:0:
396,60,5074,2,0,P|359:53|323:61,1,74.6666666666667,0|0,0:0|0:0,0:0:0:0:
200,104,5431,6,0,L|192:28,2,46.6666666666667,4|0|0,1:2|3:0|3:0,0:0:0:0:
228,187,5788,2,0,L|222:233,2,46.6666666666667,0|0|0,1:0|3:0|3:0,0:0:0:0:
141,168,6145,2,0,P|118:175|95:176,1,46.6666666666667,0|0,1:0|0:0,0:0:0:0:
8,140,6383,1,0,0:0:0:0:
8,140,6502,2,0,L|0:268,1,93.3333333333333,12|0,0:0|0:0,0:0:0:0:
84,324,6859,6,0,P|124:302|171:302,1,93.3333333333333,6|0,0:0|0:0,0:0:0:0:
276,340,7216,2,0,L|264:204,1,93.3333333333333,8|8,0:0|0:0,0:0:0:0:
260,136,7574,1,2,0:0:0:0:
92,80,7812,1,0,0:0:0:0:
92,80,7931,2,0,P|80:152|100:196,1,93.3333333333333,8|8,0:0|0:0,0:0:0:0:
176,252,8288,5,2,0:0:0:0:
352,252,8526,1,0,0:0:0:0:
352,252,8645,2,0,L|452:236,1,93.3333333333333,8|8,0:0|0:0,0:0:0:0:
460,140,9002,2,0,P|425:109|407:66,1,93.3333333333333,2|0,0:0|0:0,0:0:0:0:
316,104,9359,2,0,P|307:149|278:185,1,93.3333333333333,8|8,0:0|0:0,0:0:0:0:
176,252,9716,5,2,0:0:0:0:
98,92,9955,1,0,0:0:0:0:
98,92,10074,2,0,L|191:95,1,93.3333333333333,8|8,0:0|0:0,0:0:0:0:
260,24,10431,2,0,P|304:60|372:56,1,93.3333333333333,2|0,0:0|0:0,0:0:0:0:
396,144,10788,2,0,P|360:188|364:256,1,93.3333333333333,8|8,0:0|0:0,0:0:0:0:
428,320,11145,6,0,L|469:360,2,46.6666666666667,2|0|8,0:0|0:0|0:0,0:0:0:0:
332,340,11502,2,0,L|348:396,2,46.6666666666667,10|0|8,0:0|0:0|0:0,0:0:0:0:
260,272,11859,2,0,L|167:281,1,93.3333333333333,10|0,0:0|0:0,0:0:0:0:
104,356,12216,2,0,L|-8:344,1,93.3333333333333,6|0,0:0|0:0,0:0:0:0:
56,244,12574,6,0,P|84:179|97:111,1,140,6|2,0:0|0:0,0:0:0:0:
252,28,13169,1,0,0:0:0:0:
252,28,13288,2,0,P|264:96|292:160,1,140,8|2,0:0|0:0,0:0:0:0:
384,312,13883,1,0,0:0:0:0:
384,312,14002,6,0,L|264:336,1,93.3333333333333,2|8,0:0|0:0,0:0:0:0:
196,352,14359,1,0,0:0:0:0:
68,228,14597,1,0,0:0:0:0:
68,228,14716,2,0,L|60:284,2,46.6666666666667,10|0|0,0:0|0:0|0:0,0:0:0:0:
64,128,15074,2,0,P|112:152|164:136,1,93.3333333333333,8|0,0:0|0:0,0:0:0:0:
252,80,15431,6,0,L|244:24,2,46.6666666666667,2|0|0,0:0|0:0|0:0,0:0:0:0:
332,136,15788,2,0,L|353:83,2,46.6666666666667,8|0|0,0:0|0:0|0:0,0:0:0:0:
373,224,16145,2,0,L|417:189,2,46.6666666666667,2|0|0,0:0|0:0|0:0,0:0:0:0:
364,321,16502,2,0,L|420:313,2,46.6666666666667,8|0|0,0:0|0:0|0:0,0:0:0:0:
248,284,16859,5,8,0:3:0:0:
336,116,17097,1,8,0:3:0:0:
146,123,17336,1,8,0:3:0:0:
352,139,17574,5,4,0:3:0:0:
224,278,17812,1,4,0:3:0:0:
167,96,18051,1,4,0:3:0:0:
364,96,18288,6,0,P|356:164|356:236,2,112,4|0|2,0:3|0:0|0:3,0:0:0:0:
488,288,19359,1,2,0:0:0:0:
272,368,19716,6,0,L|160:356,1,83.9999974365235,4|0,0:0|0:0,0:0:0:0:
100,360,20074,2,0,L|112:248,1,83.9999974365235,2|0,0:0|0:0,0:0:0:0:
108,188,20431,2,0,L|220:200,1,83.9999974365235,2|0,0:0|0:0,0:0:0:0:
280,195,20788,2,0,L|268:307,1,83.9999974365235,2|0,0:0|0:0,0:0:0:0:
272,368,21145,5,2,0:0:0:0:
100,360,21383,1,0,0:0:0:0:
100,360,21502,1,2,0:0:0:0:
108,188,21740,1,0,0:0:0:0:
108,188,21859,1,2,0:0:0:0:
272,368,22216,1,8,0:3:0:0:
408,164,22574,6,0,P|355:180|302:164,1,112,4|0,0:0|0:0,0:0:0:0:
300,24,23288,2,0,P|352:7|405:23,1,112,4|0,0:0|0:0,0:0:0:0:
408,164,24002,2,0,P|407:202|400:264,1,74.6666666666667,4|0,0:0|0:0,0:0:0:0:
380,320,24359,2,0,P|347:300|297:263,1,74.6666666666667,8|8,0:0|0:0,0:0:0:0:
260,216,24716,2,0,P|224:256|188:340,1,112,2|8,0:0|0:0,0:0:0:0:
24,224,25312,1,8,0:0:0:0:
24,224,25431,6,0,P|32:176|36:116,1,83.9999974365235,6|0,0:0|0:0,0:0:0:0:
64,52,25788,2,0,P|101:82|151:116,1,83.9999974365235,8|8,0:0|0:0,0:0:0:0:
212,148,26145,1,2,0:0:0:0:
360,44,26383,1,0,0:0:0:0:
360,44,26502,2,0,L|368:152,1,83.9999974365235,8|8,0:0|0:0,0:0:0:0:
420,224,26859,6,0,P|360:212|300:248,1,125.999996154785,2|8,0:0|0:0,0:0:0:0:
132,200,27455,1,8,0:0:0:0:
132,200,27574,2,0,L|116:108,1,83.9999974365235,2|0,0:0|0:0,0:0:0:0:
40,160,27931,2,0,L|25:242,1,83.9999974365235,8|8,0:0|0:0,0:0:0:0:
12,343,28288,6,0,P|45:329|82:331,1,74.6666666666667,4|0,0:0|0:0,0:0:0:0:
164,360,28645,2,0,P|197:345|234:347,1,74.6666666666667,2|0,0:0|0:0,0:0:0:0:
315,376,29002,2,0,P|348:361|385:363,1,74.6666666666667,10|0,0:0|0:0,0:0:0:0:
468,304,29359,2,0,L|456:200,1,74.6666666666667,0|0,1:0|0:0,0:0:0:0:
472,128,29716,6,0,P|438:142|401:140,1,74.6666666666667,2|0,0:0|0:0,0:0:0:0:
320,111,30073,2,0,P|286:125|249:123,1,74.6666666666667,2|0,0:0|0:0,0:0:0:0:
169,95,30430,2,0,P|135:109|98:107,1,74.6666666666667,10|0,0:0|0:0,0:0:0:0:
16,167,30787,2,0,L|28:271,1,74.6666666666667,0|0,1:0|0:0,0:0:0:0:
40,344,31145,6,0,L|136:316,1,83.9999974365235,4|0,0:0|0:0,0:0:0:0:
192,248,31502,2,0,L|264:260,1,41.9999987182618,8|0,0:0|0:0,0:0:0:0:
324,272,31740,1,8,0:0:0:0:
324,272,31859,6,0,P|312:204|320:152,1,83.9999974365235,4|0,0:0|0:0,0:0:0:0:
364,100,32216,2,0,L|436:112,1,41.9999987182618,8|0,0:0|0:0,0:0:0:0:
496,124,32454,1,8,0:0:0:0:
496,124,32574,6,0,L|480:232,1,83.9999974365235,4|8,0:0|0:3,0:0:0:0:
416,276,32931,2,0,L|403:192,1,83.9999974365235,8|8,0:3|0:3,0:0:0:0:
324,248,33288,2,0,L|308:356,1,83.9999974365235,8|8,0:0|0:3,0:0:0:0:
232,276,33645,2,0,L|225:234,2,41.9999987182618,8|8|8,0:3|0:3|0:3,0:0:0:0:
168,360,34002,6,0,P|117:337|62:346,1,112,4|0,0:0|0:0,0:0:0:0:
104,172,34597,1,8,0:3:0:0:
104,172,34716,2,0,P|154:194|209:186,1,112,4|8,0:0|0:3,0:0:0:0:
468,208,35431,6,0,L|456:312,1,74.6666666666667,4|0,0:0|0:0,0:0:0:0:
432,364,35788,2,0,L|347:301,1,74.6666666666667,0|8,0:0|0:0,0:0:0:0:
340,240,36145,2,0,P|300:260|220:256,1,112,8|2,0:0|0:0,0:0:0:0:
256,112,36740,1,0,0:0:0:0:
256,112,36859,6,0,L|368:116,1,83.9999974365235,4|0,0:0|0:0,0:0:0:0:
436,120,37216,1,8,0:0:0:0:
360,304,37455,1,8,0:0:0:0:
360,304,37574,2,0,P|320:296|278:304,1,83.9999974365235,2|0,0:0|0:0,0:0:0:0:
196,356,37931,1,8,0:0:0:0:
64,220,38169,1,8,0:0:0:0:
64,220,38288,6,0,L|88:120,1,83.9999974365235,2|0,0:0|0:0,0:0:0:0:
180,176,38645,2,0,L|209:274,1,83.9999974365235,12|8,0:0|0:3,0:0:0:0:
271,336,39002,2,0,P|255:349|237:358,2,41.9999987182618,0|8|8,0:0|0:3|0:3,0:0:0:0:
360,284,39359,2,0,L|354:191,1,83.9999974365235,4|4,0:3|0:3,0:0:0:0:
276,112,39716,6,0,L|272:48,1,46.6666666666667,6|0,0:0|0:0,0:0:0:0:
192,8,39955,1,0,0:0:0:0:
192,8,40074,2,0,P|128:44|80:36,1,93.3333333333333,10|0,0:0|0:0,0:0:0:0:
0,40,40431,2,0,L|8:104,1,46.6666666666667,2|0,0:0|0:0,0:0:0:0:
20,184,40669,1,0,0:0:0:0:
20,184,40788,2,0,P|65:191|101:220,1,93.3333333333333,10|0,0:0|0:0,0:0:0:0:
184,292,41145,6,0,L|192:199,1,93.3333333333333,2|0,0:0|0:0,0:0:0:0:
204,100,41502,1,10,0:0:0:0:
336,256,41740,1,8,0:0:0:0:
336,256,41859,2,0,P|382:260|426:246,1,93.3333333333333,2|0,0:0|0:0,0:0:0:0:
508,191,42216,1,10,0:0:0:0:
332,40,42455,1,8,0:0:0:0:
332,40,42574,6,0,L|172:52,1,140,4|8,0:0|0:0,0:0:0:0:
172,264,43169,1,0,0:0:0:0:
172,264,43288,2,0,P|184:219|173:174,1,93.3333333333333,4|0,0:0|0:0,0:0:0:0:
87,124,43645,2,0,P|42:135|8:167,1,93.3333333333333,8|0,0:0|0:0,0:0:0:0:
0,280,44002,5,4,0:0:0:0:
156,378,44240,1,0,0:0:0:0:
156,378,44359,2,0,L|272:358,1,93.3333333333333,8|0,0:0|0:0,0:0:0:0:
319,293,44716,2,0,P|333:310|343:332,2,46.6666666666667,8|8|8,0:3|0:3|0:3,0:0:0:0:
252,224,45074,2,0,P|244:178|260:134,1,93.3333333333333,4|4,0:3|0:3,0:0:0:0:
344,64,45431,6,0,P|259:104|177:55,1,186.666666666667,4|0,0:0|0:0,0:0:0:0:
159,36,46145,1,8,0:0:0:0:
40,164,46502,1,0,0:0:0:0:
184,264,46859,1,2,0:0:0:0:
268,180,47097,2,0,L|379:193,1,112,8|0,0:0|0:0,0:0:0:0:
468,172,47574,2,0,P|459:227|458:283,1,112,8|0,0:0|0:0,0:0:0:0:
184,120,48288,5,4,0:0:0:0:
416,80,48645,1,0,0:0:0:0:
251,248,49002,1,8,0:0:0:0:
284,14,49359,1,0,0:0:0:0:
393,222,49716,5,4,0:3:0:0:
250,247,49955,2,0,P|216:235|179:235,1,74.6666666666667,8|0,0:3|0:0,0:0:0:0:
88,280,50312,1,8,0:3:0:0:
88,280,50431,1,8,0:0:0:0:
0,168,50669,1,0,0:0:0:0:
0,168,50788,2,0,P|4:116|12:72,1,74.6666666666667,2|0,0:0|0:0,0:0:0:0:
104,24,51145,5,8,0:0:0:0:
276,60,51383,1,8,0:3:0:0:
276,60,51502,1,8,0:3:0:0:
104,168,51740,2,0,L|108:272,1,83.9999974365235,4|0,0:0|0:0,0:0:0:0:
112,344,52097,1,8,0:0:0:0:
112,344,52216,1,8,0:0:0:0:
280,228,52455,6,0,P|320:216|362:216,1,83.9999974365235,4|0,0:0|0:0,0:0:0:0:
451,236,52812,1,8,0:0:0:0:
451,236,52931,1,8,0:0:0:0:
340,384,53169,2,0,L|204:364,1,125.999996154785,4|0,0:0|0:0,0:0:0:0:
124,352,53645,2,0,P|152:300|160:252,1,83.9999974365235,8|0,0:0|0:0,0:0:0:0:
152,160,54002,5,8,0:0:0:0:
316,228,54240,1,8,0:3:0:0:
316,228,54359,1,8,0:3:0:0:
432,64,54597,2,0,L|312:48,1,83.9999974365235,4|0,0:0|0:0,0:0:0:0:
256,40,54955,1,8,0:0:0:0:
256,40,55074,1,8,0:0:0:0:
344,204,55312,1,8,0:0:0:0:
344,204,55431,6,0,P|352:244|349:286,1,83.9999974365235,6|0,0:0|0:0,0:0:0:0:
304,368,55788,1,8,0:0:0:0:
148,268,56026,1,0,0:0:0:0:
148,268,56145,2,0,L|248:256,1,83.9999974365235,2|0,0:0|0:0,0:0:0:0:
176,180,56502,2,0,L|76:168,1,83.9999974365235,8|0,0:0|0:0,0:0:0:0:
0,95,56859,6,0,P|41:89|76:67,1,83.9999974365235,2|0,0:0|0:0,0:0:0:0:
148,8,57216,1,8,0:0:0:0:
324,60,57455,1,0,0:0:0:0:
324,60,57574,2,0,L|312:143,1,83.9999974365235,2|0,0:0|0:0,0:0:0:0:
252,212,57931,2,0,L|263:295,1,83.9999974365235,8|0,0:0|0:0,0:0:0:0:
359,356,58288,6,0,P|411:320|473:314,2,125.999996154785,6|8|2,0:0|0:0|0:0,0:0:0:0:
180,308,59240,1,0,0:0:0:0:
180,308,59359,2,0,L|168:224,1,83.9999974365235,8|0,0:0|0:0,0:0:0:0:
124,120,59716,6,0,P|165:125|204:110,1,83.9999974365235,2|0,0:0|0:0,0:0:0:0:
272,48,60074,1,4,0:0:0:0:
444,112,60312,1,0,0:0:0:0:
444,112,60431,2,0,L|485:107,2,41.9999987182618,0|0|0,3:0|3:0|3:0,0:0:0:0:
396,192,60788,2,0,L|419:225,2,41.9999987182618,8|8|8,3:3|3:3|3:3,0:0:0:0:
280,144,61145,6,0,P|224:136|164:156,1,93.3333333333333,4|8,0:0|0:3,0:0:0:0:
104,192,61502,1,8,0:3:0:0:
232,376,61740,2,0,P|240:306|236:236,1,140,0|0,1:0|1:0,0:0:0:0:
100,20,62455,6,0,P|95:89|104:159,1,140,4|8,0:0|0:3,0:0:0:0:
161,244,62931,2,0,L|157:304,2,46.6666666666667,8|8|8,0:3|0:3|0:3,0:0:0:0:
240,180,63288,2,0,P|283:164|332:172,1,93.3333333333333,8|0,0:0|0:0,0:0:0:0:
364,264,63645,2,0,P|334:299|288:316,1,93.3333333333333,4|0,0:0|0:0,0:0:0:0:
161,244,64002,6,0,P|156:172|160:108,1,102.666669799805,4|0,0:1|0:0,0:0:0:0:
168,36,64359,1,8,0:0:0:0:
376,88,64597,1,0,0:0:0:0:
376,88,64716,2,0,L|364:196,1,102.666669799805,2|0,0:0|0:0,0:0:0:0:
352,296,65074,1,8,0:0:0:0:
131,160,65312,1,0,0:0:0:0:
131,160,65431,6,0,P|181:150|232:145,1,102.666669799805,4|0,0:0|0:0,0:0:0:0:
92,260,65788,2,0,P|58:220|28:179,1,102.666669799805,12|0,0:0|0:0,0:0:0:0:
199,244,66145,2,0,P|181:292|161:339,1,102.666669799805,12|0,0:0|0:0,0:0:0:0:
40,372,66502,1,8,0:0:0:0:
4,160,66740,1,0,0:0:0:0:
4,160,66859,6,0,P|72:168|116:168,1,102.666669799805,4|0,0:0|0:0,0:0:0:0:
192,104,67216,1,8,0:0:0:0:
316,280,67455,1,0,0:0:0:0:
316,280,67574,2,0,P|367:278|418:271,1,102.666669799805,2|2,0:0|0:0,0:0:0:0:
512,220,67931,1,8,0:0:0:0:
328,68,68169,1,0,0:0:0:0:
328,68,68288,6,0,L|316:184,1,102.666669799805,2|0,0:0|0:0,0:0:0:0:
276,288,68645,2,0,L|181:219,1,102.666669799805,8|8,0:0|0:0,0:0:0:0:
111,132,69002,2,0,L|217:84,1,102.666669799805,2|8,0:0|0:0,0:0:0:0:
328,68,69359,1,8,0:0:0:0:
388,276,69597,1,8,0:0:0:0:
388,276,69716,6,0,P|336:272|285:275,1,102.666669799805,6|0,0:0|0:0,0:0:0:0:
188,324,70074,1,8,0:0:0:0:
32,208,70312,1,0,0:0:0:0:
32,208,70431,2,0,P|24:149|68:76,1,102.666669799805,2|0,0:0|0:0,0:0:0:0:
132,56,70788,2,0,L|124:4,2,51.3333348999024,8|0|0,0:0|0:0|0:0,0:0:0:0:
235,111,71145,6,0,P|286:116|336:105,1,102.666669799805,2|0,0:0|0:0,0:0:0:0:
440,120,71502,2,0,P|410:161|394:210,1,102.666669799805,8|0,0:0|0:0,0:0:0:0:
330,294,71859,2,0,P|308:247|274:209,1,102.666669799805,2|0,0:0|0:0,0:0:0:0:
235,111,72216,2,0,L|242:60,2,51.3333348999024,8|8|8,0:3|0:3|0:3,0:0:0:0:
116,176,72574,6,0,P|108:226|128:272,1,102.666669799805,6|0,0:0|0:0,0:0:0:0:
228,304,72931,1,8,0:0:0:0:
320,112,73169,1,0,0:0:0:0:
320,112,73288,2,0,L|200:104,1,102.666669799805,2|0,0:0|0:0,0:0:0:0:
136,36,73645,2,0,L|16:28,1,102.666669799805,8|8,0:0|0:0,0:0:0:0:
20,156,74002,6,0,L|9:206,2,51.3333348999024,4|0|0,3:2|3:3|3:3,0:0:0:0:
84,244,74359,2,0,L|73:294,2,51.3333348999024,0|0|0,3:3|3:3|3:3,0:0:0:0:
151,159,74716,2,0,P|199:176|248:163,1,102.666669799805,8|8,3:3|3:3,0:0:0:0:
360,104,75074,2,0,P|343:151|356:200,1,102.666669799805,4|0,3:3|0:0,0:0:0:0:
456,312,75431,6,0,L|357:340,1,102.666669799805,4|0,0:1|0:0,0:0:0:0:
252,324,75788,1,8,0:0:0:0:
120,116,76026,1,0,0:0:0:0:
120,116,76145,2,0,L|108:244,1,102.666669799805,2|0,0:0|0:0,0:0:0:0:
100,324,76502,1,8,0:0:0:0:
308,172,76740,1,0,0:0:0:0:
308,172,76859,6,0,P|258:162|207:157,1,102.666669799805,4|0,0:0|0:0,0:0:0:0:
347,272,77216,2,0,P|381:232|411:191,1,102.666669799805,12|0,0:0|0:0,0:0:0:0:
240,256,77573,2,0,P|258:304|278:351,1,102.666669799805,12|0,0:0|0:0,0:0:0:0:
399,384,77931,1,8,0:0:0:0:
512,200,78169,1,0,0:0:0:0:
512,200,78288,6,0,L|500:76,1,102.666669799805,4|0,0:0|0:0,0:0:0:0:
448,4,78645,1,8,0:0:0:0:
255,95,78883,1,0,0:0:0:0:
255,95,79002,2,0,P|303:114|354:117,1,102.666669799805,2|0,0:0|0:0,0:0:0:0:
460,104,79359,1,8,0:0:0:0:
368,300,79597,1,0,0:0:0:0:
368,300,79716,6,0,L|264:264,1,102.666669799805,2|0,0:0|0:0,0:0:0:0:
164,196,80074,2,0,L|247:123,1,102.666669799805,8|0,0:0|0:0,0:0:0:0:
356,71,80431,2,0,L|376:179,1,102.666669799805,2|8,0:0|0:0,0:0:0:0:
368,300,80788,1,8,0:0:0:0:
164,360,81026,1,8,0:0:0:0:
164,360,81145,6,0,P|115:345|64:349,1,102.666669799805,4|0,0:0|0:0,0:0:0:0:
4,260,81502,2,0,P|41:225|63:179,1,102.666669799805,8|0,0:0|0:0,0:0:0:0:
170,171,81859,2,0,P|181:220|210:262,1,102.666669799805,2|0,0:0|0:0,0:0:0:0:
288,336,82216,1,8,0:0:0:0:
388,144,82455,1,8,0:0:0:0:
388,144,82574,6,0,L|353:47,1,102.666669799805,4|0,0:0|0:0,0:0:0:0:
252,120,82931,2,0,L|185:197,1,102.666669799805,12|0,0:0|0:0,0:0:0:0:
299,249,83288,2,0,L|409:268,1,102.666669799805,4|0,0:0|0:0,0:0:0:0:
504,292,83645,2,0,P|488:236|504:164,1,102.666669799805,0|0,0:0|0:0,0:0:0:0:
512,72,84002,5,0,1:0:0:0:
512,72,84359,2,0,L|376:88,1,93.3333333333333,0|0,0:0|0:0,0:0:0:0:
332,168,84716,1,0,1:0:0:0:
332,168,85074,2,0,L|239:157,1,93.3333333333333,0|8,0:0|0:0,0:0:0:0:
120,176,85431,6,0,L|116:120,2,46.6666666666667,8|0|8,0:0|0:0|0:3,0:0:0:0:
48,248,85788,2,0,P|48:295|69:335,1,93.3333333333333,8|0,0:3|0:0,0:0:0:0:
159,377,86145,2,0,P|198:354|223:315,1,93.3333333333333,8|0,0:0|0:0,0:0:0:0:
252,220,86502,2,0,L|200:196,2,46.6666666666667,8|8|8,0:3|0:3|0:3,0:0:0:0:
324,288,86859,6,0,P|400:241|485:270,1,186.666666666667,4|4,0:0|0:3,0:0:0:0:
508,292,87574,1,4,0:0:0:0:
