osu file format v14

[General]
AudioFilename: jump.mp3
AudioLeadIn: 0
PreviewTime: 63228
Countdown: 0
SampleSet: Soft
StackLeniency: 0.7
Mode: 0
LetterboxInBreaks: 0
WidescreenStoryboard: 0

[Editor]
DistanceSpacing: 1.2
BeatDivisor: 3
GridSize: 4
TimelineZoom: 1.8

[Metadata]
Title:JUMPin' JUMP UP!!!!
TitleUnicode:JUMPin' JUMP UP!!!!
Artist:fourfolium
ArtistUnicode:fourfolium
Creator:Doormat
Version:Akitoshi's Advanced
Source:NEW GAME!!
Tags:Akitoshi Corinn Karen StarrStyx alacat Kisses フォーフォリウム ニューゲーム season 2 two ending ed tv size takada yuuki 高田憂希 suzukaze aoba 涼風青葉 yamaguchi megumi 山口愛 takimoto hifumi 滝本ひふみ toda megumi 戸田めぐみ shinoda hazime 篠田はじめ ayumi takeo 竹尾歩美 iizima yun 飯島ゆん
BeatmapID:1360839
BeatmapSetID:641695

[Difficulty]
HPDrainRate:5
CircleSize:3.5
OverallDifficulty:5.5
ApproachRate:6.3
SliderMultiplier:1.3
SliderTickRate:1

[Events]
//Background and Video events
0,0,"newgame_background.jpg",0,0
Video,0,"newgame_ed.avi"
//Break Periods
//Storyboard Layer 0 (Background)
//Storyboard Layer 1 (Fail)
//Storyboard Layer 2 (Pass)
//Storyboard Layer 3 (Foreground)
//Storyboard Sound Samples

[TimingPoints]
-283,357.142857142857,4,2,1,60,1,0
1145,-111.111111111111,4,2,1,80,0,0
6859,-100,4,2,1,70,0,0
12216,-100,4,2,1,80,0,0
12574,-100,4,2,1,70,0,0
19716,-111.111111111111,4,2,1,60,0,0
22574,-100,4,2,1,60,0,0
28288,-111.111111111111,4,2,1,50,0,0
31145,-111.111111111111,4,2,1,60,0,0
34002,-105.263157894737,4,2,1,50,0,0
36859,-105.263157894737,4,2,1,60,0,0
39716,-105.263157894737,4,2,1,70,0,0
42574,-100,4,2,1,80,0,0
45431,-111.111111111111,4,2,1,50,0,0
51145,-105.263157894737,4,2,1,60,0,0
55431,-105.263157894737,4,2,1,70,0,0
60074,-105.263157894737,4,2,1,80,0,0
60431,-105.263157894737,4,2,1,70,0,0
61145,-100,4,2,1,70,0,0
63288,-100,4,2,1,60,0,0
64002,-90.9090909090909,4,2,1,80,0,1
65431,-90.9090909090909,4,2,1,90,0,1
66502,-90.9090909090909,4,2,1,80,0,1
75371,-90.9090909090909,4,2,1,80,0,0
75431,-90.9090909090909,4,2,1,80,0,1
76859,-90.9090909090909,4,2,1,90,0,1
77931,-90.9090909090909,4,2,1,80,0,1
84002,-100,4,2,1,70,0,0
86859,-100,4,2,1,60,0,0

[Colours]
Combo1 : 241,142,86
Combo2 : 250,191,27
Combo3 : 149,216,62
Combo4 : 181,178,148
Combo5 : 195,123,177
Combo6 : 149,208,183
Combo7 : 237,121,128
Combo8 : 129,205,219

[HitObjects]
22,192,1145,6,0,P|78:163|148:177,1,116.999996429443,4|0,0:0|0:0,0:0:0:0:
248,243,1859,2,0,P|304:214|374:228,1,116.999996429443,4|0,0:0|0:0,0:0:0:0:
445,263,2455,1,0,0:0:0:0:
445,263,2574,6,0,L|460:126,2,116.999996429443,4|4|4,0:0|0:0|0:0,0:0:0:0:
332,347,3645,2,0,P|272:361|237:356,1,77.999997619629,8|0,0:0|0:0,0:0:0:0:
211,347,4002,5,0,1:0:0:0:
282,75,4716,1,0,1:0:0:0:
17,170,5431,6,0,L|20:271,1,77.999997619629,4|0,1:2|3:0,0:0:0:0:
21,294,5788,1,0,1:0:0:0:
157,262,6145,2,0,P|202:252|257:260,1,77.999997619629,0|0,1:0|0:0,0:0:0:0:
274,277,6502,2,0,P|318:287|373:279,1,77.999997619629,12|0,0:0|0:0,0:0:0:0:
398,264,6859,6,0,L|388:110,1,130,6|8,0:0|0:0,0:0:0:0:
311,74,7455,1,8,0:0:0:0:
311,74,7574,2,0,P|243:88|176:59,1,130,2|8,0:0|0:0,0:0:0:0:
110,138,8169,1,8,0:0:0:0:
110,138,8288,6,0,L|120:292,1,130,2|8,0:0|0:0,0:0:0:0:
206,335,8883,1,8,0:0:0:0:
206,335,9002,2,0,P|265:318|294:320,1,86.6666666666667,2|0,0:0|0:0,0:0:0:0:
325,356,9359,2,0,P|384:373|413:371,1,86.6666666666667,8|8,0:0|0:0,0:0:0:0:
459,360,9716,6,0,P|480:292|458:215,1,130,2|8,0:0|0:0,0:0:0:0:
384,185,10312,1,8,0:0:0:0:
384,185,10431,2,0,P|316:206|239:184,1,130,2|8,0:0|0:0,0:0:0:0:
165,150,11026,1,8,0:0:0:0:
165,150,11145,6,0,P|120:163|63:158,1,86.6666666666667,2|8,0:0|0:0,0:0:0:0:
49,119,11502,2,0,P|60:73|93:26,1,86.6666666666667,10|8,0:0|0:0,0:0:0:0:
127,16,11859,1,10,0:0:0:0:
266,85,12216,2,0,L|394:72,1,86.6666666666667,6|0,0:0|0:0,0:0:0:0:
401,59,12574,6,0,L|392:216,1,130,6|2,0:0|0:0,0:0:0:0:
316,258,13169,1,0,0:0:0:0:
316,258,13288,2,0,P|224:249|182:220,1,130,8|2,0:0|0:0,0:0:0:0:
181,132,13883,1,0,0:0:0:0:
181,132,14002,6,0,P|273:141|315:170,1,130,2|0,0:0|0:0,0:0:0:0:
400,197,14597,1,0,0:0:0:0:
400,197,14716,2,0,P|444:203|509:187,1,86.6666666666667,10|0,0:0|0:0,0:0:0:0:
505,148,15074,2,0,L|492:41,1,86.6666666666667,8|0,0:0|0:0,0:0:0:0:
458,24,15431,6,0,B|410:18|410:18|371:28|371:28|304:20,1,130,2|8,0:0|0:0,0:0:0:0:
230,23,16026,1,0,0:0:0:0:
230,23,16145,2,0,B|182:29|182:29|143:19|143:19|76:27,1,130,2|8,0:0|0:0,0:0:0:0:
57,117,16740,1,0,0:0:0:0:
57,117,16859,6,0,P|42:158|51:218,2,86.6666666666667,8|8|8,0:3|0:3|0:3,0:0:0:0:
144,173,17574,2,0,P|159:214|150:274,2,86.6666666666667,4|4|4,0:3|0:3|0:3,0:0:0:0:
224,106,18288,1,4,0:3:0:0:
224,106,19716,6,0,B|277:84|277:84|351:105,1,116.999996429443,4|2,0:0|0:0,0:0:0:0:
345,240,20431,2,0,B|292:262|292:262|218:241,1,116.999996429443,2|2,0:0|0:0,0:0:0:0:
113,174,21145,6,0,L|33:183,1,77.999997619629,2|0,0:0|0:0,0:0:0:0:
24,228,21502,2,0,L|71:292,1,77.999997619629,2|0,0:0|0:0,0:0:0:0:
99,326,21859,1,2,0:0:0:0:
223,37,22574,6,0,P|283:18|347:58,1,130,4|0,0:0|0:0,0:0:0:0:
371,200,23288,2,0,B|376:285|376:285|346:330,1,130,4|0,0:0|0:0,0:0:0:0:
201,364,24002,6,0,P|139:366|95:345,1,86.6666666666667,4|0,0:0|0:0,0:0:0:0:
76,324,24359,1,8,0:0:0:0:
19,241,24597,1,8,0:0:0:0:
19,241,24716,2,0,L|24:138,1,86.6666666666667,2|0,0:0|0:0,0:0:0:0:
33,102,25074,2,0,P|71:90|135:99,1,86.6666666666667,8|8,0:0|0:0,0:0:0:0:
152,131,25431,6,0,P|218:141|290:122,1,130,6|8,0:0|0:0,0:0:0:0:
359,260,26145,2,0,P|293:250|221:269,1,130,2|8,0:0|0:0,0:0:0:0:
147,323,26740,1,8,0:0:0:0:
147,323,26859,6,0,L|35:318,1,86.6666666666667,2|0,0:0|0:0,0:0:0:0:
17,290,27216,2,0,P|9:246|24:190,1,86.6666666666667,8|8,0:0|0:0,0:0:0:0:
40,158,27574,1,2,0:0:0:0:
119,91,27812,1,0,0:0:0:0:
119,91,27931,2,0,L|238:96,1,86.6666666666667,8|8,0:0|0:0,0:0:0:0:
252,97,28288,6,0,B|305:68|305:68|383:86,2,116.999996429443,4|2|10,0:0|0:0|0:0,0:0:0:0:
143,185,29359,2,0,B|105:173|105:173|62:181,1,77.999997619629,0|0,1:0|0:0,0:0:0:0:
32,211,29716,6,0,B|44:346,2,116.999996429443,2|2|10,0:0|0:0|0:0,0:0:0:0:
48,71,30788,2,0,P|82:52|129:50,1,77.999997619629,0|0,1:0|0:0,0:0:0:0:
158,75,31145,6,0,L|271:67,1,77.999997619629,4|0,0:0|0:0,0:0:0:0:
282,63,31502,1,8,0:0:0:0:
370,110,31740,1,8,0:0:0:0:
370,110,31859,2,0,P|381:151|377:197,1,77.999997619629,4|0,0:0|0:0,0:0:0:0:
368,231,32216,1,8,0:0:0:0:
303,299,32455,1,8,0:0:0:0:
303,299,32574,6,0,L|204:291,1,77.999997619629,4|8,0:0|0:3,0:0:0:0:
190,261,32931,2,0,L|91:269,1,77.999997619629,8|8,0:3|0:3,0:0:0:0:
65,271,33288,2,0,P|51:229|55:186,1,77.999997619629,8|8,0:0|0:3,0:0:0:0:
82,159,33645,2,0,P|96:117|92:74,1,77.999997619629,8|8,0:3|0:3,0:0:0:0:
75,38,34002,6,0,P|123:63|216:46,1,123.499996702194,4|0,0:0|0:0,0:0:0:0:
333,18,34716,2,0,L|344:152,1,123.499996702194,4|8,0:0|0:3,0:0:0:0:
442,251,35431,6,0,L|430:343,1,82.3333311347962,4|0,0:0|0:0,0:0:0:0:
390,360,35788,2,0,P|336:365|298:352,1,82.3333311347962,0|8,0:0|0:0,0:0:0:0:
289,312,36145,2,0,P|235:307|197:320,1,82.3333311347962,8|0,0:0|0:0,0:0:0:0:
164,337,36502,1,2,0:0:0:0:
87,210,36859,6,0,L|98:75,1,123.499996702194,4|8,0:0|0:0,0:0:0:0:
182,32,37455,1,8,0:0:0:0:
182,32,37574,2,0,P|231:52|333:40,1,123.499996702194,2|8,0:0|0:0,0:0:0:0:
400,30,38169,1,8,0:0:0:0:
400,30,38288,6,0,L|411:165,1,123.499996702194,2|12,0:0|0:0,0:0:0:0:
346,228,38883,1,8,0:3:0:0:
346,228,39002,2,0,P|299:235|250:224,1,82.3333311347962,0|8,0:0|0:3,0:0:0:0:
236,189,39359,2,0,P|189:182|140:193,1,82.3333311347962,4|4,0:3|0:3,0:0:0:0:
108,204,39716,6,0,L|97:301,1,82.3333311347962,6|0,0:0|0:0,0:0:0:0:
93,335,40074,1,10,0:0:0:0:
190,373,40312,1,0,0:0:0:0:
190,373,40431,2,0,P|229:361|284:362,1,82.3333311347962,2|0,0:0|0:0,0:0:0:0:
318,369,40788,1,10,0:0:0:0:
424,266,41145,6,0,L|414:165,1,82.3333311347962,2|0,0:0|0:0,0:0:0:0:
408,135,41502,1,10,0:0:0:0:
326,91,41740,1,8,0:0:0:0:
326,91,41859,2,0,P|275:98|234:87,1,82.3333311347962,2|0,0:0|0:0,0:0:0:0:
201,68,42216,2,0,P|150:75|109:64,1,82.3333311347962,10|8,0:0|0:0,0:0:0:0:
77,38,42574,6,0,L|66:183,1,130,4|8,0:0|0:0,0:0:0:0:
125,260,43169,1,0,0:0:0:0:
125,260,43288,2,0,P|182:245|266:269,1,130,4|8,0:0|0:0,0:0:0:0:
340,322,43883,1,0,0:0:0:0:
340,322,44002,6,0,L|435:312,1,86.6666666666667,4|0,0:0|0:0,0:0:0:0:
472,288,44359,2,0,B|483:247|483:247|470:191,1,86.6666666666667,8|0,0:0|0:0,0:0:0:0:
430,173,44716,2,0,B|419:132|419:132|432:76,1,86.6666666666667,8|8,0:3|0:3,0:0:0:0:
440,37,45074,2,0,L|345:27,1,86.6666666666667,4|4,0:3|0:3,0:0:0:0:
316,56,45431,6,0,P|273:92|135:13,1,233.999992858887,4|8,0:0|0:0,0:0:0:0:
20,99,46502,1,0,0:0:0:0:
86,222,46859,6,0,L|198:213,1,77.999997619629,2|8,0:0|0:0,0:0:0:0:
198,184,47216,2,0,L|310:193,1,77.999997619629,0|0,0:0|0:0,0:0:0:0:
322,196,47574,1,8,0:0:0:0:
426,290,47931,1,0,0:0:0:0:
301,355,48288,6,0,P|233:365|178:350,1,116.999996429443,4|0,0:0|0:0,0:0:0:0:
98,245,49002,2,0,P|166:255|221:240,1,116.999996429443,8|0,0:0|0:0,0:0:0:0:
340,186,49716,2,0,L|327:97,1,77.999997619629,4|8,0:3|0:3,0:0:0:0:
302,69,50074,2,0,P|235:74|209:67,1,77.999997619629,0|8,0:0|0:3,0:0:0:0:
181,54,50431,1,8,0:0:0:0:
43,26,50788,2,0,L|34:115,1,77.999997619629,2|0,0:0|0:0,0:0:0:0:
10,146,51145,6,0,L|19:235,1,82.3333311347962,8|8,0:0|0:3,0:0:0:0:
27,276,51502,1,8,0:3:0:0:
109,329,51740,2,0,P|168:331|232:302,1,123.499996702194,4|8,0:0|0:0,0:0:0:0:
259,269,52216,1,8,0:0:0:0:
293,175,52455,6,0,L|419:183,1,123.499996702194,4|8,0:0|0:0,0:0:0:0:
464,191,52931,1,8,0:0:0:0:
495,97,53169,2,0,P|456:74|394:71,1,82.3333311347962,4|0,0:0|0:0,0:0:0:0:
373,84,53526,2,0,B|293:79|293:79|238:54,1,123.499996702194,0|0,0:0|0:0,0:0:0:0:
211,34,54002,6,0,L|122:39,1,82.3333311347962,8|8,0:0|0:3,0:0:0:0:
79,45,54359,1,8,0:3:0:0:
26,128,54597,2,0,P|13:183|35:250,1,123.499996702194,4|8,0:0|0:0,0:0:0:0:
64,283,55074,2,0,L|165:271,1,82.3333311347962,8|8,0:0|0:0,0:0:0:0:
179,237,55431,6,0,P|228:214|324:234,1,123.499996702194,6|8,0:0|0:0,0:0:0:0:
385,274,56026,1,0,0:0:0:0:
385,274,56145,2,0,L|489:267,1,82.3333311347962,2|0,0:0|0:0,0:0:0:0:
510,244,56502,2,0,P|512:201|498:156,1,82.3333311347962,8|0,0:0|0:0,0:0:0:0:
473,123,56859,6,0,P|430:125|385:111,1,82.3333311347962,2|0,0:0|0:0,0:0:0:0:
348,92,57216,1,8,0:0:0:0:
267,44,57455,1,0,0:0:0:0:
267,44,57574,2,0,L|165:49,1,82.3333311347962,2|0,0:0|0:0,0:0:0:0:
139,67,57931,2,0,P|129:105|136:152,1,82.3333311347962,8|0,0:0|0:0,0:0:0:0:
164,186,58288,6,0,B|228:172|228:216|304:196,2,123.499996702194,6|8|2,0:0|0:0|0:0,0:0:0:0:
65,190,59240,1,0,0:0:0:0:
65,190,59359,2,0,P|50:152|52:110,1,82.3333311347962,8|0,0:0|0:0,0:0:0:0:
64,63,59716,6,0,L|203:48,1,123.499996702194,2|4,0:0|0:0,0:0:0:0:
325,102,60431,2,0,P|338:145|335:190,1,82.3333311347962,0|0,3:0|3:0,0:0:0:0:
300,215,60788,2,0,P|287:258|290:303,1,82.3333311347962,8|8,3:3|3:3,0:0:0:0:
308,342,61145,6,0,L|426:332,1,86.6666666666667,4|8,0:0|0:3,0:0:0:0:
445,325,61502,1,8,0:3:0:0:
495,234,61740,2,0,L|484:134,1,86.6666666666667,0|0,1:0|0:0,0:0:0:0:
456,104,62097,2,0,P|413:117|364:111,1,86.6666666666667,0|0,1:0|0:0,0:0:0:0:
330,81,62455,6,0,L|178:96,1,130,4|8,0:0|0:3,0:0:0:0:
149,101,62931,1,8,0:3:0:0:
18,186,63288,2,0,B|8:228|8:228|23:277,1,86.6666666666667,8|0,0:0|0:0,0:0:0:0:
38,318,63645,1,4,0:0:0:0:
178,220,64002,6,0,P|224:215|289:246,1,95.3333362426759,4|0,0:1|0:0,0:0:0:0:
288,284,64359,2,0,P|334:279|399:310,1,95.3333362426759,8|0,0:0|0:0,0:0:0:0:
424,329,64716,2,0,L|437:217,1,95.3333362426759,2|0,0:0|0:0,0:0:0:0:
471,189,65074,2,0,L|458:77,1,95.3333362426759,8|0,0:0|0:0,0:0:0:0:
447,38,65431,5,4,0:0:0:0:
289,106,65788,2,0,P|244:119|183:107,1,95.3333362426759,12|0,0:0|0:0,0:0:0:0:
151,77,66145,2,0,P|106:90|45:78,1,95.3333362426759,12|0,0:0|0:0,0:0:0:0:
7,58,66502,1,8,0:0:0:0:
7,176,66740,1,0,0:0:0:0:
7,176,66859,6,0,B|26:220|26:220|22:278,1,95.3333362426759,4|0,0:0|0:0,0:0:0:0:
15,324,67216,2,0,B|59:343|59:343|117:339,1,95.3333362426759,8|0,0:0|0:0,0:0:0:0:
150,303,67574,2,0,B|194:284|194:284|252:288,1,95.3333362426759,2|2,0:0|0:0,0:0:0:0:
298,290,67931,2,0,B|317:246|317:246|313:188,1,95.3333362426759,8|0,0:0|0:0,0:0:0:0:
304,142,68288,5,2,0:0:0:0:
418,14,68645,2,0,P|460:19|504:54,1,95.3333362426759,8|8,0:0|0:0,0:0:0:0:
507,107,69002,2,0,L|500:204,1,95.3333362426759,2|8,0:0|0:0,0:0:0:0:
493,258,69359,1,8,0:0:0:0:
393,310,69597,1,8,0:0:0:0:
393,310,69716,6,0,P|331:297|300:307,1,95.3333362426759,6|0,0:0|0:0,0:0:0:0:
256,341,70074,2,0,P|194:328|163:338,1,95.3333362426759,8|0,0:0|0:0,0:0:0:0:
116,367,70431,2,0,L|108:255,1,95.3333362426759,2|0,0:0|0:0,0:0:0:0:
71,229,70788,2,0,L|79:117,1,95.3333362426759,8|0,0:0|0:0,0:0:0:0:
84,77,71145,5,6,0:0:0:0:
254,57,71502,2,0,P|310:64|364:48,1,95.3333362426759,8|0,0:0|0:0,0:0:0:0:
396,25,71859,2,0,L|404:137,1,95.3333362426759,2|0,0:0|0:0,0:0:0:0:
453,146,72216,2,0,L|445:258,1,95.3333362426759,8|8,0:3|0:3,0:0:0:0:
413,288,72574,6,0,P|352:292|320:281,1,95.3333362426759,6|0,0:0|0:0,0:0:0:0:
274,247,72931,1,8,0:0:0:0:
206,162,73169,1,0,0:0:0:0:
206,162,73288,2,0,L|105:172,1,95.3333362426759,2|0,0:0|0:0,0:0:0:0:
56,189,73645,2,0,P|45:236|70:310,1,95.3333362426759,8|8,0:0|0:0,0:0:0:0:
100,313,74002,6,0,B|191:299|160:361|282:333,1,143.000004364014,4|0,3:2|3:3,0:0:0:0:
408,326,74716,2,0,P|446:300|463:233,1,95.3333362426759,8|8,3:3|3:3,0:0:0:0:
459,198,75074,1,4,3:3:0:0:
361,55,75431,6,0,B|313:46|313:46|252:60,1,95.3333362426759,4|0,0:1|0:0,0:0:0:0:
228,98,75788,2,0,B|180:107|180:107|119:93,1,95.3333362426759,8|0,0:0|0:0,0:0:0:0:
85,66,76145,2,0,L|69:186,1,95.3333362426759,2|0,0:0|0:0,0:0:0:0:
31,200,76502,2,0,L|47:320,1,95.3333362426759,8|0,0:0|0:0,0:0:0:0:
56,350,76859,5,4,0:0:0:0:
212,278,77216,2,0,P|258:270|318:282,1,95.3333362426759,12|0,0:0|0:0,0:0:0:0:
339,323,77574,2,0,P|385:315|445:327,1,95.3333362426759,12|0,0:0|0:0,0:0:0:0:
476,359,77931,1,8,0:0:0:0:
507,190,78288,6,0,L|492:78,1,95.3333362426759,4|0,0:0|0:0,0:0:0:0:
487,38,78645,1,8,0:0:0:0:
377,30,78883,1,0,0:0:0:0:
377,30,79002,2,0,P|318:56|250:50,1,95.3333362426759,2|0,0:0|0:0,0:0:0:0:
237,30,79359,2,0,P|178:56|110:50,1,95.3333362426759,8|0,0:0|0:0,0:0:0:0:
93,41,79716,5,2,0:0:0:0:
34,202,80074,2,0,L|46:329,1,95.3333362426759,8|0,0:0|0:0,0:0:0:0:
71,346,80431,2,0,P|115:349|170:331,1,95.3333362426759,2|8,0:0|0:0,0:0:0:0:
203,293,80788,1,8,0:0:0:0:
276,204,81026,1,8,0:0:0:0:
276,204,81145,6,0,P|326:194|383:208,1,95.3333362426759,4|0,0:0|0:0,0:0:0:0:
417,231,81502,2,0,L|410:343,1,95.3333362426759,8|0,0:0|0:0,0:0:0:0:
374,370,81859,2,0,P|324:380|267:366,1,95.3333362426759,2|0,0:0|0:0,0:0:0:0:
231,343,82216,1,8,0:0:0:0:
167,254,82455,1,8,0:0:0:0:
167,254,82574,6,0,L|179:132,1,95.3333362426759,4|0,0:0|0:0,0:0:0:0:
229,136,82931,2,0,L|217:14,1,95.3333362426759,12|0,0:0|0:0,0:0:0:0:
167,16,83288,2,0,P|118:45|28:40,1,143.000004364014,4|0,0:0|0:0,0:0:0:0:
11,196,84002,6,0,L|23:332,1,130,0|0,1:0|0:0,0:0:0:0:
172,368,84716,2,0,L|184:232,1,130,0|0,1:0|0:0,0:0:0:0:
235,149,85312,1,8,0:0:0:0:
235,149,85431,6,0,P|300:146|342:170,1,86.6666666666667,8|8,0:0|0:3,0:0:0:0:
347,196,85788,2,0,P|412:193|454:217,1,86.6666666666667,8|0,0:3|0:0,0:0:0:0:
469,235,86145,1,8,0:0:0:0:
375,360,86502,2,0,L|275:348,1,86.6666666666667,8|8,0:3|0:3,0:0:0:0:
250,314,86859,6,0,B|187:296|127:340|127:340|39:299,1,216.666666666667,4|4,0:0|0:3,0:0:0:0:
3,277,87574,1,4,0:0:0:0:
