osu file format v14

[General]
AudioFilename: audio.mp3
AudioLeadIn: 0
PreviewTime: 45579
Countdown: 0
SampleSet: Soft
StackLeniency: 0.7
Mode: 3
LetterboxInBreaks: 0
SpecialStyle: 0
WidescreenStoryboard: 1

[Editor]
DistanceSpacing: 1.9
BeatDivisor: 8
GridSize: 8
TimelineZoom: 2.5

[Metadata]
Title:Hosshii no!
TitleUnicode:ほっしーの!
Artist:fourfolium
ArtistUnicode:fourfolium
Creator:RiP46
Version:Voxa's Easy!
Source:NEW GAME!
Tags:Now Loading!!! ゆよゆっぺ yuyoyuppe aoba suzukaze hifumi takimoto hajime shinoda yun iijima japanese 涼風青葉 高田憂希 滝本ひふみ 山口愛 篠田はじめ 戸田めぐみ 飯島ゆん 竹尾歩美 faputa voxa dudehacker
BeatmapID:2252178
BeatmapSetID:1075954

[Difficulty]
HPDrainRate:6.5
CircleSize:4
OverallDifficulty:6.5
ApproachRate:5
SliderMultiplier:1.2
SliderTickRate:1

[Events]
//Background and Video events
0,0,"BG.jpg",0,0
//Break Periods
//Storyboard Layer 0 (Background)
//Storyboard Layer 1 (Fail)
//Storyboard Layer 2 (Pass)
//Storyboard Layer 3 (Foreground)
//Storyboard Layer 4 (Overlay)
//Storyboard Sound Samples

[TimingPoints]
620,315.789473684211,4,2,1,70,1,0
777,315.789473684211,4,2,1,70,1,0
5829,-100,4,2,1,70,0,1
15934,-100,4,2,1,70,0,0
46250,-100,4,2,1,70,0,1
51303,-100,4,2,1,70,0,0
56355,-100,4,2,1,70,0,1
61408,-100,4,2,1,70,0,0
66461,-100,4,2,1,70,0,1
76566,-100,4,2,1,70,0,0

[HitObjects]
64,192,620,5,8,0:0:0:0:
320,192,777,128,6,1882:0:0:0:0:
448,192,1882,1,8,0:0:0:0:
192,192,2040,128,6,3145:0:0:0:0:
320,192,3145,1,8,0:0:0:50:
64,192,3303,128,6,4566:0:0:0:0:
448,192,4566,1,2,0:0:0:0:
448,192,4882,1,2,0:0:0:0:
320,192,5198,1,2,0:0:0:0:
64,192,5513,1,8,0:0:0:0:
320,192,5829,1,2,0:0:0:0:
448,192,5829,1,4,0:0:0:0:
192,192,6145,1,2,0:0:0:0:
448,192,6461,1,6,0:0:0:0:
192,192,6777,1,2,0:0:0:0:
320,192,7092,1,6,0:0:0:0:
64,192,7408,1,2,0:0:0:0:
320,192,7724,1,6,0:0:0:0:
64,192,8040,1,2,0:0:0:0:
448,192,8355,1,6,0:0:0:0:
192,192,8671,1,2,0:0:0:0:
320,192,8987,1,6,0:0:0:0:
192,192,9303,1,2,0:0:0:0:
448,192,9619,128,6,9934:0:0:0:0:
320,192,9934,128,6,10250:0:0:0:0:
192,192,10250,128,6,10566:0:0:0:0:
64,192,10566,128,6,10882:0:0:0:0:
448,192,10882,1,6,0:0:0:0:
192,192,11198,1,2,0:0:0:0:
448,192,11513,1,6,0:0:0:0:
64,192,11829,1,2,0:0:0:0:
320,192,12145,1,6,0:0:0:0:
64,192,12461,1,2,0:0:0:0:
448,192,12777,1,6,0:0:0:0:
192,192,13092,1,2,0:0:0:0:
448,192,13408,128,6,13724:0:0:0:0:
192,192,13724,128,0,14040:0:0:0:70:Tom2.wav
320,192,14040,128,0,14355:0:0:0:70:Tom3.wav
64,192,14355,128,8,14671:0:0:0:0:
192,192,14671,128,6,14987:0:0:0:0:
320,192,14987,128,0,15303:0:0:0:70:Tom2.wav
448,192,15303,128,0,15619:0:0:0:70:Tom3.wav
64,192,15619,128,2,15934:0:0:0:0:
320,192,15934,1,4,0:0:0:0:
448,192,15934,1,2,0:0:0:0:
64,192,16250,1,8,0:0:0:0:
64,192,16882,1,8,0:0:0:0:
64,192,17513,1,8,0:0:0:0:
320,192,17987,128,6,18303:0:0:0:0:
448,192,18303,1,8,0:0:0:0:
64,192,18461,1,6,0:0:0:0:
448,192,18777,1,8,0:0:0:0:
448,192,19408,1,8,0:0:0:0:
192,192,19724,128,8,20040:0:0:0:0:
448,192,20040,1,2,0:0:0:0:
64,192,20198,128,8,20513:0:0:0:0:
320,192,20513,1,2,0:0:0:0:
448,192,20671,128,8,20987:0:0:0:0:
64,192,20987,1,6,0:0:0:0:
192,192,21303,1,8,0:0:0:0:
192,192,21934,1,8,0:0:0:0:
448,192,22250,128,6,22566:0:0:0:0:
192,192,22566,1,8,0:0:0:0:
320,192,22882,128,2,23198:0:0:0:0:
64,192,23198,1,8,0:0:0:0:
320,192,23513,1,6,0:0:0:0:
320,192,23829,1,8,0:0:0:0:
192,192,24145,1,2,0:0:0:0:
192,192,24461,1,8,0:0:0:0:
448,192,24619,1,6,0:0:0:0:
64,192,24934,1,2,0:0:0:0:
320,192,25092,1,8,0:0:0:0:
192,192,25408,1,0,0:0:0:0:
448,192,25724,128,8,26040:0:0:0:0:
64,192,26040,1,6,0:0:0:0:
64,192,26355,1,8,0:0:0:0:
320,192,26671,1,2,0:0:0:0:
320,192,26987,1,8,0:0:0:0:
192,192,27303,1,2,0:0:0:0:
192,192,27619,1,8,0:0:0:0:
448,192,27934,1,2,0:0:0:0:
192,192,28092,128,12,28408:0:0:0:0:
320,192,28408,1,8,0:0:0:0:
64,192,28566,1,6,0:0:0:0:
64,192,28882,1,8,0:0:0:0:
448,192,29198,1,2,0:0:0:0:
448,192,29513,1,8,0:0:0:0:
192,192,29829,1,6,0:0:0:0:
192,192,30145,1,8,0:0:0:0:
64,192,30461,1,6,0:0:0:0:
448,192,30619,1,8,0:0:0:0:
448,192,30934,1,8,0:0:0:0:
192,192,31092,1,6,0:0:0:0:
192,192,31408,1,8,0:0:0:0:
320,192,31724,1,2,0:0:0:0:
320,192,32040,1,8,0:0:0:0:
64,192,32355,1,2,0:0:0:0:
64,192,32671,128,8,32987:0:0:0:0:
448,192,32987,1,2,0:0:0:0:
448,192,33303,128,8,33619:0:0:0:0:
64,192,33619,1,6,0:0:0:0:
320,192,33934,1,8,0:0:0:0:
64,192,34250,1,2,0:0:0:0:
448,192,34566,1,8,0:0:0:0:
320,192,34724,128,6,35040:0:0:0:0:
64,192,35040,1,2,0:0:0:0:
192,192,35198,128,8,35513:0:0:0:0:
448,192,35513,128,0,35829:0:0:0:0:
64,192,35829,128,8,36145:0:0:0:0:
320,192,36145,1,4,0:0:0:0:
448,192,36145,1,2,0:0:0:0:
192,192,36619,1,2,0:0:0:0:
320,192,36777,1,2,0:0:0:0:
64,192,37092,1,8,0:0:0:0:
448,192,37408,1,6,0:0:0:0:
320,192,37882,1,2,0:0:0:0:
192,192,38040,1,2,0:0:0:0:
448,192,38355,1,12,0:0:0:0:
64,192,38671,1,6,0:0:0:0:
320,192,39145,1,2,0:0:0:0:
64,192,39303,1,2,0:0:0:0:
448,192,39619,1,8,0:0:0:0:
320,192,39934,1,6,0:0:0:0:
192,192,40408,1,2,0:0:0:0:
448,192,40566,1,2,0:0:0:0:
64,192,40882,128,8,41198:0:0:0:0:
192,192,41198,1,6,0:0:0:0:
192,192,41513,1,2,0:0:0:0:
320,192,41829,1,10,0:0:0:0:
320,192,42145,1,2,0:0:0:0:
448,192,42461,1,6,0:0:0:0:
448,192,42777,1,2,0:0:0:0:
64,192,43092,1,2,0:0:0:0:
64,192,43408,1,8,0:0:0:0:
192,192,43724,128,6,44671:0:0:0:0:
448,192,44671,1,10,0:0:0:0:
320,192,44829,1,6,0:0:0:0:
64,192,46250,1,2,0:0:0:0:
192,192,46250,1,4,0:0:0:0:
448,192,46566,1,8,0:0:0:0:
192,192,46882,1,8,0:0:0:0:
320,192,47198,1,8,0:0:0:0:
64,192,47513,1,8,0:0:0:0:
192,192,47513,1,4,0:0:0:0:
448,192,47829,1,8,0:0:0:0:
192,192,48145,1,8,0:0:0:0:
320,192,48461,1,8,0:0:0:0:
64,192,48777,1,2,0:0:0:0:
448,192,48777,1,4,0:0:0:0:
320,192,49092,1,8,0:0:0:0:
64,192,49408,1,8,0:0:0:0:
448,192,49724,1,8,0:0:0:0:
192,192,50040,1,8,0:0:0:0:
320,192,50040,1,4,0:0:0:0:
448,192,50355,1,8,0:0:0:0:
64,192,50671,1,8,0:0:0:0:
320,192,50987,1,8,0:0:0:0:
192,192,51303,1,2,0:0:0:0:
64,192,51303,1,4,0:0:0:0:
448,192,51619,1,8,0:0:0:0:
320,192,52092,1,8,0:0:0:0:
192,192,52250,128,8,52566:0:0:0:0:
448,192,52566,1,6,0:0:0:0:
64,192,52882,1,8,0:0:0:0:
192,192,53355,1,2,0:0:0:0:
320,192,53513,1,8,0:0:0:0:
192,192,53829,128,6,54145:0:0:0:0:
320,192,54145,128,8,54461:0:0:0:0:
64,192,54461,1,2,0:0:0:0:
448,192,54619,1,8,0:0:0:0:
192,192,54934,128,6,55250:0:0:0:0:
64,192,55250,1,2,0:0:0:0:
448,192,55408,128,8,55724:0:0:0:0:
320,192,55724,128,8,56040:0:0:0:0:
192,192,56040,128,2,56355:0:0:0:0:
64,192,56355,1,2,0:0:0:0:
320,192,56355,1,4,0:0:0:0:
448,192,56671,1,8,0:0:0:0:
192,192,56987,1,8,0:0:0:0:
320,192,57303,1,8,0:0:0:0:
64,192,57619,1,8,0:0:0:0:
448,192,57619,1,4,0:0:0:0:
320,192,57934,1,8,0:0:0:0:
64,192,58250,1,8,0:0:0:0:
448,192,58566,1,8,0:0:0:0:
64,192,58882,1,2,0:0:0:0:
192,192,58882,1,4,0:0:0:0:
320,192,59198,1,8,0:0:0:0:
192,192,59513,1,8,0:0:0:0:
448,192,59829,1,8,0:0:0:0:
64,192,60145,1,8,0:0:0:0:
192,192,60145,1,4,0:0:0:0:
448,192,60461,1,8,0:0:0:0:
192,192,60777,1,8,0:0:0:0:
320,192,61092,1,8,0:0:0:0:
64,192,61408,1,6,0:0:0:0:
448,192,61566,1,2,0:0:0:0:
64,192,61882,1,2,0:0:0:0:
192,192,62040,1,12,0:0:0:0:
192,192,62355,1,12,0:0:0:0:
448,192,62671,1,6,0:0:0:0:
64,192,62829,1,2,0:0:0:0:
448,192,63145,1,2,0:0:0:0:
320,192,63303,1,12,0:0:0:0:
320,192,63619,1,12,0:0:0:0:
192,192,63934,1,2,0:0:0:0:
192,192,64250,1,2,0:0:0:0:
320,192,64566,1,8,0:0:0:0:
64,192,64724,1,2,0:0:0:0:
448,192,65040,1,6,0:0:0:0:
192,192,65355,1,2,0:0:0:0:
448,192,65513,1,12,0:0:0:0:
64,192,65829,1,8,0:0:0:0:
64,192,66145,1,8,0:0:0:0:
192,192,66461,1,2,0:0:0:0:
320,192,66461,1,4,0:0:0:0:
448,192,66777,1,2,0:0:0:0:
192,192,67092,1,6,0:0:0:0:
320,192,67408,1,2,0:0:0:0:
64,192,67724,1,2,0:0:0:0:
192,192,67724,1,4,0:0:0:0:
448,192,68040,1,2,0:0:0:0:
192,192,68355,1,6,0:0:0:0:
320,192,68671,1,2,0:0:0:0:
64,192,68987,1,2,0:0:0:0:
192,192,68987,1,4,0:0:0:0:
448,192,69303,1,6,0:0:0:0:
64,192,69619,1,6,0:0:0:0:
192,192,69934,1,2,0:0:0:0:
448,192,70250,128,6,70566:0:0:0:0:
320,192,70566,128,6,70882:0:0:0:0:
192,192,70882,128,6,71198:0:0:0:0:
64,192,71198,128,6,71513:0:0:0:0:
448,192,71513,1,2,0:0:0:0:
320,192,71513,1,4,0:0:0:0:
192,192,71829,1,6,0:0:0:0:
448,192,72145,1,6,0:0:0:0:
64,192,72461,1,6,0:0:0:0:
320,192,72777,1,2,0:0:0:0:
448,192,72777,1,4,0:0:0:0:
64,192,73092,1,6,0:0:0:0:
448,192,73408,1,6,0:0:0:0:
320,192,73724,1,6,0:0:0:0:
64,192,74040,128,6,74355:0:0:0:0:
192,192,74355,128,0,74671:0:0:0:70:Tom2.wav
320,192,74671,128,0,74987:0:0:0:70:Tom3.wav
448,192,74987,128,8,75303:0:0:0:0:
64,192,75303,128,6,75619:0:0:0:0:
192,192,75619,128,0,75934:0:0:0:70:Tom2.wav
320,192,75934,128,0,76250:0:0:0:70:Tom3.wav
448,192,76250,128,2,76566:0:0:0:0:
64,192,76882,128,2,79092:0:0:0:0:
192,192,76882,1,4,0:0:0:0:
448,192,79092,1,8,0:0:0:0:
320,192,79250,1,6,0:0:0:0:
