osu file format v14

[General]
AudioFilename: audio.mp3
AudioLeadIn: 0
PreviewTime: 45373
Countdown: 0
SampleSet: Soft
StackLeniency: 0.6
Mode: 0
LetterboxInBreaks: 0
WidescreenStoryboard: 0

[Editor]
Bookmarks: 5786,15846,25952,36057,41110,46162,56267,76478,86583,96689,101741,105531
DistanceSpacing: 1.4
BeatDivisor: 8
GridSize: 32
TimelineZoom: 3.099998

[Metadata]
Title:Hosshii no!
TitleUnicode:ほっしーの!
Artist:fourfolium
ArtistUnicode:fourfolium
Creator:Kisses
Version:Kalibe's Extra!
Source:NEW GAME!
Tags:schoolboy Lyawi Irohas Kalibe Karen m1223961117 Dream117er Komore Karia Gaia Sylphi Underflow
BeatmapID:1248887
BeatmapSetID:586877

[Difficulty]
HPDrainRate:6
CircleSize:4
OverallDifficulty:8
ApproachRate:9.2
SliderMultiplier:1.74
SliderTickRate:1

[Events]
//Background and Video events
0,0,"thumb-1920-771679.jpg",0,0
//Break Periods
//Storyboard Layer 0 (Background)
//Storyboard Layer 1 (Fail)
//Storyboard Layer 2 (Pass)
//Storyboard Layer 3 (Foreground)
//Storyboard Sound Samples

[TimingPoints]
689,315.789473684211,4,2,1,50,1,0
3215,-100,4,2,1,30,0,0
3531,-100,4,2,1,37,0,0
4162,-100,4,2,1,43,0,0
4478,-100,4,2,1,50,0,0
4517,-100,4,2,1,5,0,0
4794,-100,4,2,1,50,0,0
4833,-100,4,2,1,5,0,0
5110,-100,4,2,1,50,0,0
5149,-100,4,2,1,5,0,0
5425,-133.333333333333,4,2,1,50,0,0
5741,-100,4,2,1,50,0,0
10162,-100,4,2,1,50,0,0
15846,-125,4,2,0,40,0,0
17899,-90.9090909090909,4,2,1,40,0,0
18373,-125,4,2,1,40,0,0
18531,-125,4,2,0,40,0,0
22162,-125,4,2,1,40,0,0
23424,-100,4,2,1,40,0,0
25952,-125,4,2,1,40,0,0
28004,-90.9090909090909,4,2,1,40,0,0
28478,-125,4,2,1,40,0,0
29741,-100,4,2,1,40,0,0
30057,-83.3333333333333,4,2,1,40,0,0
30373,-100,4,2,1,40,0,0
31004,-125,4,2,1,40,0,0
32583,-90.9090909090909,4,2,1,40,0,0
32820,-125,4,2,1,40,0,0
32899,-125,4,2,1,40,0,0
33215,-90.9090909090909,4,2,1,40,0,0
33373,-125,4,2,1,40,0,0
33531,-83.3333333333333,4,2,1,40,0,0
34636,-100,4,2,1,40,0,0
36057,-166.666666666667,4,2,1,40,0,0
38267,-100,4,2,1,40,0,0
38583,-166.666666666667,4,2,1,40,0,0
41110,-166.666666666667,4,2,1,55,0,0
43636,-166.666666666667,4,2,1,30,0,0
43952,-166.666666666667,4,2,1,35,0,0
44267,-166.666666666667,4,2,1,40,0,0
44583,-166.666666666667,4,2,1,60,0,0
44820,-166.666666666667,4,2,1,5,0,0
45531,-166.666666666667,4,2,1,25,0,0
46162,-100,4,2,1,70,0,1
61320,-142.857142857143,4,2,1,70,0,1
61952,-83.3333333333334,4,2,1,70,0,1
62267,-100,4,2,1,70,0,1
62583,-142.857142857143,4,2,1,70,0,1
63215,-83.3333333333334,4,2,1,70,0,1
63846,-100,4,2,1,70,0,1
63886,-100,4,2,1,5,0,1
64162,-100,4,2,1,70,0,1
64202,-100,4,2,1,5,0,1
64478,-100,4,2,1,70,0,1
65781,-100,4,2,1,5,0,1
66057,-100,4,2,1,70,0,1
66096,-100,4,2,1,5,0,1
66373,-100,4,2,1,55,0,0
76478,-142.857142857143,4,2,1,50,0,0
76794,-142.857142857143,4,2,0,50,0,0
85162,-285.714285714,4,2,1,50,0,0
86583,-125,4,2,1,50,0,0
88636,-90.9090909090909,4,2,1,50,0,0
89110,-125,4,2,1,50,0,0
90373,-100,4,2,1,50,0,0
90689,-83.3333333333333,4,2,1,50,0,0
91004,-100,4,2,1,50,0,0
91636,-125,4,2,1,50,0,0
94162,-83.3333333333333,4,2,1,50,0,0
95267,-100,4,2,1,50,0,0
96689,-200,4,2,1,50,0,0
104267,-200,4,2,1,30,0,0
104583,-200,4,2,1,35,0,0
104899,-200,4,2,1,40,0,0
105215,-166.666666666667,4,2,1,60,0,0
105452,-166.666666666667,4,2,1,5,0,0
105846,-166.666666666667,4,2,1,50,0,0
106794,-100,4,2,1,70,0,1
121952,-142.857142857143,4,2,1,70,0,1
122583,-83.3333333333333,4,2,1,70,0,1
122899,-100,4,2,1,70,0,1
123215,-142.857142857143,4,2,1,70,0,1
123846,-83.3333333333333,4,2,1,70,0,1
124517,-100,4,2,1,5,0,0
124794,-100,4,2,1,60,0,0
124833,-100,4,2,1,5,0,0
125110,-100,4,2,1,60,0,0
126412,-100,4,2,1,5,0,0
126531,-100,4,2,0,60,0,0
126689,-100,4,2,0,50,0,0
126728,-100,4,2,0,5,0,0
126846,-100,4,2,0,50,0,0
127004,-100,4,2,1,60,0,0
137110,-100,4,2,0,60,0,0
137425,-100,4,2,0,60,0,0
137504,-100,4,2,0,60,0,0
138057,-100,4,2,0,60,0,0
138136,-100,4,2,0,60,0,0
138689,-100,4,2,0,60,0,0
138767,-100,4,2,0,60,0,0
139320,-100,4,2,0,60,0,0
139399,-100,4,2,0,60,0,0
139952,-100,4,2,0,60,0,0
140031,-100,4,2,0,60,0,0
140583,-100,4,2,0,60,0,0
140662,-100,4,2,0,60,0,0
140899,-100,4,2,1,60,0,0
146899,-133.333333333333,4,2,1,50,0,0
147215,-166.666666666667,4,2,1,50,0,0
153373,-166.666666666667,4,2,0,50,0,0
153531,-153.846153846154,4,2,1,50,0,0
157320,-133.333333333333,4,2,1,55,0,0
162373,-166.666666666667,4,2,1,50,0,0
164899,-166.666666666667,4,2,1,30,0,0
165215,-142.857142857143,4,2,1,35,0,0
165531,-125,4,2,1,40,0,0
165846,-111.111111111111,4,2,1,50,0,0
167425,-200,4,2,0,40,0,0
169320,-100,4,2,1,5,0,0
169952,-133.333333333333,4,2,1,50,0,0
179346,-133.333333333333,4,2,1,50,0,0
179425,-105.263157894737,4,2,1,50,0,0
179662,-133.333333333333,4,2,1,50,0,0
179741,-86.9565217391303,4,2,1,60,0,0
179978,-133.333333333333,4,2,1,50,0,0
180057,-100,4,2,1,70,0,1
185110,-142.857142857143,4,2,1,70,0,1
185741,-83.3333333333333,4,2,1,70,0,1
186057,-100,4,2,1,70,0,1
186373,-142.857142857143,4,2,1,70,0,1
187004,-83.3333333333333,4,2,1,70,0,1
187636,-83.3333333333333,4,2,1,60,0,0
187675,-100,4,2,1,5,0,0
187952,-100,4,2,1,60,0,0
187991,-100,4,2,1,5,0,0
188267,-100,4,2,1,60,0,0
189570,-100,4,2,1,5,0,0
189846,-100,4,2,1,50,0,0
189886,-100,4,2,1,5,0,0
190162,-100,4,2,1,50,0,0
202636,-100,4,2,1,5,0,0
202794,-100,4,2,1,50,0,0

[Colours]
Combo1 : 63,233,252
Combo2 : 139,89,206
Combo3 : 215,174,91
Combo4 : 253,55,145

[HitObjects]
267,261,4478,6,0,L|263:239,1,21.75,4|0,1:3|0:0,0:0:0:0:
160,32,4794,6,0,L|151:62,1,21.75,4|0,1:3|0:0,0:0:0:0:
32,224,5110,6,0,L|26:202,1,21.75,4|0,1:3|0:0,0:0:0:0:
328,157,5425,6,0,P|379:175|425:152,1,97.8750037336351,4|0,1:0|0:0,0:0:0:0:
426,126,5741,6,0,L|395:267,1,130.5,6|0,0:0|1:0,0:0:0:0:
392,279,6057,1,0,1:0:0:0:
322,136,6215,1,0,1:0:0:0:
222,199,6373,2,0,B|173:213|173:213|130:196,1,87,2|0,0:0|0:0,0:0:0:0:
64,145,6610,2,0,P|128:166|178:129,1,130.5,0|0,1:0|1:0,0:0:0:0:
16,219,7004,6,0,P|4:265|19:305,1,87,2|0,0:0|0:0,0:0:0:0:
31,327,7241,1,0,1:0:0:0:
31,327,7320,1,0,1:0:0:0:
139,199,7478,1,0,1:0:0:0:
320,256,7636,1,2,0:0:0:0:
225,226,7794,5,0,0:0:0:0:
233,218,7952,1,2,0:0:0:0:
233,230,8110,1,0,1:0:0:0:
302,357,8267,6,0,B|286:315|286:315|311:270,1,87,2|0,0:0|0:0,0:0:0:0:
329,257,8504,1,0,1:0:0:0:
329,257,8583,1,0,1:0:0:0:
431,330,8741,6,0,L|371:320,1,43.5,0|0,1:0|1:0,0:0:0:0:
333,226,8899,2,0,L|429:242,1,87,2|0,0:0|0:0,0:0:0:0:
500,179,9136,2,0,P|440:198|391:159,1,130.5,0|0,1:0|1:0,0:0:0:0:
320,0,9531,5,2,0:0:0:0:
256,160,9689,1,0,0:0:0:0:
256,160,9767,1,0,0:0:0:0:
256,160,9846,1,2,0:0:0:0:
352,96,10004,1,0,0:0:0:0:
160,160,10162,5,2,0:0:0:0:
284,233,10320,1,0,1:0:0:0:
296,249,10399,1,0,0:0:0:0:
308,266,10478,1,0,1:0:0:0:
314,286,10557,1,0,1:0:0:0:
314,307,10636,1,0,1:0:0:0:
311,328,10715,1,0,1:0:0:0:
302,347,10794,6,0,P|226:365|171:329,1,130.5,6|0,0:0|1:0,0:0:0:0:
159,325,11110,1,0,1:0:0:0:
284,233,11267,1,0,1:0:0:0:
192,160,11425,2,0,L|100:141,1,87,2|0,0:0|0:0,0:0:0:0:
69,137,11662,2,0,B|51:222|51:222|82:258,1,130.5,0|0,1:0|1:0,0:0:0:0:
285,148,12057,6,0,L|188:125,1,87,2|0,0:0|0:0,0:0:0:0:
174,126,12294,1,0,1:0:0:0:
174,126,12373,1,0,1:0:0:0:
255,56,12531,1,0,1:0:0:0:
332,216,12689,2,0,P|379:238|418:228,1,87,2|0,0:0|1:0,0:0:0:0:
444,221,12925,1,0,0:0:0:0:
444,221,13004,1,2,0:0:0:0:
358,129,13162,1,0,1:0:0:0:
256,320,13320,5,2,0:0:0:0:
315,239,13478,1,2,0:0:0:0:
160,352,13636,5,8,0:3:0:0:
192,256,13794,1,8,0:3:0:0:
44,374,13952,5,4,0:3:0:0:
108,278,14110,1,4,0:3:0:0:
32,160,14267,1,0,1:0:0:0:
96,32,14425,1,0,1:0:0:0:
96,32,14504,1,0,1:0:0:0:
96,32,14583,5,2,0:0:0:0:
192,64,14741,1,2,0:0:0:0:
288,96,14899,1,8,0:3:0:0:
384,128,15057,1,8,0:3:0:0:
224,160,15215,5,4,0:3:0:0:
365,57,15373,1,4,0:3:0:0:
365,57,15452,1,0,0:0:0:0:
365,57,15531,2,0,L|378:107,1,43.5,0|0,1:0|1:0,0:0:0:0:
311,176,15689,2,0,L|322:217,1,43.5,0|0,1:0|1:0,0:0:0:0:
416,320,15846,6,0,P|359:288|319:298,1,104.4,4|0,0:0|0:0,0:0:0:0:
299,317,16162,2,0,P|308:352|317:389,1,69.6,0|2,0:0|0:0,0:0:0:0:
190,214,16478,2,0,P|181:249|165:320,1,104.4,2|0,0:0|0:0,0:0:0:0:
157,345,16794,2,0,P|105:329|76:319,1,69.6,0|0,1:0|0:0,0:0:0:0:
0,224,17110,6,0,P|52:208|81:198,1,69.6,2|0,0:0|0:0,0:0:0:0:
160,128,17425,2,0,P|125:121|91:113,2,69.6,2|0|0,1:2|0:0|0:0,0:0:0:0:
5,62,17899,6,0,P|90:66|132:26,1,143.550004380798,6|0,0:0|0:0,0:0:0:0:
130,29,18215,2,0,L|190:41,1,47.8500014602662,0|0,1:0|0:0,0:0:0:0:
256,103,18373,6,0,P|305:92|366:80,1,104.4,6|0,0:0|0:0,0:0:0:0:
377,56,18689,2,0,P|404:62|457:74,1,69.6,2|0,0:0|0:0,0:0:0:0:
338,169,19004,2,0,P|311:175|258:187,1,69.6,2|0,0:0|0:0,0:0:0:0:
358,81,19320,1,0,1:0:0:0:
432,160,19478,1,2,0:0:0:0:
362,269,19636,5,0,1:0:0:0:
352,265,19715,1,0,1:0:0:0:
342,261,19794,1,0,1:0:0:0:
332,256,19873,1,0,1:0:0:0:
322,252,19952,1,0,1:0:0:0:
241,77,20110,5,0,1:0:0:0:
241,77,20189,1,0,1:0:0:0:
241,77,20267,2,0,L|227:119,1,34.8,0|0,1:0|1:0,0:0:0:0:
173,207,20425,2,0,L|162:173,1,34.8,0|0,1:0|0:0,0:0:0:0:
59,113,20583,5,8,0:3:0:0:
59,113,20662,1,8,0:3:0:0:
59,113,20741,2,0,L|43:157,1,34.8,8|0,0:3|0:0,0:0:0:0:
2,242,20899,6,0,B|41:232|67:225|67:225|112:250,1,104.4,2|0,0:0|0:0,0:0:0:0:
123,264,21215,2,0,P|112:301|101:342,1,69.6,2|0,0:0|0:0,0:0:0:0:
248,183,21531,2,0,P|259:220|278:296,1,104.4,2|0,0:0|0:0,0:0:0:0:
282,315,21846,2,0,L|366:293,1,69.6,0|0,1:0|0:0,0:0:0:0:
512,224,22162,6,0,L|427:204,1,69.6,2|0,0:0|0:0,0:0:0:0:
320,128,22478,1,0,1:0:0:0:
324,132,22636,1,0,0:0:0:0:
469,46,22794,6,0,L|395:64,1,69.6,2|0,0:0|0:0,0:0:0:0:
241,152,23110,1,0,1:0:0:0:
245,156,23267,1,0,0:0:0:0:
358,256,23425,6,0,P|373:188|343:134,1,130.5,6|0,0:0|0:0,0:0:0:0:
407,62,23741,2,0,P|349:90|287:74,1,130.5,0|0,1:0|0:0,0:0:0:0:
218,29,24057,6,0,P|172:31|134:56,1,87,2|0,0:0|0:0,0:0:0:0:
0,152,24373,2,0,P|22:152|50:163,1,43.5,0|0,1:0|0:0,0:0:0:0:
103,238,24531,6,0,B|165:228|165:228|210:252|210:252|273:243,1,174,6|2,0:0|0:0,0:0:0:0:
480,192,25004,6,0,B|437:176|437:176|382:190,1,87,0|2,1:0|0:0,0:0:0:0:
241,322,25320,2,0,B|198:328|198:328|156:309,1,87,0|2,0:0|0:0,0:0:0:0:
15,225,25636,1,0,1:0:0:0:
6,191,25715,1,0,1:0:0:0:
11,156,25794,1,0,1:0:0:0:
26,125,25873,1,0,1:0:0:0:
47,106,25952,6,0,P|100:95|150:125,1,104.4,6|0,0:0|0:0,0:0:0:0:
152,143,26267,2,0,L|225:126,1,69.6,0|0,1:0|0:0,0:0:0:0:
320,32,26583,2,0,L|444:50,1,104.4,2|0,0:0|0:0,0:0:0:0:
453,53,26899,2,0,B|463:85|463:85|448:127,1,69.6,0|0,1:0|0:0,0:0:0:0:
221,193,27215,6,0,B|208:159|208:159|218:127,1,69.6,2|2,0:0|0:0,0:0:0:0:
238,104,27452,1,0,0:0:0:0:
238,104,27531,2,0,P|275:114|311:126,1,69.6,0|0,1:0|0:0,0:0:0:0:
384,182,27846,1,0,1:0:0:0:
195,268,28004,6,0,P|265:224|327:247,1,143.550004380798,4|0,1:2|0:0,0:0:0:0:
319,240,28320,2,0,L|304:311,1,47.8500014602662,0|0,1:0|0:0,0:0:0:0:
285,376,28478,6,0,P|333:366|394:353,1,104.4,2|0,0:0|0:0,0:0:0:0:
417,346,28794,2,0,P|425:305|415:277,1,69.6,0|0,1:0|0:0,0:0:0:0:
476,193,29110,6,0,P|446:176|411:174,1,69.6,2|2,0:0|0:0,0:0:0:0:
288,76,29425,2,0,P|322:73|352:56,1,69.6,2|0,0:0|1:0,0:0:0:0:
496,13,29741,6,0,P|483:53|471:97,1,87,6|0,0:0|0:0,0:0:0:0:
309,286,30057,2,0,P|299:235|287:181,1,104.399996813965,4|0,1:0|0:0,0:0:0:0:
214,109,30373,5,6,0:0:0:0:
144,274,30531,1,0,0:0:0:0:
165,365,30689,5,0,0:0:0:0:
62,276,30846,1,0,1:0:0:0:
62,276,30925,1,0,1:0:0:0:
62,276,31004,6,0,B|176:254,1,104.4,6|0,0:0|0:0,0:0:0:0:
182,261,31320,2,0,P|193:223|204:180,1,69.6,0|0,1:0|0:0,0:0:0:0:
384,64,31636,2,0,P|333:77|283:92,1,104.4,2|0,0:0|0:0,0:0:0:0:
257,111,31952,2,0,L|167:93,1,69.6,0|0,1:0|0:0,0:0:0:0:
64,32,32267,5,2,0:0:0:0:
0,152,32425,1,2,0:0:0:0:
0,152,32504,1,0,0:0:0:0:
0,152,32583,6,0,P|81:145|132:195,1,143.550004380798,0|0,1:0|0:0,0:0:0:0:
135,204,32899,1,2,0:0:0:0:
74,336,33057,1,2,0:0:0:0:
40,240,33215,5,0,1:0:0:0:
215,148,33373,1,2,0:0:0:0:
288,320,33531,6,0,P|368:344|434:293,1,156.599995220947,2|0,0:0|0:0,0:0:0:0:
512,250,33846,2,0,B|423:270|423:270|386:248|383:216,1,156.599995220947,0|0,1:0|0:0,0:0:0:0:
393,186,34162,6,0,L|502:161,1,104.399996813965,2|0,0:0|0:0,0:0:0:0:
425,307,34478,1,0,1:0:0:0:
295,229,34636,6,0,B|226:196|198:270|127:218,1,174,6|2,0:0|0:0,0:0:0:0:
0,128,35110,2,0,B|43:132|43:132|93:108,1,87,0|2,1:0|0:0,0:0:0:0:
261,50,35425,6,0,B|218:46|218:46|168:70,1,87,0|2,0:0|0:0,0:0:0:0:
4,234,35741,1,0,1:0:0:0:
32,213,35820,1,0,1:0:0:0:
66,202,35899,1,0,1:0:0:0:
101,202,35978,1,0,1:0:0:0:
128,219,36057,5,6,0:0:0:0:
352,64,36373,1,0,0:0:0:0:
314,156,36531,2,0,L|249:138,1,52.1999984069825,2|2,0:0|0:0,0:0:0:0:
128,64,36846,1,0,0:0:0:0:
256,0,37004,2,0,L|236:63,1,52.1999984069825,0|0,1:0|0:0,0:0:0:0:
181,157,37320,6,0,P|122:166|76:132,1,104.399996813965,2|0,0:0|0:0,0:0:0:0:
128,64,37794,1,2,0:0:0:0:
46,222,37952,2,0,L|-13:242,1,52.1999984069825,2|0,0:0|0:0,0:0:0:0:
186,305,38267,6,0,B|210:266|210:266|189:182,1,130.5,0|0,1:0|0:0,0:0:0:0:
181,157,38583,5,2,0:0:0:0:
448,224,38899,1,0,0:0:0:0:
366,274,39057,2,0,L|347:331,1,52.1999984069825,2|2,0:0|0:0,0:0:0:0:
303,193,39373,1,0,0:0:0:0:
186,312,39531,2,0,L|201:363,1,52.1999984069825,0|0,1:0|0:0,0:0:0:0:
366,274,39846,6,0,P|321:299|272:287,1,104.399996813965,2|0,0:0|0:0,0:0:0:0:
158,205,40320,1,2,0:0:0:0:
242,158,40478,6,0,L|293:173,1,52.1999984069825,2|0,0:0|0:0,0:0:0:0:
173,78,40794,1,0,1:0:0:0:
173,78,40873,1,0,1:0:0:0:
173,78,40952,2,0,L|128:63,1,26.0999992034912,2|0,0:0|0:0,0:0:0:0:
0,192,41110,6,0,L|63:178,1,52.1999984069825,2|4,0:0|0:3,0:0:0:0:
128,96,41425,2,0,L|186:105,1,52.1999984069825,2|4,0:0|0:3,0:0:0:0:
15,293,41741,6,0,L|78:279,1,52.1999984069825,2|4,0:0|0:3,0:0:0:0:
143,197,42057,2,0,L|201:206,1,52.1999984069825,2|4,0:0|0:3,0:0:0:0:
352,320,42373,6,0,P|325:264|346:220,1,104.399996813965,4|2,1:2|0:0,0:0:0:0:
417,151,42846,1,4,0:3:0:0:
347,221,43004,5,2,0:0:0:0:
448,256,43162,1,4,0:3:0:0:
332,145,43320,5,2,0:0:0:0:
256,320,43478,1,4,0:3:0:0:
64,256,43636,6,0,L|88:247,3,26.0999992034912,0|0|0|0,1:0|1:0|1:0|1:0,0:0:0:0:
176,193,43952,2,0,L|187:155,3,26.0999992034912,0|0|0|0,1:0|1:0|1:0|1:0,0:0:0:0:
243,271,44267,2,0,L|253:308,3,26.0999992034912,0|0|0|0,1:0|1:0|1:0|1:0,0:0:0:0:
336,176,44583,6,0,L|328:201,1,26.0999992034912,0|0,1:0|0:0,0:0:0:0:
340,326,44741,2,0,L|329:301,1,26.0999992034912,2|0,0:0|0:0,0:0:0:0:
306,67,46162,5,6,0:0:0:0:
221,88,46320,1,0,0:0:0:0:
116,45,46478,5,0,1:0:0:0:
73,121,46636,1,2,0:0:0:0:
6,212,46794,5,0,1:0:0:0:
86,244,46952,1,2,0:0:0:0:
149,150,47110,5,0,1:0:0:0:
231,121,47267,1,2,0:0:0:0:
320,192,47425,6,0,B|401:212|401:212|445:182,1,130.5,0|0,1:0|0:0,0:0:0:0:
461,170,47741,2,0,P|473:130|451:87,1,87,0|0,1:0|0:0,0:0:0:0:
320,192,48057,6,0,P|296:266|324:317,1,130.5,0|0,1:0|0:0,0:0:0:0:
339,329,48373,2,0,B|385:338|385:338|427:324,1,87,0|2,1:0|0:0,0:0:0:0:
461,170,48689,5,2,0:0:0:0:
372,252,48846,1,0,0:0:0:0:
274,135,49004,5,0,1:0:0:0:
356,224,49161,1,2,0:0:0:0:
408,96,49320,5,0,1:0:0:0:
339,196,49478,1,2,0:0:0:0:
292,49,49636,5,0,1:0:0:0:
323,168,49794,1,2,0:0:0:0:
118,118,49952,6,0,P|194:147|242:119,1,130.5,0|0,1:0|0:0,0:0:0:0:
233,127,50267,2,0,L|207:220,1,87,0|0,1:0|0:0,0:0:0:0:
16,63,50583,6,0,L|48:191,1,130.5,0|0,1:0|0:0,0:0:0:0:
47,189,50899,1,0,1:0:0:0:
112,113,51057,1,2,0:0:0:0:
0,250,51215,6,0,B|88:209|76:293|168:242,1,174,2|0,0:0|1:0,0:0:0:0:
274,158,51689,2,0,B|298:196|298:196|284:245,1,87,0|2,0:0|0:0,0:0:0:0:
186,153,52004,5,0,1:0:0:0:
363,246,52162,1,0,1:0:0:0:
285,351,52320,1,8,0:3:0:0:
285,351,52399,1,0,0:0:0:0:
285,351,52478,6,0,P|352:297|437:309,1,174,2|0,0:0|1:0,0:0:0:0:
500,375,52952,1,0,0:0:0:0:
438,211,53110,6,0,P|395:217|362:245,1,87,2|2,0:0|0:0,0:0:0:0:
207,369,53425,2,0,P|164:362|131:334,1,87,0|2,1:0|0:0,0:0:0:0:
40,250,53741,6,0,P|88:241|139:226,1,87,2|0,0:0|0:0,0:0:0:0:
319,73,54057,2,0,P|277:61|234:53,1,87,2|0,0:0|0:0,0:0:0:0:
109,153,54373,5,2,0:0:0:0:
265,296,54531,2,0,B|288:258|288:258|279:208,1,87,0|0,1:0|0:0,0:0:0:0:
27,173,54846,6,0,B|82:158|82:158|130:183|130:183|200:163,1,174,2|2,0:0|0:0,0:0:0:0:
64,64,55320,2,0,P|111:71|169:80,1,87,0|2,1:0|0:0,0:0:0:0:
229,255,55636,6,0,L|302:235,1,43.5,0|0,1:0|1:0,0:0:0:0:
320,160,55794,2,0,L|368:170,1,43.5,0|0,1:0|1:0,0:0:0:0:
399,256,55952,1,0,1:0:0:0:
426,269,56031,1,0,1:0:0:0:
456,272,56110,1,0,1:0:0:0:
486,269,56189,1,0,1:0:0:0:
512,255,56267,5,6,0:0:0:0:
468,183,56425,1,0,0:0:0:0:
406,351,56583,5,0,1:0:0:0:
426,269,56741,1,2,0:0:0:0:
270,243,56899,5,0,1:0:0:0:
290,325,57057,1,2,0:0:0:0:
131,379,57215,5,0,1:0:0:0:
151,297,57373,1,2,0:0:0:0:
0,330,57531,6,0,L|133:303,1,130.5,0|0,1:0|0:0,0:0:0:0:
151,297,57846,2,0,P|161:252|140:212,1,87,0|0,1:0|0:0,0:0:0:0:
0,128,58162,6,0,P|45:138|85:117,1,87,0|2,1:0|0:0,0:0:0:0:
254,29,58478,2,0,P|209:19|169:40,1,87,0|2,1:0|0:0,0:0:0:0:
0,128,58794,5,2,0:0:0:0:
86,149,58952,1,0,0:0:0:0:
129,303,59110,5,0,1:0:0:0:
215,282,59268,1,2,0:0:0:0:
352,224,59425,5,0,1:0:0:0:
438,245,59583,1,2,0:0:0:0:
224,160,59741,5,0,1:0:0:0:
310,139,59899,1,2,0:0:0:0:
512,96,60057,6,0,P|433:79|366:67,1,130.5,0|0,1:0|0:0,0:0:0:0:
384,70,60373,2,0,P|394:111|407:167,1,87,0|0,1:0|0:0,0:0:0:0:
224,32,60689,6,0,P|213:73|201:129,1,87,0|2,1:0|0:0,0:0:0:0:
165,271,61004,1,0,1:0:0:0:
164,277,61162,1,2,0:0:0:0:
271,232,61320,6,0,B|185:189|185:279|93:222,1,182.699994424439,2|2,0:0|0:0,0:0:0:0:
98,225,61952,6,0,B|71:274|71:274|88:334,1,104.399996813965,4|0,1:0|0:0,0:0:0:0:
271,232,62267,6,0,B|284:190|284:190|259:139,1,87,4|0,1:0|0:0,0:0:0:0:
195,319,62583,6,0,P|305:351|364:305,1,182.699994424439,2|2,0:0|0:0,0:0:0:0:
512,256,63215,6,0,P|459:267|410:239,1,104.399996813965,4|0,1:0|0:0,0:0:0:0:
265,151,63531,2,0,P|318:162|367:134,1,104.399996813965,8|8,0:3|0:3,0:0:0:0:
480,32,63846,6,0,L|471:62,1,21.75,2|0,0:0|0:0,0:0:0:0:
256,160,64162,6,0,L|262:180,1,21.75,2|0,0:0|0:0,0:0:0:0:
480,320,64478,5,0,1:0:0:0:
480,320,64636,1,2,0:0:0:0:
480,320,64952,6,0,P|388:304|304:289,1,174,2|2,0:0|0:0,0:0:0:0:
480,192,65425,2,0,P|435:200|380:210,1,87,0|2,1:0|0:0,0:0:0:0:
160,127,65741,6,0,L|185:134,1,21.75,4|0,1:3|0:0,0:0:0:0:
448,32,66057,6,0,L|423:39,1,21.75,4|0,1:3|0:0,0:0:0:0:
53,103,66373,6,0,L|197:137,1,130.5,6|0,0:0|1:0,0:0:0:0:
210,143,66689,1,0,1:0:0:0:
81,191,66846,1,0,1:0:0:0:
160,352,67004,2,0,B|177:313|177:313|162:271,1,87,2|0,0:0|0:0,0:0:0:0:
140,240,67241,2,0,P|214:252|285:263,1,130.5,0|0,1:0|1:0,0:0:0:0:
480,224,67636,6,0,P|432:217|382:210,1,87,2|0,0:0|0:0,0:0:0:0:
364,210,67873,1,0,1:0:0:0:
364,210,67952,1,0,1:0:0:0:
268,260,68110,1,0,1:0:0:0:
358,319,68267,1,2,0:0:0:0:
243,376,68425,5,0,0:0:0:0:
237,369,68583,1,0,1:0:0:0:
246,367,68741,1,0,1:0:0:0:
438,323,68899,6,0,B|395:337|395:337|357:318,1,87,2|0,0:0|0:0,0:0:0:0:
332,308,69136,1,0,1:0:0:0:
332,308,69215,1,0,1:0:0:0:
448,219,69373,2,0,L|516:227,1,43.5,0|0,1:0|0:0,0:0:0:0:
448,128,69531,2,0,P|397:136|354:145,1,87,2|0,0:0|0:0,0:0:0:0:
335,148,69767,2,0,P|309:96|347:32,1,130.5,0|0,1:0|0:0,0:0:0:0:
448,128,70162,5,2,0:0:0:0:
364,227,70320,1,0,0:0:0:0:
364,227,70399,1,0,0:0:0:0:
364,227,70478,2,0,P|316:217|276:208,1,87,2|0,0:0|1:0,0:0:0:0:
362,143,70794,1,2,0:0:0:0:
210,253,70952,1,0,1:0:0:0:
198,224,71031,1,0,0:0:0:0:
200,193,71110,1,0,1:0:0:0:
212,165,71189,1,0,1:0:0:0:
232,142,71267,1,0,1:0:0:0:
239,112,71346,1,0,1:0:0:0:
225,84,71425,6,0,P|155:58|104:90,1,130.5,6|0,0:0|1:0,0:0:0:0:
109,82,71741,2,0,P|61:75|23:70,1,87,0|0,1:0|1:0,0:0:0:0:
113,205,72057,2,0,P|161:198|199:193,1,87,2|0,0:0|0:0,0:0:0:0:
232,189,72294,2,0,P|259:260|234:304,1,130.5,0|0,1:0|1:0,0:0:0:0:
96,384,72689,5,0,0:0:0:0:
149,284,72846,1,0,0:0:0:0:
149,284,72925,1,0,1:0:0:0:
149,284,73004,2,0,P|205:293|262:316,1,87,0|0,1:0|1:0,0:0:0:0:
325,360,73320,1,2,0:0:0:0:
480,288,73478,5,0,0:0:0:0:
472,295,73636,1,0,1:0:0:0:
469,285,73794,1,0,1:0:0:0:
416,192,73952,5,2,0:0:0:0:
411,201,74110,1,2,0:0:0:0:
322,350,74267,5,8,0:3:0:0:
319,339,74425,1,8,0:3:0:0:
224,224,74583,5,4,0:3:0:0:
351,260,74741,1,4,0:3:0:0:
256,128,74899,5,0,1:0:0:0:
127,174,75057,1,0,1:0:0:0:
127,174,75136,1,0,1:0:0:0:
127,174,75215,5,2,0:0:0:0:
256,224,75373,1,2,0:0:0:0:
160,288,75531,1,8,0:3:0:0:
224,384,75689,1,8,0:3:0:0:
352,288,75846,6,0,L|442:273,2,58,0|0|0,1:0|1:0|1:0,0:0:0:0:
256,224,76162,2,0,L|199:213,2,58,0|0|0,1:0|1:0|1:0,0:0:0:0:
352,192,76478,6,0,P|361:136|344:108,1,91.3499972122193,6|0,0:0|0:0,0:0:0:0:
318,92,76794,2,0,L|249:77,1,60.8999981414796,0|0,0:0|0:0,0:0:0:0:
199,213,77110,2,0,L|104:225,1,91.3499972122193,2|0,0:0|0:0,0:0:0:0:
80,230,77425,1,0,0:0:0:0:
80,230,77583,1,0,0:0:0:0:
0,139,77741,6,0,P|44:154|94:128,1,91.3499972122193,2|2,0:0|0:0,0:0:0:0:
107,115,78057,2,0,P|102:81|97:47,1,60.8999981414796,2|0,0:0|0:0,0:0:0:0:
244,138,78373,2,0,P|250:108|257:78,1,60.8999981414796,2|0,0:0|0:0,0:0:0:0:
162,218,78689,2,0,P|151:267|171:311,1,91.3499972122193,0|0,0:0|0:0,0:0:0:0:
188,327,79004,6,0,B|248:356|248:306|313:334,1,121.799996282959,2|2,0:0|0:0,0:0:0:0:
384,263,79478,1,0,0:0:0:0:
468,311,79636,2,0,L|398:296,1,60.8999981414796,2|0,0:0|0:0,0:0:0:0:
224,259,79952,2,0,L|294:244,1,60.8999981414796,0|0,0:0|0:0,0:0:0:0:
442,160,80267,6,0,P|395:184|354:172,1,91.3499972122193,2|0,0:0|0:0,0:0:0:0:
348,171,80583,2,0,P|340:126|363:88,1,91.3499972122193,2|0,0:0|0:0,0:0:0:0:
432,41,80899,6,0,P|406:78|363:89,1,91.3499972122193,0|0,1:0|0:0,0:0:0:0:
351,90,81215,2,0,P|307:78|282:41,1,91.3499972122193,2|0,0:0|0:0,0:0:0:0:
280,26,81531,6,0,L|185:46,1,91.3499972122193,6|0,0:0|0:0,0:0:0:0:
173,62,81846,2,0,P|127:55|101:51,1,60.8999981414796,0|0,0:0|0:0,0:0:0:0:
14,157,82162,2,0,P|44:152|112:142,1,91.3499972122193,2|0,0:0|0:0,0:0:0:0:
133,139,82478,1,0,0:0:0:0:
133,139,82636,1,0,0:0:0:0:
69,227,82794,6,0,P|48:300|76:343,1,121.799996282959,2|2,0:0|0:0,0:0:0:0:
151,281,83267,1,0,0:0:0:0:
236,301,83425,2,0,L|173:288,1,60.8999981414796,2|0,0:0|0:0,0:0:0:0:
133,139,83741,2,0,L|192:151,1,60.8999981414796,0|0,0:0|0:0,0:0:0:0:
320,256,84057,6,0,P|354:262|410:230,1,91.3499972122193,2|0,0:0|0:0,0:0:0:0:
415,228,84373,2,0,P|421:194|389:138,1,91.3499972122193,2|0,0:0|0:0,0:0:0:0:
386,133,84689,2,0,P|352:127|296:159,1,91.3499972122193,2|0,0:0|0:0,0:0:0:0:
293,163,85004,2,0,L|280:217,1,30.4499990707398,0|0,1:0|0:0,0:0:0:0:
320,256,85162,6,0,P|241:239|197:272,1,137.024995818329,8|0,0:3|0:0,0:0:0:0:
183,290,85952,1,0,1:0:0:0:
162,305,86031,1,0,1:0:0:0:
137,313,86110,1,0,1:0:0:0:
111,313,86189,1,0,1:0:0:0:
86,305,86267,1,0,1:0:0:0:
65,289,86346,1,0,1:0:0:0:
52,266,86425,1,0,1:0:0:0:
58,240,86504,1,0,1:0:0:0:
83,216,86583,6,0,L|164:198,1,69.6,6|0,0:0|1:0,0:0:0:0:
234,357,86899,2,0,L|315:339,1,69.6,0|0,1:0|1:0,0:0:0:0:
282,159,87215,6,0,P|263:189|258:225,1,69.6,2|2,0:0|0:0,0:0:0:0:
412,372,87531,2,0,P|431:342|436:306,1,69.6,0|2,1:0|0:0,0:0:0:0:
447,194,87846,6,0,L|337:223,1,104.4,2|0,0:0|0:0,0:0:0:0:
342,227,88162,1,0,1:0:0:0:
397,127,88320,1,0,0:0:0:0:
326,25,88478,1,2,0:0:0:0:
254,186,88636,6,0,P|169:218|117:191,1,143.550004380798,0|0,1:0|0:0,0:0:0:0:
125,198,88952,2,0,L|140:137,1,47.8500014602662,0|0,1:0|0:0,0:0:0:0:
266,83,89110,6,0,P|213:93|183:100,1,69.6,6|2,0:0|0:0,0:0:0:0:
131,40,89346,1,0,0:0:0:0:
127,51,89425,2,0,P|119:85|113:119,1,69.6,0|0,1:0|0:0,0:0:0:0:
317,197,89741,2,0,P|282:189|248:183,1,69.6,2|2,0:0|0:0,0:0:0:0:
96,320,90057,2,0,P|130:312|164:306,1,69.6,0|0,1:0|0:0,0:0:0:0:
384,352,90373,6,0,B|340:361|308:370|308:370|276:359|277:322,1,130.5,2|0,0:0|0:0,0:0:0:0:
380,319,90689,6,0,B|469:342|469:342|506:326|486:280,1,156.599995220947,0|0,1:0|0:0,0:0:0:0:
475,260,91004,6,0,L|377:236,1,87,2|0,0:0|0:0,0:0:0:0:
248,183,91320,1,0,1:0:0:0:
385,139,91478,1,0,1:0:0:0:
385,139,91557,1,0,1:0:0:0:
385,139,91636,6,0,P|310:174|258:153,1,139.2,6|0,0:0|1:0,0:0:0:0:
192,64,92110,1,0,0:0:0:0:
192,64,92267,2,0,L|120:77,1,69.6,2|2,0:0|0:0,0:0:0:0:
97,100,92504,1,0,0:0:0:0:
97,100,92583,2,0,L|28:87,1,69.6,0|0,1:0|0:0,0:0:0:0:
192,167,92899,6,0,L|260:154,1,69.6,2|2,0:0|0:0,0:0:0:0:
96,224,93215,2,0,P|67:280|85:330,1,104.4,0|0,1:0|0:0,0:0:0:0:
97,341,93531,2,0,L|182:365,1,69.6,2|0,0:0|0:0,0:0:0:0:
320,256,93846,1,0,1:0:0:0:
214,286,94004,1,0,0:0:0:0:
47,167,94162,6,0,P|103:212|181:189,1,156.599995220947,6|0,0:0|0:0,0:0:0:0:
124,127,94478,2,0,P|180:172|258:149,1,156.599995220947,0|0,1:0|0:0,0:0:0:0:
179,191,94794,6,0,P|158:248|178:289,1,104.399996813965,2|2,0:0|0:0,0:0:0:0:
288,384,95110,1,0,1:0:0:0:
448,320,95267,6,0,B|385:304|385:304|339:323|339:323|272:301,1,174,6|2,0:0|0:0,0:0:0:0:
395,224,95741,2,0,L|479:247,1,87,0|2,1:0|0:0,0:0:0:0:
340,128,96057,2,0,L|256:150,1,87,0|2,0:0|0:0,0:0:0:0:
416,64,96373,1,0,1:0:0:0:
437,68,96452,1,0,1:0:0:0:
458,72,96531,1,0,1:0:0:0:
479,76,96610,1,0,1:0:0:0:
500,80,96689,5,6,0:0:0:0:
340,128,97004,2,0,L|322:82,1,43.5,0|8,1:0|0:3,0:0:0:0:
271,191,97320,2,0,L|253:145,1,43.5,0|2,0:0|0:0,0:0:0:0:
160,96,97636,2,0,L|144:136,1,43.5,0|0,1:1|0:0,0:0:0:0:
64,256,97952,6,0,P|101:249|160:240,1,87,6|0,0:0|1:0,0:0:0:0:
256,320,98425,1,8,0:3:0:0:
239,326,98583,1,0,0:0:0:0:
252,338,98741,1,2,0:0:0:0:
149,241,98899,1,0,1:0:0:0:
356,207,99215,6,0,P|312:198|259:188,1,87,6|0,0:0|1:0,0:0:0:0:
128,128,99689,2,0,P|170:120|213:111,1,87,8|2,0:3|0:0,0:0:0:0:
320,32,100162,2,0,L|362:41,1,43.5,0|0,1:0|0:0,0:0:0:0:
495,113,100478,6,0,P|452:118|415:140,1,87,6|0,0:0|1:0,0:0:0:0:
332,240,100952,1,8,0:3:0:0:
453,365,101110,5,0,1:0:0:0:
473,342,101189,1,0,1:0:0:0:
482,313,101267,1,0,1:0:0:0:
475,281,101346,1,0,1:0:0:0:
454,258,101425,2,0,L|419:264,3,21.75,0|0|0|0,1:0|1:0|1:0|1:0,0:0:0:0:
454,232,101741,6,0,L|407:244,1,43.5,2|4,0:0|0:3,0:0:0:0:
346,333,102057,2,0,L|301:345,1,43.5,2|4,0:0|0:3,0:0:0:0:
167,363,102373,6,0,L|189:310,1,43.5,2|4,0:0|0:3,0:0:0:0:
320,219,102689,2,0,L|304:174,1,43.5,2|4,0:0|0:3,0:0:0:0:
146,122,103004,6,0,P|158:81|170:29,1,87,4|2,1:2|0:0,0:0:0:0:
247,103,103478,1,4,0:3:0:0:
127,134,103636,5,2,0:0:0:0:
224,233,103794,1,4,0:3:0:0:
371,166,103952,5,2,0:0:0:0:
221,244,104110,1,4,0:3:0:0:
352,352,104267,6,0,L|364:326,3,21.75,0|0|0|0,1:2|1:0|1:0|1:0,0:0:0:0:
416,256,104583,2,0,L|403:228,3,21.75,0|0|0|0,1:0|1:0|1:2|1:0,0:0:0:0:
353,153,104899,2,0,L|363:123,3,21.75,0|0|0|0,1:0|1:0|1:0|1:0,0:0:0:0:
448,96,105215,6,0,L|443:70,1,26.0999992034912,0|0,1:0|0:0,0:0:0:0:
357,6,105373,2,0,L|352:32,1,26.0999992034912,2|0,0:0|0:0,0:0:0:0:
88,246,105846,5,0,1:0:0:0:
178,160,106004,1,2,0:0:0:0:
224,288,106162,5,0,1:0:0:0:
196,297,106241,1,0,1:0:0:0:
167,294,106320,1,0,1:0:0:0:
141,281,106399,1,0,1:0:0:0:
117,259,106478,5,0,1:0:0:0:
88,246,106557,1,0,1:0:0:0:
56,246,106636,1,0,1:0:0:0:
27,258,106715,1,0,1:0:0:0:
4,279,106794,5,6,0:0:0:0:
72,345,106952,1,0,0:0:0:0:
64,160,107110,5,0,1:0:0:0:
117,259,107267,1,2,0:0:0:0:
209,73,107425,5,0,1:0:0:0:
156,172,107582,1,2,0:0:0:0:
300,13,107741,5,0,1:0:0:0:
201,66,107898,1,2,0:0:0:0:
320,160,108057,6,0,B|396:175|396:175|447:148,1,130.5,0|0,1:0|0:0,0:0:0:0:
463,138,108373,2,0,B|475:97|475:97|452:48,1,87,0|0,1:0|0:0,0:0:0:0:
262,112,108689,6,0,P|243:155|255:198,1,87,0|2,1:0|0:0,0:0:0:0:
409,306,109004,2,0,P|366:287|323:299,1,87,0|2,1:0|0:0,0:0:0:0:
160,384,109320,5,2,0:0:0:0:
256,352,109478,1,0,0:0:0:0:
64,256,109636,5,0,1:0:0:0:
192,288,109794,1,2,0:0:0:0:
3,357,109952,5,0,1:0:0:0:
100,329,110110,1,2,0:0:0:0:
0,172,110267,5,0,1:0:0:0:
130,201,110425,1,2,0:0:0:0:
93,44,110583,6,0,P|107:107|124:181,1,130.5,0|0,1:0|0:0,0:0:0:0:
130,201,110899,2,0,P|174:215|219:201,1,87,0|0,1:0|0:0,0:0:0:0:
448,288,111215,6,0,P|404:274|359:288,1,87,0|2,1:0|0:0,0:0:0:0:
205,160,111531,2,0,P|249:174|294:160,1,87,0|2,1:0|0:0,0:0:0:0:
484,81,111846,6,0,P|380:65|298:52,1,174,2|0,0:0|1:0,0:0:0:0:
215,125,112320,2,0,P|199:167|213:206,1,87,0|2,0:0|0:0,0:0:0:0:
410,115,112636,5,0,1:0:0:0:
292,198,112794,1,0,1:0:0:0:
491,319,112952,1,8,0:3:0:0:
491,319,113031,1,0,0:0:0:0:
491,319,113110,6,0,B|398:305|422:370|326:368,1,174,2|0,0:0|1:0,0:0:0:0:
256,308,113583,1,0,0:0:0:0:
96,384,113741,6,0,B|75:348|75:348|93:301,1,87,2|2,0:0|0:0,0:0:0:0:
248,108,114057,2,0,B|264:150|264:150|243:186,1,87,2|2,0:0|0:0,0:0:0:0:
0,105,114373,6,0,P|58:122|147:147,1,130.5,2|0,0:0|0:0,0:0:0:0:
144,133,114689,2,0,P|127:190|117:227,1,87,0|0,1:0|0:0,0:0:0:0:
0,309,115004,1,2,0:0:0:0:
0,309,115162,2,0,P|11:268|24:226,1,87,0|0,1:0|0:0,0:0:0:0:
203,154,115478,6,0,B|278:192|292:117|372:155,1,174,2|2,0:0|0:0,0:0:0:0:
512,64,115952,2,0,L|480:160,1,87,0|0,1:0|0:0,0:0:0:0:
416,288,116267,1,0,1:0:0:0:
386,268,116346,1,0,1:0:0:0:
351,263,116425,1,0,1:0:0:0:
316,270,116504,1,0,1:0:0:0:
285,294,116583,5,0,1:0:0:0:
250,311,116662,1,0,1:0:0:0:
210,313,116741,1,0,1:0:0:0:
172,301,116820,1,0,1:0:0:0:
142,275,116899,5,4,0:0:0:0:
242,230,117057,1,0,0:0:0:0:
128,160,117215,5,0,1:0:0:0:
28,115,117373,1,2,0:0:0:0:
0,288,117531,5,0,1:0:0:0:
100,243,117689,1,2,0:0:0:0:
310,358,117846,5,0,1:0:0:0:
210,313,118004,1,2,0:0:0:0:
100,243,118162,6,0,P|90:172|129:123,1,130.5,0|0,1:0|0:0,0:0:0:0:
151,116,118478,2,0,L|242:137,1,87,0|0,1:0|0:0,0:0:0:0:
447,214,118794,6,0,L|356:235,1,87,0|2,1:0|0:0,0:0:0:0:
173,364,119110,5,0,1:0:0:0:
284,202,119267,1,2,0:0:0:0:
352,352,119425,5,2,0:0:0:0:
192,288,119583,1,0,0:0:0:0:
359,340,119741,5,0,1:0:0:0:
199,276,119899,1,2,0:0:0:0:
345,158,120057,5,0,1:0:0:0:
281,318,120215,1,2,0:0:0:0:
333,151,120373,5,0,1:0:0:0:
269,311,120531,1,2,0:0:0:0:
160,214,120689,6,0,P|81:231|19:245,1,130.5,0|0,1:0|0:0,0:0:0:0:
32,242,121004,2,0,P|47:187|60:146,1,87,0|0,1:0|0:0,0:0:0:0:
281,318,121320,6,0,P|269:275|257:234,1,87,0|2,1:0|0:0,0:0:0:0:
215,77,121636,1,0,1:0:0:0:
213,71,121794,1,2,0:0:0:0:
344,151,121952,6,0,B|283:138|283:138|229:164|229:164|167:152,1,182.699994424439,2|2,0:0|0:0,0:0:0:0:
169,152,122583,6,0,P|138:111|142:59,1,104.399996813965,4|0,1:0|0:0,0:0:0:0:
319,34,122899,6,0,P|338:72|333:114,1,87,4|0,1:0|0:0,0:0:0:0:
257,234,123215,6,0,B|335:185|345:271|431:212,1,182.699994424439,2|2,0:0|0:0,0:0:0:0:
429,212,123846,6,0,P|439:160|450:109,1,104.399996813965,4|0,1:0|0:0,0:0:0:0:
257,234,124162,2,0,P|268:285|278:336,1,104.399996813965,8|8,0:3|0:3,0:0:0:0:
450,216,124478,6,0,L|458:183,1,26.0999992034912,2|0,0:0|0:0,0:0:0:0:
254,319,124794,6,0,L|262:356,1,21.75,2|0,0:0|0:0,0:0:0:0:
64,288,125110,5,0,1:0:0:0:
64,288,125267,1,2,0:0:0:0:
64,288,125583,6,0,B|31:233|31:233|59:127,1,174,2|2,0:0|0:0,0:0:0:0:
228,193,126057,2,0,L|122:214,1,87,0|2,1:0|0:0,0:0:0:0:
143,209,126294,1,0,0:0:0:0:
143,209,126373,5,4,1:3:0:0:
256,320,126531,1,2,0:0:0:0:
391,151,126689,2,0,P|383:192|373:238,1,87,4|2,1:3|0:0,0:0:0:0:
268,158,127004,5,6,0:0:0:0:
475,237,127162,1,0,3:0:0:0:
475,237,127241,1,0,3:0:0:0:
475,237,127320,2,0,P|432:237|380:266,1,87,0|0,1:0|0:0,0:0:0:0:
256,357,127636,2,0,P|211:361|171:334,1,87,2|2,0:0|0:0,0:0:0:0:
38,268,127952,1,0,1:0:0:0:
146,152,128110,1,0,0:0:0:0:
38,268,128267,6,0,P|96:255|214:229,1,174,2|0,0:0|1:0,0:0:0:0:
320,160,128741,1,0,0:0:0:0:
211,58,128899,2,0,P|184:92|175:134,1,87,2|2,0:0|0:0,0:0:0:0:
294,274,129215,1,0,1:0:0:0:
422,198,129373,1,0,0:0:0:0:
461,298,129531,6,0,L|436:390,1,87,6|0,0:0|0:0,0:0:0:0:
278,188,129846,2,0,L|295:279,1,87,0|0,1:0|0:0,0:0:0:0:
224,360,130162,5,2,0:0:0:0:
376,212,130320,1,2,0:0:0:0:
232,117,130478,1,0,1:0:0:0:
284,16,130636,5,2,0:0:0:0:
150,81,130794,1,4,0:0:0:0:
278,188,130952,1,2,0:0:0:0:
193,369,131110,6,0,P|182:326|175:300,2,58,0|0|0,1:0|0:0|0:0,0:0:0:0:
279,298,131425,2,0,P|285:269|291:235,2,58,2|0|0,0:0|0:0|0:0,0:0:0:0:
355,382,131741,2,0,P|367:353|379:319,2,58,0|0|0,1:0|0:0|0:0,0:0:0:0:
279,298,132057,6,0,B|342:286|342:286|393:308|393:308|459:290,1,174,6|0,0:0|1:0,0:0:0:0:
355,193,132531,1,0,0:0:0:0:
495,80,132689,1,0,0:0:0:0:
369,32,132846,5,0,1:0:0:0:
437,265,133004,1,0,1:0:0:0:
454,161,133162,6,0,P|412:174|368:181,1,87,8|0,0:3|0:0,0:0:0:0:
179,300,133478,2,0,P|203:309|244:316,1,43.5,2|0,0:0|0:0,0:0:0:0:
300,310,133636,6,0,B|211:302|235:369|134:369,1,174,0|2,1:0|0:0,0:0:0:0:
41,301,134110,1,2,0:0:0:0:
215,180,134267,1,0,1:0:0:0:
121,142,134425,5,8,0:3:0:0:
121,142,134504,1,8,0:3:0:0:
121,142,134583,1,6,0:0:0:0:
159,281,134741,1,0,0:0:0:0:
61,213,134899,5,0,1:0:0:0:
224,68,135057,1,0,0:0:0:0:
123,28,135215,5,2,0:0:0:0:
238,208,135373,1,0,1:0:0:0:
238,208,135689,6,0,P|317:184|382:239,1,174,6|2,0:0|0:0,0:0:0:0:
512,81,136162,2,0,P|475:103|432:107,1,87,0|2,1:0|0:0,0:0:0:0:
242,298,136478,5,0,1:0:0:0:
277,272,136557,1,0,1:0:0:0:
321,263,136636,1,0,1:0:0:0:
364,269,136715,1,0,1:0:0:0:
391,290,136794,5,0,1:0:0:0:
420,308,136873,1,0,1:0:0:0:
454,310,136952,1,0,1:0:0:0:
486,296,137031,1,0,1:0:0:0:
508,269,137110,6,0,L|498:214,1,43.5,2|2,0:0|0:0,0:0:0:0:
405,126,137267,1,2,0:0:0:0:
405,126,137346,1,2,0:0:0:0:
405,126,137425,2,0,L|389:175,1,43.5,2|2,1:2|0:0,0:0:0:0:
299,261,137583,2,0,P|247:273|185:230,1,130.5
174,151,137899,6,0,P|150:159|115:175,1,43.5
43,237,138057,2,0,P|48:264|51:293,1,43.5,2|2,1:2|0:0,0:0:0:0:
110,361,138215,2,0,P|123:343|136:326,1,43.5,2|2,0:0|0:0,0:0:0:0:
258,276,138373,5,2,0:0:0:0:
299,261,138452,1,2,0:0:0:0:
343,261,138531,1,2,0:0:0:0:
383,280,138610,1,2,0:0:0:0:
410,314,138689,2,0,P|404:336|393:367,1,43.5,2|2,1:2|0:0,0:0:0:0:
512,266,138846,2,0,P|506:244|500:224,1,43.5,2|2,0:0|0:0,0:0:0:0:
425,144,139004,5,2,0:0:0:0:
387,123,139083,1,2,0:0:0:0:
344,123,139162,1,2,0:0:0:0:
305,141,139241,1,2,0:0:0:0:
277,173,139320,2,0,L|262:231,1,43.5,2|2,1:2|0:0,0:0:0:0:
167,113,139478,2,0,L|180:155,1,43.5,2|2,0:0|0:0,0:0:0:0:
257,249,139636,5,2,0:0:0:0:
229,235,139715,1,2,0:0:0:0:
198,233,139794,1,2,0:0:0:0:
169,244,139873,1,2,0:0:0:0:
134,261,139952,5,2,1:2:0:0:
94,263,140031,1,2,0:0:0:0:
57,248,140110,1,2,0:0:0:0:
34,215,140189,1,2,0:0:0:0:
49,179,140267,1,2,0:0:0:0:
71,146,140346,1,2,0:0:0:0:
81,108,140425,1,2,0:0:0:0:
66,71,140504,1,2,0:0:0:0:
39,42,140583,6,0,L|95:52,1,43.5,2|2,1:2|0:0,0:0:0:0:
196,71,140741,2,0,L|239:79,1,43.5,2|2,0:0|0:0,0:0:0:0:
349,155,140899,5,2,0:0:0:0:
392,155,140978,1,0,0:0:0:0:
431,135,141057,1,0,0:0:0:0:
458,101,141136,1,0,0:0:0:0:
450,58,141215,1,0,1:0:0:0:
408,43,141294,1,0,0:0:0:0:
379,76,141373,1,0,0:0:0:0:
392,117,141452,1,0,0:0:0:0:
431,135,141531,5,2,0:0:0:0:
455,170,141610,1,0,0:0:0:0:
462,212,141689,1,0,0:0:0:0:
444,251,141767,1,0,0:0:0:0:
405,275,141846,2,0,L|355:264,1,43.5
272,178,142004,2,0,L|314:168,1,43.5
431,135,142162,6,0,B|338:145|381:191|278:209,1,174,6|0,0:0|0:0,0:0:0:0:
186,159,142636,1,0,0:0:0:0:
33,317,142794,6,0,P|24:276|45:232,1,87,4|0,1:0|0:0,0:0:0:0:
164,57,143110,2,0,L|181:142,1,87,4|0,1:0|0:0,0:0:0:0:
204,316,143425,6,0,P|135:261|48:281,1,174,6|0,0:0|0:0,0:0:0:0:
111,359,143899,1,0,0:0:0:0:
315,253,144057,5,4,0:0:0:0:
388,338,144215,1,2,0:0:0:0:
498,208,144373,2,0,L|485:252,2,43.5,0|0|0,1:0|1:0|1:0,0:0:0:0:
233,224,144689,6,0,B|292:208|292:208|344:227|344:227|409:209,1,174,6|0,0:0|1:0,0:0:0:0:
497,127,145162,1,2,0:0:0:0:
368,63,145320,2,0,P|325:66|293:94,1,87,0|2,1:0|0:0,0:0:0:0:
164,268,145636,2,0,P|196:296|239:300,1,87,0|2,1:0|0:0,0:0:0:0:
121,184,145952,6,0,L|79:194,2,43.5,0|0|2,0:0|0:0|0:0,0:0:0:0:
78,284,146267,5,0,1:0:0:0:
147,98,146425,1,2,0:0:0:0:
0,192,146583,5,8,0:3:0:0:
3,170,146662,1,8,0:3:0:0:
6,148,146741,1,8,0:3:0:0:
10,126,146820,1,8,0:3:0:0:
12,104,146899,2,0,P|16:61|23:11,1,65.2500024890901,8|8,0:3|0:3,0:0:0:0:
118,112,147215,6,0,P|104:162|92:213,1,104.399996813965,6|2,0:0|0:0,0:0:0:0:
288,32,147846,2,0,P|301:82|313:133,1,104.399996813965,2|2,0:0|0:0,0:0:0:0:
337,213,148320,1,0,0:0:0:0:
337,213,148478,6,0,L|229:191,1,104.399996813965,2|2,0:0|0:0,0:0:0:0:
25,340,149110,2,0,L|133:318,1,104.399996813965,2|2,0:0|0:0,0:0:0:0:
178,253,149583,1,0,0:0:0:0:
257,282,149741,6,0,P|308:302|356:320,1,104.399996813965,2|0,0:0|0:0,0:0:0:0:
434,175,150373,2,0,P|383:195|335:213,1,104.399996813965,2|2,0:0|0:0,0:0:0:0:
127,319,151004,5,2,0:0:0:0:
127,319,151320,2,0,P|99:271|122:212,1,104.399996813965,0|2,1:0|0:0,0:0:0:0:
186,167,151794,2,0,L|247:186,1,52.1999984069825,0|2,1:0|0:0,0:0:0:0:
128,89,152110,1,0,1:0:0:0:
128,89,152189,1,0,1:0:0:0:
128,89,152267,6,0,P|67:103|27:114,1,104.399996813965,2|2,0:0|0:0,0:0:0:0:
126,318,152899,2,0,P|177:331|228:344,1,104.399996813965,2|2,0:0|0:0,0:0:0:0:
341,290,153373,1,2,0:0:0:0:
341,290,153531,6,0,P|297:325|241:321,1,113.099994822693,2|2,0:0|0:0,0:0:0:0:
85,188,154162,2,0,P|131:157|185:166,1,113.099994822693,2|2,0:0|0:0,0:0:0:0:
250,236,154636,1,0,0:0:0:0:
372,181,154794,6,0,P|357:235|341:289,1,113.099994822693,2|2,0:0|0:0,0:0:0:0:
96,224,155425,2,0,P|110:278|126:332,1,113.099994822693,2|2,0:0|0:0,0:0:0:0:
218,248,155899,1,2,0:0:0:0:
256,323,156057,6,0,L|239:385,1,56.5499974113466
145,303,156373,1,0,0:0:0:0:
310,225,156531,1,0,0:0:0:0:
310,225,156610,1,8,0:3:0:0:
310,225,156689,1,8,0:3:0:0:
222,138,156846,1,0,1:0:0:0:
278,42,157004,2,0,L|286:-3,2,28.2749987056733,0|2|8,1:0|0:0|0:3,0:0:0:0:
346,101,157320,6,0,P|284:86|232:123,1,130.50000497818,6|0,0:0|1:0,0:0:0:0:
157,205,157794,1,0,0:0:0:0:
51,152,157952,2,0,L|34:215,1,65.2500024890901,2|2,0:0|0:0,0:0:0:0:
196,291,158267,2,0,L|169:217,1,65.2500024890901,0|0,1:0|0:0,0:0:0:0:
0,366,158583,5,2,0:0:0:0:
89,293,158741,1,0,0:0:0:0:
34,215,158899,2,0,P|101:254|157:229,1,130.50000497818,0|2,1:0|0:0,0:0:0:0:
260,133,159373,1,2,0:0:0:0:
260,133,159531,2,0,P|271:172|279:202,1,65.2500024890901,0|2,1:0|0:0,0:0:0:0:
449,181,159846,6,0,P|438:220|430:250,1,65.2500024890901,2|0,0:0|0:0,0:0:0:0:
472,373,160162,2,0,P|420:329|358:341,1,130.50000497818,0|2,1:0|0:0,0:0:0:0:
278,384,160636,1,2,0:0:0:0:
183,314,160794,2,0,P|170:267|161:223,1,65.2500024890901,0|0,1:0|0:0,0:0:0:0:
243,185,161110,6,0,P|251:216|260:248,1,65.2500024890901,2|0,0:0|0:0,0:0:0:0:
106,378,161425,2,0,P|88:311|73:248,1,130.50000497818,0|2,1:0|0:0,0:0:0:0:
192,320,161899,1,2,0:0:0:0:
47,237,162057,1,0,1:0:0:0:
128,128,162215,1,2,0:0:0:0:
128,128,162294,1,0,1:0:0:0:
128,128,162373,6,0,L|142:183,1,52.1999984069825,2|4,0:0|0:3,0:0:0:0:
256,352,162689,2,0,L|268:301,1,52.1999984069825,2|4,0:0|0:3,0:0:0:0:
32,224,163004,6,0,L|87:238,1,52.1999984069825,2|4,0:0|0:3,0:0:0:0:
258,124,163320,2,0,L|207:136,1,52.1999984069825,2|4,0:0|0:3,0:0:0:0:
74,327,163636,6,0,P|124:312|180:295,1,104.399996813965,4|2,1:2|0:0,0:0:0:0:
252,206,164110,1,4,0:3:0:0:
228,363,164267,5,2,0:0:0:0:
352,288,164425,1,4,0:3:0:0:
224,288,164583,5,2,0:0:0:0:
416,224,164741,1,4,0:3:0:0:
252,206,164899,6,0,L|247:181,3,26.0999992034912,0|0|0|0,1:0|1:0|1:0|1:0,0:0:0:0:
320,128,165215,6,0,L|326:95,3,30.4499990707398,0|0|0|0,1:0|1:0|1:0|1:0,0:0:0:0:
224,64,165531,6,0,P|218:44|212:22,3,34.8,0|0|0|0,1:0|1:0|1:0|1:0,0:0:0:0:
128,128,165846,6,0,P|111:123|80:114,1,39.1499988052369,0|0,1:0|1:0,0:0:0:0:
178,253,166004,6,0,P|257:239|355:224,1,156.599995220947,6|4,0:0|0:3,0:0:0:0:
452,204,166478,1,4,0:3:0:0:
323,118,166636,1,4,0:3:0:0:
254,324,166794,1,0,1:0:0:0:
254,324,167110,1,2,0:0:0:0:
254,324,167425,6,0,B|182:289|107:305|47:350|47:350|106:267|166:282|171:222|143:172|76:164|36:224|75:263,1,522,12|0,0:2|0:0,0:0:0:0:
254,324,169952,6,0,P|291:333|328:345,1,65.2500024890901,6|0,0:0|0:0,0:0:0:0:
162,314,170267,2,0,P|193:304|224:296,1,65.2500024890901,0|0,0:0|0:0,0:0:0:0:
416,224,170583,6,0,P|378:214|342:203,1,65.2500024890901,0|0,0:0|0:0,0:0:0:0:
508,234,170899,2,0,P|476:243|445:251,1,65.2500024890901
193,183,171215,6,0,P|234:252|214:305,1,130.50000497818,6|0,0:0|0:0,0:0:0:0:
220,295,171846,2,0,P|180:244|190:182,1,130.50000497818,6|0,0:0|0:0,0:0:0:0:
286,117,172320,1,0,0:0:0:0:
137,87,172478,6,0,L|204:72,1,65.2500024890901,6|0,0:0|0:0,0:0:0:0:
34,88,172794,2,0,L|101:73,1,65.2500024890901,0|0,0:0|0:0,0:0:0:0:
345,157,173110,6,0,L|278:142,1,65.2500024890901,0|0,0:0|0:0,0:0:0:0:
443,154,173426,2,0,L|376:139,1,65.2500024890901,0|0,0:0|0:0,0:0:0:0:
160,253,173741,5,2,0:0:0:0:
320,320,173899,1,0,1:0:0:0:
198,384,174057,5,0,1:0:0:0:
331,330,174215,1,8,0:3:0:0:
331,330,174294,1,0,0:0:0:0:
331,330,174373,2,0,L|396:348,1,65.2500024890901,8|2,0:3|0:0,0:0:0:0:
290,237,174689,2,0,L|241:248,2,32.625001244545,0|0|0,1:0|1:0|1:0,0:0:0:0:
480,160,175004,6,0,P|409:173|361:135,1,130.50000497818,6|2,0:0|0:0,0:0:0:0:
287,32,175478,5,4,0:3:0:0:
343,109,175636,1,2,0:0:0:0:
160,192,175794,5,0,1:0:0:0:
234,129,175952,1,0,1:0:0:0:
256,224,176110,1,2,0:0:0:0:
64,288,176267,5,2,0:0:0:0:
160,320,176425,1,4,0:3:0:0:
84,375,176583,5,2,0:0:0:0:
244,343,176741,1,4,0:3:0:0:
133,223,176899,1,2,0:0:0:0:
320,352,177057,5,0,1:0:0:0:
176,285,177215,1,0,1:0:0:0:
352,224,177373,1,2,0:0:0:0:
224,128,177531,5,6,0:0:0:0:
230,126,177846,2,0,L|299:151,1,65.2500024890901,0|2,1:0|0:0,0:0:0:0:
359,86,178162,5,0,1:0:0:0:
182,201,178320,2,0,L|201:284,1,65.2500024890901,2|8,0:0|0:0,0:0:0:0:
342,218,178636,6,0,L|312:351,1,130.50000497818,6|4,0:0|0:3,0:0:0:0:
317,351,179110,2,0,P|370:341|421:334,1,97.8750037336351,4|0,0:3|0:0,0:0:0:0:
487,296,179425,6,0,P|436:250|368:269,1,123.97499668951,4|0,0:3|0:0,0:0:0:0:
321,304,179741,1,12,0:0:0:0:
321,304,180057,5,6,0:0:0:0:
225,272,180215,1,0,0:0:0:0:
69,371,180373,5,0,1:0:0:0:
165,339,180531,1,2,0:0:0:0:
174,120,180689,5,0,1:0:0:0:
142,248,180847,1,2,0:0:0:0:
296,150,181005,5,2,0:0:0:0:
253,18,181163,1,0,1:0:0:0:
102,157,181320,6,0,P|165:148|214:188,1,130.5,0|0,1:0|0:0,0:0:0:0:
221,195,181636,2,0,P|208:241|197:281,1,87,0|0,1:0|0:0,0:0:0:0:
446,168,181952,6,0,P|382:159|333:199,1,130.5,0|0,1:0|0:0,0:0:0:0:
326,207,182268,2,0,P|339:253|350:293,1,87,0|2,1:0|0:0,0:0:0:0:
446,168,182583,5,2,0:0:0:0:
320,224,182741,1,0,0:0:0:0:
160,128,182899,5,0,1:0:0:0:
310,186,183057,1,2,0:0:0:0:
448,64,183215,5,0,1:0:0:0:
302,143,183373,1,2,0:0:0:0:
160,32,183531,5,0,1:0:0:0:
296,100,183689,1,2,0:0:0:0:
160,224,183846,6,0,L|-1:188,1,130.5,0|0,1:0|0:0,0:0:0:0:
6,211,184162,2,0,B|-17:249|-17:249|3:297,1,87,0|0,1:0|0:0,0:0:0:0:
192,192,184478,1,0,1:0:0:0:
77,111,184636,1,2,0:0:0:0:
224,64,184794,5,0,1:0:0:0:
128,256,184952,1,2,0:0:0:0:
128,256,185031,1,0,0:0:0:0:
128,256,185110,6,0,P|213:210|296:237,1,182.699994424439,2|2,0:0|0:0,0:0:0:0:
479,127,185741,6,0,P|423:131|387:161,1,104.399996813965,4|0,1:0|0:0,0:0:0:0:
371,357,186057,6,0,P|391:319|394:276,1,87,4|0,1:0|0:0,0:0:0:0:
241,134,186373,6,0,P|336:192|391:154,1,182.699994424439,2|2,0:0|0:0,0:0:0:0:
512,32,187004,6,0,P|453:44|399:57,1,104.399996813965,4|0,1:0|0:0,0:0:0:0:
241,134,187320,2,0,P|190:122|139:111,1,104.399996813965,8|8,0:3|0:3,0:0:0:0:
0,32,187636,6,0,L|12:78,1,26.0999992034912,2|0,0:0|0:0,0:0:0:0:
256,162,187952,6,0,L|249:189,1,21.75,2|0,0:0|0:0,0:0:0:0:
32,320,188267,5,0,1:0:0:0:
32,320,188425,1,2,0:0:0:0:
32,320,188741,6,0,B|130:295|101:369|206:339,1,174,2|2,0:0|0:0,0:0:0:0:
428,253,189215,2,0,P|383:256|347:235,1,87,0|2,1:0|0:0,0:0:0:0:
192,128,189531,6,0,L|226:121,1,21.75,4|0,0:3|0:0,0:0:0:0:
512,160,189846,6,0,L|490:164,1,21.75,4|0,0:3|0:0,0:0:0:0:
153,256,190162,6,0,L|292:286,1,130.5,6|0,0:0|1:0,0:0:0:0:
306,307,190478,1,0,1:0:0:0:
218,195,190636,1,0,1:0:0:0:
133,336,190794,2,0,L|36:350,1,87,2|0,0:0|0:0,0:0:0:0:
15,353,191031,2,0,P|-9:309|17:235,1,130.5,0|0,1:0|1:0,0:0:0:0:
128,64,191425,6,0,P|114:120|103:159,1,87,2|0,0:0|0:0,0:0:0:0:
102,176,191662,1,0,1:0:0:0:
102,176,191741,1,0,1:0:0:0:
266,97,191899,1,0,1:0:0:0:
138,33,192057,1,2,0:0:0:0:
192,192,192215,5,0,0:0:0:0:
196,199,192373,1,0,1:0:0:0:
186,197,192531,1,0,1:0:0:0:
375,122,192689,6,0,P|330:112|289:103,1,87,2|0,0:0|0:0,0:0:0:0:
289,103,192925,1,0,1:0:0:0:
289,103,193004,1,0,1:0:0:0:
100,211,193162,1,0,1:0:0:0:
100,211,193241,1,0,1:0:0:0:
100,211,193320,2,0,P|148:203|216:191,1,87,2|0,0:0|0:0,0:0:0:0:
224,189,193557,2,0,L|195:323,1,130.5,0|0,1:0|1:0,0:0:0:0:
320,224,193952,5,2,0:0:0:0:
411,366,194110,1,0,0:0:0:0:
411,366,194189,1,0,0:0:0:0:
411,366,194267,2,0,P|398:314|389:277,1,87,2|0,0:0|0:0,0:0:0:0:
352,96,194583,5,2,0:0:0:0:
272,206,194741,1,0,1:0:0:0:
311,186,194820,1,0,0:0:0:0:
355,188,194899,1,0,1:0:0:0:
394,206,194978,1,0,1:0:0:0:
437,203,195057,1,0,1:0:0:0:
469,173,195136,1,0,1:0:0:0:
466,128,195215,6,0,P|401:87|340:102,1,130.5,6|0,0:0|1:0,0:0:0:0:
336,119,195531,2,0,P|317:56|304:14,1,87,0|0,1:0|1:0,0:0:0:0:
256,224,195846,2,0,P|243:265|230:307,1,87,2|0,0:0|0:0,0:0:0:0:
222,338,196083,2,0,P|153:349|108:312,1,130.5,0|0,1:0|1:0,0:0:0:0:
0,224,196478,6,0,P|36:217|90:205,1,87,2|0,0:0|0:0,0:0:0:0:
117,201,196715,1,0,1:0:0:0:
117,201,196794,1,0,1:0:0:0:
222,338,196952,1,0,1:0:0:0:
288,224,197110,1,2,0:0:0:0:
416,352,197267,5,0,0:0:0:0:
411,345,197425,1,2,0:0:0:0:
410,354,197583,1,0,1:0:0:0:
448,160,197741,5,2,0:0:0:0:
416,256,197899,1,2,0:0:0:0:
352,64,198057,5,8,0:3:0:0:
288,192,198215,1,8,0:3:0:0:
128,96,198373,5,4,0:3:0:0:
192,256,198531,1,4,0:3:0:0:
224,96,198689,5,0,1:0:0:0:
96,256,198846,1,0,1:0:0:0:
96,256,198925,1,0,1:0:0:0:
96,256,199004,5,2,0:0:0:0:
261,320,199162,1,2,0:0:0:0:
171,177,199320,1,8,0:3:0:0:
64,352,199478,1,8,0:3:0:0:
256,288,199636,5,4,0:3:0:0:
104,155,199794,1,0,1:0:0:0:
104,155,199873,1,0,1:0:0:0:
104,155,199952,2,0,L|156:172,1,43.5,0|0,1:0|1:0,0:0:0:0:
265,84,200110,2,0,L|211:99,1,43.5,0|0,1:0|1:0,0:0:0:0:
0,288,200583,5,6,0:0:0:0:
256,192,200662,12,0,202636,0:0:0:0:
126,246,202794,6,0,L|170:229,1,43.5,0|0,1:0|1:0,0:0:0:0:
256,192,202952,1,0,1:0:0:0:
